osu file format v12

[General]
AudioFilename: Mozart.mp3
AudioLeadIn: 3000
PreviewTime: -1
Countdown: 1
SampleSet: Soft
StackLeniency: 0.7
Mode: 3
LetterboxInBreaks: 1

[Editor]
DistanceSpacing: 0.8
BeatDivisor: 4
GridSize: 32

[Metadata]
Title:mozart
TitleUnicode:mozart
Artist:M2U
ArtistUnicode:M2U
Creator:retadidas
Version:Insane
Source:
Tags:mozart M2U retadidas
BeatmapID:233019
BeatmapSetID:84624

[Difficulty]
HPDrainRate:7
CircleSize:7
OverallDifficulty:8
ApproachRate:10
SliderMultiplier:1.4
SliderTickRate:1

[Events]
//Background and Video events
0,0,"Mozart.jpg",1,1
//Break Periods
//Storyboard Layer 0 (Background)
//Storyboard Layer 1 (Fail)
//Storyboard Layer 2 (Pass)
//Storyboard Layer 3 (Foreground)
//Storyboard Sound Samples
//Background Colour Transformations
3,100,163,162,255

[TimingPoints]
227,400,4,2,0,100,1,0

[HitObjects]
460,192,227,1,0,0:0:0:0:
109,192,227,1,0,0:0:0:0:
402,192,427,1,0,0:0:0:0:
358,192,627,1,0,0:0:0:0:
109,192,627,1,0,0:0:0:0:
402,192,827,1,0,0:0:0:0:
460,192,1027,1,0,0:0:0:0:
109,192,1027,1,0,0:0:0:0:
402,192,1227,1,0,0:0:0:0:
329,192,1427,1,0,0:0:0:0:
109,192,1427,1,0,0:0:0:0:
402,192,1627,1,0,0:0:0:0:
402,192,1827,1,0,0:0:0:0:
36,192,1827,1,0,0:0:0:0:
109,192,2027,1,0,0:0:0:0:
182,192,2227,1,0,0:0:0:0:
402,192,2227,1,0,0:0:0:0:
109,192,2427,1,0,0:0:0:0:
402,192,2627,1,0,0:0:0:0:
51,192,2627,1,0,0:0:0:0:
109,192,2827,1,0,0:0:0:0:
182,192,3027,1,0,0:0:0:0:
402,192,3027,1,0,0:0:0:0:
109,192,3227,1,0,0:0:0:0:
51,192,3427,1,0,0:0:0:0:
475,192,3427,1,0,0:0:0:0:
109,192,3627,1,0,0:0:0:0:
402,192,3627,1,0,0:0:0:0:
329,192,3827,1,0,0:0:0:0:
153,192,3827,1,0,0:0:0:0:
109,192,4027,1,0,0:0:0:0:
402,192,4027,1,0,0:0:0:0:
51,192,4227,1,0,0:0:0:0:
460,192,4227,1,0,0:0:0:0:
402,192,4427,1,0,0:0:0:0:
109,192,4427,1,0,0:0:0:0:
182,192,4627,1,0,0:0:0:0:
329,192,4627,1,0,0:0:0:0:
109,192,4827,1,0,0:0:0:0:
402,192,4827,1,0,0:0:0:0:
51,192,5027,1,0,0:0:0:0:
460,192,5027,1,0,0:0:0:0:
182,192,5227,1,0,0:0:0:0:
329,192,5227,1,0,0:0:0:0:
402,192,5427,1,0,0:0:0:0:
256,192,5427,1,0,0:0:0:0:
182,192,5627,1,0,0:0:0:0:
329,192,5627,1,0,0:0:0:0:
51,192,5827,1,0,0:0:0:0:
460,192,5827,1,0,0:0:0:0:
182,192,6027,1,0,0:0:0:0:
329,192,6027,1,0,0:0:0:0:
109,192,6227,1,0,0:0:0:0:
256,192,6227,1,0,0:0:0:0:
182,192,6427,1,0,0:0:0:0:
329,192,6427,1,0,0:0:0:0:
51,192,6627,1,0,0:0:0:0:
460,192,6627,1,0,0:0:0:0:
358,192,6627,128,0,8227:0:0:0:0:
109,192,6627,1,0,0:0:0:0:
182,192,7027,1,0,0:0:0:0:
109,192,7027,1,0,0:0:0:0:
51,192,7427,1,0,0:0:0:0:
475,192,7427,1,0,0:0:0:0:
109,192,7427,1,0,0:0:0:0:
182,192,7827,1,0,0:0:0:0:
109,192,7827,1,0,0:0:0:0:
153,192,8227,128,0,9827:0:0:0:0:
475,192,8227,1,0,0:0:0:0:
36,192,8227,1,0,0:0:0:0:
402,192,8227,1,0,0:0:0:0:
329,192,8627,1,0,0:0:0:0:
402,192,8627,1,0,0:0:0:0:
36,192,8627,1,0,0:0:0:0:
402,192,9027,1,0,0:0:0:0:
475,192,9027,1,0,0:0:0:0:
329,192,9427,1,0,0:0:0:0:
402,192,9427,1,0,0:0:0:0:
358,192,9827,128,0,11427:0:0:0:0:
475,192,9827,1,0,0:0:0:0:
36,192,9827,1,0,0:0:0:0:
109,192,9827,1,0,0:0:0:0:
182,192,10227,1,0,0:0:0:0:
109,192,10227,1,0,0:0:0:0:
51,192,10627,1,0,0:0:0:0:
475,192,10627,1,0,0:0:0:0:
109,192,10627,1,0,0:0:0:0:
182,192,11027,1,0,0:0:0:0:
109,192,11027,1,0,0:0:0:0:
153,192,11427,128,0,13027:0:0:0:0:
475,192,11427,1,0,0:0:0:0:
36,192,11427,1,0,0:0:0:0:
402,192,11427,1,0,0:0:0:0:
36,192,11827,1,0,0:0:0:0:
329,192,11827,1,0,0:0:0:0:
402,192,11827,1,0,0:0:0:0:
402,192,12227,1,0,0:0:0:0:
475,192,12227,1,0,0:0:0:0:
329,192,12627,1,0,0:0:0:0:
402,192,12627,1,0,0:0:0:0:
51,192,13027,128,0,14627:0:0:0:0:
460,192,13027,128,0,14627:0:0:0:0:
256,192,13027,1,0,0:0:0:0:
329,192,13027,1,0,0:0:0:0:
182,192,13427,1,0,0:0:0:0:
109,192,13427,1,0,0:0:0:0:
256,192,13827,1,0,0:0:0:0:
182,192,13827,1,0,0:0:0:0:
402,192,13827,1,0,0:0:0:0:
329,192,14227,1,0,0:0:0:0:
402,192,14227,1,0,0:0:0:0:
153,192,14627,128,0,16227:0:0:0:0:
256,192,14627,1,0,0:0:0:0:
329,192,14627,1,0,0:0:0:0:
460,192,15027,1,0,0:0:0:0:
402,192,15027,1,0,0:0:0:0:
109,192,15027,1,0,0:0:0:0:
329,192,15427,1,0,0:0:0:0:
256,192,15427,1,0,0:0:0:0:
36,192,15827,1,0,0:0:0:0:
109,192,15827,1,0,0:0:0:0:
51,192,16227,128,0,17827:0:0:0:0:
460,192,16227,128,0,17827:0:0:0:0:
256,192,16227,1,0,0:0:0:0:
329,192,16227,1,0,0:0:0:0:
182,192,16627,1,0,0:0:0:0:
109,192,16627,1,0,0:0:0:0:
256,192,17027,1,0,0:0:0:0:
182,192,17027,1,0,0:0:0:0:
402,192,17027,1,0,0:0:0:0:
329,192,17427,1,0,0:0:0:0:
256,192,17427,1,0,0:0:0:0:
256,192,17827,128,0,19427:0:0:0:0:
460,192,18227,1,0,0:0:0:0:
402,192,18227,1,0,0:0:0:0:
109,192,18227,1,0,0:0:0:0:
329,192,18627,1,0,0:0:0:0:
402,192,18627,1,0,0:0:0:0:
182,192,19027,1,0,0:0:0:0:
109,192,19027,1,0,0:0:0:0:
51,192,19427,1,0,0:0:0:0:
109,192,19427,1,0,0:0:0:0:
153,192,19627,1,0,0:0:0:0:
256,192,19627,1,0,0:0:0:0:
256,192,19827,1,0,0:0:0:0:
329,192,19827,1,0,0:0:0:0:
460,192,20027,1,0,0:0:0:0:
402,192,20027,1,0,0:0:0:0:
329,192,20227,1,0,0:0:0:0:
153,192,20327,1,0,0:0:0:0:
51,192,20427,1,0,0:0:0:0:
153,192,20527,1,0,0:0:0:0:
329,192,20627,1,0,0:0:0:0:
51,192,21027,1,0,0:0:0:0:
109,192,21027,1,0,0:0:0:0:
153,192,21227,1,0,0:0:0:0:
256,192,21227,1,0,0:0:0:0:
256,192,21427,1,0,0:0:0:0:
329,192,21427,1,0,0:0:0:0:
460,192,21627,1,0,0:0:0:0:
402,192,21627,1,0,0:0:0:0:
329,192,21827,1,0,0:0:0:0:
153,192,21927,1,0,0:0:0:0:
51,192,22027,1,0,0:0:0:0:
153,192,22127,1,0,0:0:0:0:
329,192,22227,1,0,0:0:0:0:
109,192,22627,1,0,0:0:0:0:
182,192,22627,1,0,0:0:0:0:
256,192,22827,1,0,0:0:0:0:
329,192,22827,1,0,0:0:0:0:
358,192,23027,1,0,0:0:0:0:
402,192,23027,1,0,0:0:0:0:
460,192,23227,1,0,0:0:0:0:
402,192,23227,1,0,0:0:0:0:
402,192,23427,1,0,0:0:0:0:
256,192,23527,1,0,0:0:0:0:
109,192,23627,1,0,0:0:0:0:
256,192,23727,1,0,0:0:0:0:
402,192,23827,1,0,0:0:0:0:
109,192,24227,1,0,0:0:0:0:
182,192,24227,1,0,0:0:0:0:
256,192,24427,1,0,0:0:0:0:
329,192,24427,1,0,0:0:0:0:
358,192,24627,1,0,0:0:0:0:
402,192,24627,1,0,0:0:0:0:
460,192,24827,1,0,0:0:0:0:
402,192,24827,1,0,0:0:0:0:
402,192,25027,1,0,0:0:0:0:
256,192,25127,1,0,0:0:0:0:
109,192,25227,1,0,0:0:0:0:
256,192,25327,1,0,0:0:0:0:
402,192,25427,1,0,0:0:0:0:
36,192,25827,1,0,0:0:0:0:
475,192,25827,1,0,0:0:0:0:
109,192,26027,1,0,0:0:0:0:
402,192,26027,1,0,0:0:0:0:
153,192,26227,1,0,0:0:0:0:
329,192,26227,1,0,0:0:0:0:
256,192,26427,1,0,0:0:0:0:
460,192,26627,1,0,0:0:0:0:
402,192,26727,1,0,0:0:0:0:
329,192,26827,1,0,0:0:0:0:
402,192,26927,1,0,0:0:0:0:
256,192,26927,1,0,0:0:0:0:
460,192,27027,1,0,0:0:0:0:
182,192,27027,1,0,0:0:0:0:
36,192,27427,1,0,0:0:0:0:
109,192,27527,1,0,0:0:0:0:
182,192,27627,1,0,0:0:0:0:
109,192,27727,1,0,0:0:0:0:
256,192,27727,1,0,0:0:0:0:
36,192,27827,1,0,0:0:0:0:
329,192,27827,1,0,0:0:0:0:
36,192,28227,1,0,0:0:0:0:
475,192,28227,1,0,0:0:0:0:
109,192,28327,1,0,0:0:0:0:
402,192,28327,1,0,0:0:0:0:
182,192,28427,1,0,0:0:0:0:
329,192,28427,1,0,0:0:0:0:
109,192,28527,1,0,0:0:0:0:
402,192,28527,1,0,0:0:0:0:
36,192,28627,1,0,0:0:0:0:
475,192,28627,1,0,0:0:0:0:
109,192,28727,1,0,0:0:0:0:
402,192,28727,1,0,0:0:0:0:
182,192,28827,1,0,0:0:0:0:
329,192,28827,1,0,0:0:0:0:
109,192,28927,1,0,0:0:0:0:
402,192,28927,1,0,0:0:0:0:
329,192,29027,1,0,0:0:0:0:
460,192,29027,1,0,0:0:0:0:
36,192,29027,1,0,0:0:0:0:
402,192,29427,1,0,0:0:0:0:
256,192,29427,1,0,0:0:0:0:
329,192,29827,1,0,0:0:0:0:
182,192,29827,1,0,0:0:0:0:
256,192,30227,1,0,0:0:0:0:
109,192,30227,1,0,0:0:0:0:
51,192,30627,1,0,0:0:0:0:
182,192,30627,1,0,0:0:0:0:
329,192,31027,1,0,0:0:0:0:
460,192,31027,1,0,0:0:0:0:
460,192,31427,1,0,0:0:0:0:
329,192,31427,1,0,0:0:0:0:
182,192,31827,1,0,0:0:0:0:
36,192,31827,1,0,0:0:0:0:
256,192,32227,1,0,0:0:0:0:
475,192,32227,128,0,33827:0:0:0:0:
109,192,32227,1,0,0:0:0:0:
182,192,32227,128,0,32627:0:0:0:0:
36,192,32627,1,0,0:0:0:0:
109,192,32627,128,0,33027:0:0:0:0:
256,192,33027,1,0,0:0:0:0:
182,192,33027,128,0,33427:0:0:0:0:
329,192,33427,1,0,0:0:0:0:
256,192,33427,128,0,33827:0:0:0:0:
182,192,33827,1,0,0:0:0:0:
109,192,33827,128,0,35427:0:0:0:0:
329,192,33827,128,0,34227:0:0:0:0:
402,192,34227,128,0,34627:0:0:0:0:
475,192,34227,1,0,0:0:0:0:
329,192,34627,128,0,35027:0:0:0:0:
256,192,34627,1,0,0:0:0:0:
256,192,35027,128,0,35427:0:0:0:0:
402,192,35027,1,0,0:0:0:0:
358,192,35427,1,0,0:0:0:0:
402,192,35427,128,0,37027:0:0:0:0:
182,192,35427,128,0,35827:0:0:0:0:
256,192,35827,1,0,0:0:0:0:
109,192,35827,128,0,36227:0:0:0:0:
51,192,36227,1,0,0:0:0:0:
182,192,36227,128,0,36627:0:0:0:0:
109,192,36627,1,0,0:0:0:0:
256,192,36627,128,0,37027:0:0:0:0:
36,192,37027,128,0,38627:0:0:0:0:
182,192,37027,1,0,0:0:0:0:
329,192,37027,128,0,37427:0:0:0:0:
256,192,37427,1,0,0:0:0:0:
402,192,37427,128,0,37827:0:0:0:0:
475,192,37827,1,0,0:0:0:0:
329,192,37827,128,0,38227:0:0:0:0:
256,192,38227,1,0,0:0:0:0:
402,192,38227,128,0,38627:0:0:0:0:
460,192,38627,1,0,0:0:0:0:
329,192,38627,1,0,0:0:0:0:
182,192,38627,128,0,40227:0:0:0:0:
329,192,38827,1,0,0:0:0:0:
329,192,39027,1,0,0:0:0:0:
329,192,39227,1,0,0:0:0:0:
460,192,39427,1,0,0:0:0:0:
329,192,39427,1,0,0:0:0:0:
329,192,39627,1,0,0:0:0:0:
329,192,39827,1,0,0:0:0:0:
329,192,40027,1,0,0:0:0:0:
329,192,40227,128,0,41827:0:0:0:0:
475,192,40227,1,0,0:0:0:0:
36,192,40227,1,0,0:0:0:0:
182,192,40427,1,0,0:0:0:0:
182,192,40627,1,0,0:0:0:0:
182,192,40827,1,0,0:0:0:0:
182,192,41027,1,0,0:0:0:0:
36,192,41027,1,0,0:0:0:0:
182,192,41227,1,0,0:0:0:0:
182,192,41427,1,0,0:0:0:0:
182,192,41627,1,0,0:0:0:0:
256,192,41827,1,0,0:0:0:0:
475,192,41827,128,0,43427:0:0:0:0:
36,192,41827,1,0,0:0:0:0:
256,192,42027,1,0,0:0:0:0:
256,192,42227,1,0,0:0:0:0:
256,192,42427,1,0,0:0:0:0:
256,192,42627,1,0,0:0:0:0:
109,192,42627,1,0,0:0:0:0:
256,192,42827,1,0,0:0:0:0:
256,192,43027,1,0,0:0:0:0:
256,192,43227,1,0,0:0:0:0:
51,192,43427,1,0,0:0:0:0:
329,192,43427,1,0,0:0:0:0:
109,192,43427,128,0,45027:0:0:0:0:
329,192,43627,1,0,0:0:0:0:
329,192,43827,1,0,0:0:0:0:
329,192,44027,1,0,0:0:0:0:
475,192,44227,1,0,0:0:0:0:
329,192,44227,1,0,0:0:0:0:
329,192,44427,1,0,0:0:0:0:
329,192,44627,1,0,0:0:0:0:
329,192,44827,1,0,0:0:0:0:
182,192,45027,1,0,0:0:0:0:
329,192,45027,1,0,0:0:0:0:
36,192,45027,1,0,0:0:0:0:
475,192,45027,1,0,0:0:0:0:
475,192,45427,1,0,0:0:0:0:
36,192,45427,1,0,0:0:0:0:
51,192,45627,1,0,0:0:0:0:
109,192,45627,1,0,0:0:0:0:
460,192,45827,1,0,0:0:0:0:
402,192,45827,1,0,0:0:0:0:
51,192,46027,1,0,0:0:0:0:
109,192,46027,1,0,0:0:0:0:
460,192,46227,1,0,0:0:0:0:
402,192,46227,1,0,0:0:0:0:
51,192,46427,1,0,0:0:0:0:
109,192,46427,1,0,0:0:0:0:
460,192,46627,1,0,0:0:0:0:
402,192,46627,1,0,0:0:0:0:
36,192,47027,1,0,0:0:0:0:
475,192,47027,1,0,0:0:0:0:
153,192,47227,1,0,0:0:0:0:
109,192,47227,1,0,0:0:0:0:
358,192,47427,1,0,0:0:0:0:
402,192,47427,1,0,0:0:0:0:
153,192,47627,1,0,0:0:0:0:
109,192,47627,1,0,0:0:0:0:
358,192,47827,1,0,0:0:0:0:
402,192,47827,1,0,0:0:0:0:
153,192,48027,1,0,0:0:0:0:
109,192,48027,1,0,0:0:0:0:
358,192,48227,1,0,0:0:0:0:
402,192,48227,1,0,0:0:0:0:
36,192,48627,1,0,0:0:0:0:
475,192,48627,1,0,0:0:0:0:
182,192,49027,1,0,0:0:0:0:
329,192,49027,1,0,0:0:0:0:
402,192,49027,1,0,0:0:0:0:
109,192,49027,1,0,0:0:0:0:
36,192,49427,1,0,0:0:0:0:
475,192,49427,1,0,0:0:0:0:
109,192,49627,1,0,0:0:0:0:
182,192,49727,1,0,0:0:0:0:
256,192,49827,1,0,0:0:0:0:
329,192,49927,1,0,0:0:0:0:
182,192,49927,1,0,0:0:0:0:
402,192,50027,1,0,0:0:0:0:
109,192,50027,1,0,0:0:0:0:
182,192,50127,1,0,0:0:0:0:
329,192,50127,1,0,0:0:0:0:
256,192,50227,1,0,0:0:0:0:
329,192,50327,1,0,0:0:0:0:
182,192,50327,1,0,0:0:0:0:
402,192,50427,1,0,0:0:0:0:
109,192,50427,1,0,0:0:0:0:
329,192,50527,1,0,0:0:0:0:
182,192,50527,1,0,0:0:0:0:
256,192,50627,1,0,0:0:0:0:
182,192,50727,1,0,0:0:0:0:
329,192,50727,1,0,0:0:0:0:
109,192,50827,1,0,0:0:0:0:
402,192,50827,1,0,0:0:0:0:
182,192,50927,1,0,0:0:0:0:
329,192,50927,1,0,0:0:0:0:
256,192,51027,1,0,0:0:0:0:
329,192,51127,1,0,0:0:0:0:
402,192,51227,1,0,0:0:0:0:
329,192,51427,1,0,0:0:0:0:
182,192,51427,1,0,0:0:0:0:
256,192,51527,1,0,0:0:0:0:
182,192,51627,1,0,0:0:0:0:
36,192,51827,1,0,0:0:0:0:
182,192,51827,1,0,0:0:0:0:
109,192,51927,1,0,0:0:0:0:
182,192,52027,1,0,0:0:0:0:
182,192,52227,128,0,53027:0:0:0:0:
36,192,52227,1,0,0:0:0:0:
329,192,52227,1,0,0:0:0:0:
402,192,52327,1,0,0:0:0:0:
475,192,52427,1,0,0:0:0:0:
402,192,52527,1,0,0:0:0:0:
329,192,52627,1,0,0:0:0:0:
402,192,52727,1,0,0:0:0:0:
475,192,52827,1,0,0:0:0:0:
402,192,52927,1,0,0:0:0:0:
358,192,53027,1,0,0:0:0:0:
36,192,53027,1,0,0:0:0:0:
109,192,53027,128,0,53827:0:0:0:0:
256,192,53127,1,0,0:0:0:0:
329,192,53227,1,0,0:0:0:0:
402,192,53327,1,0,0:0:0:0:
475,192,53427,1,0,0:0:0:0:
182,192,53427,1,0,0:0:0:0:
402,192,53527,1,0,0:0:0:0:
329,192,53627,1,0,0:0:0:0:
256,192,53727,1,0,0:0:0:0:
36,192,53827,128,0,54627:0:0:0:0:
182,192,53827,1,0,0:0:0:0:
475,192,54127,1,0,0:0:0:0:
402,192,54227,1,0,0:0:0:0:
256,192,54527,1,0,0:0:0:0:
153,192,54627,1,0,0:0:0:0:
475,192,54627,128,0,55427:0:0:0:0:
402,192,54927,1,0,0:0:0:0:
329,192,55027,1,0,0:0:0:0:
51,192,55427,1,0,0:0:0:0:
256,192,55427,128,0,56227:0:0:0:0:
475,192,55627,1,0,0:0:0:0:
402,192,55727,1,0,0:0:0:0:
329,192,55827,1,0,0:0:0:0:
182,192,55927,1,0,0:0:0:0:
109,192,56027,1,0,0:0:0:0:
36,192,56127,1,0,0:0:0:0:
329,192,56227,1,0,0:0:0:0:
153,192,56227,1,0,0:0:0:0:
109,192,56327,1,0,0:0:0:0:
402,192,56327,1,0,0:0:0:0:
36,192,56427,1,0,0:0:0:0:
475,192,56427,1,0,0:0:0:0:
402,192,56527,1,0,0:0:0:0:
109,192,56527,1,0,0:0:0:0:
182,192,56627,1,0,0:0:0:0:
329,192,56627,1,0,0:0:0:0:
109,192,56727,1,0,0:0:0:0:
402,192,56727,1,0,0:0:0:0:
36,192,56827,1,0,0:0:0:0:
475,192,56827,1,0,0:0:0:0:
109,192,56927,1,0,0:0:0:0:
402,192,56927,1,0,0:0:0:0:
182,192,57027,1,0,0:0:0:0:
329,192,57027,1,0,0:0:0:0:
182,192,57227,1,0,0:0:0:0:
329,192,57227,1,0,0:0:0:0:
475,192,57427,1,0,0:0:0:0:
36,192,57427,1,0,0:0:0:0:
182,192,57427,1,0,0:0:0:0:
329,192,57427,1,0,0:0:0:0:
182,192,57627,1,0,0:0:0:0:
329,192,57627,1,0,0:0:0:0:
460,192,57827,1,0,0:0:0:0:
402,192,57827,1,0,0:0:0:0:
36,192,58027,1,0,0:0:0:0:
109,192,58027,1,0,0:0:0:0:
182,192,58227,1,0,0:0:0:0:
109,192,58227,1,0,0:0:0:0:
460,192,58427,1,0,0:0:0:0:
402,192,58427,1,0,0:0:0:0:
358,192,58627,1,0,0:0:0:0:
256,192,58627,1,0,0:0:0:0:
460,192,58827,1,0,0:0:0:0:
402,192,58827,1,0,0:0:0:0:
358,192,59027,1,0,0:0:0:0:
256,192,59027,1,0,0:0:0:0:
109,192,59227,1,0,0:0:0:0:
36,192,59227,1,0,0:0:0:0:
153,192,59427,1,0,0:0:0:0:
109,192,59427,1,0,0:0:0:0:
256,192,59627,1,0,0:0:0:0:
182,192,59627,1,0,0:0:0:0:
329,192,59827,1,0,0:0:0:0:
256,192,59827,1,0,0:0:0:0:
460,192,60027,1,0,0:0:0:0:
402,192,60027,1,0,0:0:0:0:
329,192,60227,1,0,0:0:0:0:
256,192,60227,1,0,0:0:0:0:
256,192,60427,1,0,0:0:0:0:
182,192,60427,1,0,0:0:0:0:
153,192,60627,1,0,0:0:0:0:
109,192,60627,1,0,0:0:0:0:
51,192,60827,1,0,0:0:0:0:
109,192,60827,1,0,0:0:0:0:
402,192,61027,1,0,0:0:0:0:
329,192,61027,1,0,0:0:0:0:
182,192,61227,1,0,0:0:0:0:
256,192,61227,1,0,0:0:0:0:
402,192,61427,1,0,0:0:0:0:
329,192,61427,1,0,0:0:0:0:
109,192,61627,1,0,0:0:0:0:
182,192,61627,1,0,0:0:0:0:
460,192,61827,1,0,0:0:0:0:
402,192,61827,1,0,0:0:0:0:
256,192,62027,1,0,0:0:0:0:
182,192,62027,1,0,0:0:0:0:
460,192,62227,1,0,0:0:0:0:
402,192,62227,1,0,0:0:0:0:
36,192,62427,1,0,0:0:0:0:
109,192,62427,1,0,0:0:0:0:
329,192,62627,1,0,0:0:0:0:
256,192,62627,1,0,0:0:0:0:
182,192,62827,1,0,0:0:0:0:
109,192,62827,1,0,0:0:0:0:
329,192,63027,1,0,0:0:0:0:
256,192,63027,1,0,0:0:0:0:
51,192,63227,1,0,0:0:0:0:
109,192,63227,1,0,0:0:0:0:
460,192,63427,1,0,0:0:0:0:
402,192,63427,1,0,0:0:0:0:
256,192,63627,1,0,0:0:0:0:
182,192,63627,1,0,0:0:0:0:
460,192,63827,1,0,0:0:0:0:
402,192,63827,1,0,0:0:0:0:
153,192,64027,1,0,0:0:0:0:
109,192,64027,1,0,0:0:0:0:
182,192,64227,128,0,65827:0:0:0:0:
36,192,64227,128,0,65827:0:0:0:0:
475,192,64227,1,0,0:0:0:0:
329,192,64227,1,0,0:0:0:0:
402,192,64627,1,0,0:0:0:0:
460,192,65027,1,0,0:0:0:0:
329,192,65027,1,0,0:0:0:0:
402,192,65427,1,0,0:0:0:0:
460,192,65827,128,0,67027:0:0:0:0:
329,192,65827,128,0,67027:0:0:0:0:
51,192,66227,1,0,0:0:0:0:
182,192,66227,1,0,0:0:0:0:
109,192,66627,1,0,0:0:0:0:
36,192,67027,1,0,0:0:0:0:
182,192,67027,1,0,0:0:0:0:
460,192,67427,1,0,0:0:0:0:
402,192,67427,1,0,0:0:0:0:
329,192,67527,1,0,0:0:0:0:
256,192,67527,1,0,0:0:0:0:
182,192,67627,1,0,0:0:0:0:
109,192,67627,1,0,0:0:0:0:
109,192,67827,1,0,0:0:0:0:
256,192,67827,1,0,0:0:0:0:
109,192,68027,1,0,0:0:0:0:
256,192,68027,1,0,0:0:0:0:
109,192,68227,1,0,0:0:0:0:
256,192,68227,1,0,0:0:0:0:
109,192,68427,1,0,0:0:0:0:
36,192,68427,1,0,0:0:0:0:
256,192,68627,1,0,0:0:0:0:
182,192,68627,1,0,0:0:0:0:
402,192,68827,1,0,0:0:0:0:
329,192,68827,1,0,0:0:0:0:
460,192,69027,1,0,0:0:0:0:
402,192,69027,1,0,0:0:0:0:
329,192,69127,1,0,0:0:0:0:
256,192,69127,1,0,0:0:0:0:
182,192,69227,1,0,0:0:0:0:
109,192,69227,1,0,0:0:0:0:
109,192,69427,1,0,0:0:0:0:
256,192,69427,1,0,0:0:0:0:
109,192,69627,1,0,0:0:0:0:
256,192,69627,1,0,0:0:0:0:
109,192,69827,1,0,0:0:0:0:
256,192,69827,1,0,0:0:0:0:
329,192,70027,1,0,0:0:0:0:
256,192,70027,1,0,0:0:0:0:
109,192,70227,1,0,0:0:0:0:
182,192,70227,1,0,0:0:0:0:
475,192,70427,1,0,0:0:0:0:
402,192,70427,1,0,0:0:0:0:
109,192,70627,128,0,72227:0:0:0:0:
36,192,70627,128,0,72227:0:0:0:0:
182,192,70627,1,0,0:0:0:0:
256,192,70827,1,0,0:0:0:0:
329,192,71027,1,0,0:0:0:0:
402,192,71227,1,0,0:0:0:0:
460,192,71427,1,0,0:0:0:0:
329,192,71427,1,0,0:0:0:0:
402,192,71627,1,0,0:0:0:0:
329,192,71827,1,0,0:0:0:0:
256,192,72027,1,0,0:0:0:0:
402,192,72227,128,0,73827:0:0:0:0:
475,192,72227,128,0,73827:0:0:0:0:
182,192,72227,1,0,0:0:0:0:
109,192,72427,1,0,0:0:0:0:
51,192,72627,1,0,0:0:0:0:
182,192,72627,1,0,0:0:0:0:
109,192,72827,1,0,0:0:0:0:
182,192,73027,1,0,0:0:0:0:
256,192,73227,1,0,0:0:0:0:
329,192,73427,1,0,0:0:0:0:
256,192,73627,1,0,0:0:0:0:
153,192,73827,128,0,75427:0:0:0:0:
109,192,73827,128,0,75427:0:0:0:0:
329,192,73827,1,0,0:0:0:0:
402,192,74027,1,0,0:0:0:0:
475,192,74227,1,0,0:0:0:0:
402,192,74427,1,0,0:0:0:0:
329,192,74627,1,0,0:0:0:0:
36,192,74627,1,0,0:0:0:0:
256,192,74827,1,0,0:0:0:0:
329,192,75027,1,0,0:0:0:0:
402,192,75227,1,0,0:0:0:0:
358,192,75427,128,0,77027:0:0:0:0:
256,192,75427,128,0,77027:0:0:0:0:
36,192,75427,1,0,0:0:0:0:
475,192,75427,1,0,0:0:0:0:
109,192,75627,1,0,0:0:0:0:
182,192,75827,1,0,0:0:0:0:
475,192,75827,1,0,0:0:0:0:
109,192,76027,1,0,0:0:0:0:
36,192,76227,1,0,0:0:0:0:
475,192,76227,1,0,0:0:0:0:
402,192,76427,1,0,0:0:0:0:
475,192,76627,1,0,0:0:0:0:
402,192,76827,1,0,0:0:0:0:
51,192,77027,1,0,0:0:0:0:
109,192,77027,1,0,0:0:0:0:
475,192,77027,1,0,0:0:0:0:
153,192,77427,1,0,0:0:0:0:
109,192,77427,1,0,0:0:0:0:
256,192,77827,1,0,0:0:0:0:
182,192,77827,1,0,0:0:0:0:
358,192,78227,1,0,0:0:0:0:
256,192,78227,1,0,0:0:0:0:
329,192,78627,1,0,0:0:0:0:
402,192,78627,1,0,0:0:0:0:
358,192,79027,1,0,0:0:0:0:
256,192,79027,1,0,0:0:0:0:
256,192,79427,1,0,0:0:0:0:
182,192,79427,1,0,0:0:0:0:
109,192,79827,1,0,0:0:0:0:
182,192,79827,1,0,0:0:0:0:
36,192,80227,1,0,0:0:0:0:
109,192,80227,1,0,0:0:0:0:
402,192,80427,1,0,0:0:0:0:
475,192,80427,1,0,0:0:0:0:
109,192,80827,1,0,0:0:0:0:
182,192,80827,1,0,0:0:0:0:
402,192,81227,1,0,0:0:0:0:
329,192,81227,1,0,0:0:0:0:
182,192,81627,1,0,0:0:0:0:
256,192,81627,1,0,0:0:0:0:
256,192,82027,1,0,0:0:0:0:
329,192,82027,1,0,0:0:0:0:
358,192,82427,1,0,0:0:0:0:
109,192,82427,1,0,0:0:0:0:
256,192,82427,1,0,0:0:0:0:
402,192,82827,1,0,0:0:0:0:
182,192,82827,1,0,0:0:0:0:
329,192,82827,1,0,0:0:0:0:
460,192,83227,1,0,0:0:0:0:
256,192,83227,1,0,0:0:0:0:
402,192,83227,1,0,0:0:0:0:
51,192,83427,1,0,0:0:0:0:
109,192,83427,1,0,0:0:0:0:
109,192,83827,1,0,0:0:0:0:
182,192,83827,1,0,0:0:0:0:
256,192,84227,1,0,0:0:0:0:
182,192,84227,1,0,0:0:0:0:
329,192,84627,1,0,0:0:0:0:
256,192,84627,1,0,0:0:0:0:
329,192,85027,1,0,0:0:0:0:
402,192,85027,1,0,0:0:0:0:
358,192,85427,1,0,0:0:0:0:
256,192,85427,1,0,0:0:0:0:
256,192,85827,1,0,0:0:0:0:
182,192,85827,1,0,0:0:0:0:
153,192,86227,1,0,0:0:0:0:
109,192,86227,1,0,0:0:0:0:
475,192,86627,1,0,0:0:0:0:
402,192,86627,1,0,0:0:0:0:
36,192,86827,1,0,0:0:0:0:
109,192,86827,1,0,0:0:0:0:
329,192,87227,1,0,0:0:0:0:
402,192,87227,1,0,0:0:0:0:
182,192,87627,1,0,0:0:0:0:
109,192,87627,1,0,0:0:0:0:
329,192,88027,1,0,0:0:0:0:
256,192,88027,1,0,0:0:0:0:
182,192,88427,1,0,0:0:0:0:
256,192,88427,1,0,0:0:0:0:
475,192,88827,1,0,0:0:0:0:
402,192,88827,1,0,0:0:0:0:
256,192,88827,1,0,0:0:0:0:
182,192,89227,1,0,0:0:0:0:
402,192,89227,1,0,0:0:0:0:
329,192,89227,1,0,0:0:0:0:
329,192,89627,1,0,0:0:0:0:
256,192,89627,1,0,0:0:0:0:
109,192,89627,1,0,0:0:0:0:
182,192,89827,128,0,90227:0:0:0:0:
475,192,89827,1,0,0:0:0:0:
36,192,89827,1,0,0:0:0:0:
36,192,90027,1,0,0:0:0:0:
329,192,90027,1,0,0:0:0:0:
329,192,90227,128,0,90627:0:0:0:0:
475,192,90427,1,0,0:0:0:0:
182,192,90427,1,0,0:0:0:0:
36,192,90627,128,0,91027:0:0:0:0:
182,192,90827,1,0,0:0:0:0:
329,192,90827,1,0,0:0:0:0:
256,192,91027,128,0,91427:0:0:0:0:
475,192,91027,1,0,0:0:0:0:
329,192,91227,1,0,0:0:0:0:
475,192,91427,128,0,91827:0:0:0:0:
182,192,91427,1,0,0:0:0:0:
36,192,91627,1,0,0:0:0:0:
329,192,91627,1,0,0:0:0:0:
329,192,91827,128,0,92227:0:0:0:0:
36,192,91827,1,0,0:0:0:0:
475,192,92027,1,0,0:0:0:0:
182,192,92027,1,0,0:0:0:0:
182,192,92227,128,0,92627:0:0:0:0:
36,192,92427,1,0,0:0:0:0:
329,192,92427,1,0,0:0:0:0:
36,192,92627,128,0,93027:0:0:0:0:
182,192,92827,1,0,0:0:0:0:
329,192,92827,1,0,0:0:0:0:
182,192,93027,1,0,0:0:0:0:
475,192,93027,1,0,0:0:0:0:
109,192,93127,1,0,0:0:0:0:
36,192,93227,1,0,0:0:0:0:
475,192,93227,1,0,0:0:0:0:
109,192,93327,1,0,0:0:0:0:
36,192,93427,1,0,0:0:0:0:
109,192,93527,1,0,0:0:0:0:
182,192,93627,1,0,0:0:0:0:
475,192,93627,1,0,0:0:0:0:
256,192,93727,1,0,0:0:0:0:
109,192,93727,1,0,0:0:0:0:
329,192,93827,1,0,0:0:0:0:
36,192,93827,1,0,0:0:0:0:
256,192,93927,1,0,0:0:0:0:
475,192,94027,1,0,0:0:0:0:
182,192,94027,1,0,0:0:0:0:
109,192,94127,1,0,0:0:0:0:
36,192,94227,1,0,0:0:0:0:
109,192,94327,1,0,0:0:0:0:
182,192,94427,1,0,0:0:0:0:
475,192,94427,1,0,0:0:0:0:
109,192,94527,1,0,0:0:0:0:
329,192,94627,1,0,0:0:0:0:
36,192,94627,1,0,0:0:0:0:
402,192,94727,1,0,0:0:0:0:
475,192,94827,1,0,0:0:0:0:
36,192,94827,1,0,0:0:0:0:
402,192,94927,1,0,0:0:0:0:
475,192,95027,1,0,0:0:0:0:
402,192,95127,1,0,0:0:0:0:
36,192,95227,1,0,0:0:0:0:
329,192,95227,1,0,0:0:0:0:
402,192,95327,1,0,0:0:0:0:
256,192,95327,1,0,0:0:0:0:
475,192,95427,1,0,0:0:0:0:
182,192,95427,1,0,0:0:0:0:
256,192,95527,1,0,0:0:0:0:
36,192,95627,1,0,0:0:0:0:
329,192,95627,1,0,0:0:0:0:
402,192,95727,1,0,0:0:0:0:
475,192,95827,1,0,0:0:0:0:
402,192,95927,1,0,0:0:0:0:
36,192,96027,1,0,0:0:0:0:
329,192,96027,1,0,0:0:0:0:
402,192,96127,1,0,0:0:0:0:
402,192,96227,128,0,96627:0:0:0:0:
475,192,96227,1,0,0:0:0:0:
329,192,96227,1,0,0:0:0:0:
329,192,96627,128,0,97027:0:0:0:0:
256,192,96627,1,0,0:0:0:0:
256,192,97027,128,0,97427:0:0:0:0:
182,192,97027,1,0,0:0:0:0:
182,192,97427,128,0,97827:0:0:0:0:
109,192,97427,1,0,0:0:0:0:
256,192,97827,128,0,98227:0:0:0:0:
109,192,97827,1,0,0:0:0:0:
329,192,97827,1,0,0:0:0:0:
182,192,98227,128,0,98627:0:0:0:0:
329,192,98227,1,0,0:0:0:0:
109,192,98627,128,0,99027:0:0:0:0:
256,192,98627,1,0,0:0:0:0:
36,192,99027,128,0,99427:0:0:0:0:
182,192,99027,1,0,0:0:0:0:
358,192,99427,1,0,0:0:0:0:
402,192,99427,128,0,99827:0:0:0:0:
109,192,99427,1,0,0:0:0:0:
182,192,99827,128,0,100227:0:0:0:0:
109,192,99827,1,0,0:0:0:0:
329,192,100227,128,0,100627:0:0:0:0:
402,192,100227,1,0,0:0:0:0:
109,192,100627,128,0,101027:0:0:0:0:
182,192,100627,1,0,0:0:0:0:
51,192,101027,1,0,0:0:0:0:
109,192,101227,1,0,0:0:0:0:
256,192,101227,1,0,0:0:0:0:
182,192,101627,1,0,0:0:0:0:
329,192,101627,1,0,0:0:0:0:
256,192,102027,1,0,0:0:0:0:
402,192,102027,1,0,0:0:0:0:
460,192,102227,1,0,0:0:0:0:
402,192,102327,1,0,0:0:0:0:
329,192,102427,1,0,0:0:0:0:
182,192,102427,1,0,0:0:0:0:
256,192,102527,1,0,0:0:0:0:
51,192,102627,128,0,104227:0:0:0:0:
182,192,102627,1,0,0:0:0:0:
329,192,102627,1,0,0:0:0:0:
256,192,102827,1,0,0:0:0:0:
402,192,102827,1,0,0:0:0:0:
475,192,103027,1,0,0:0:0:0:
329,192,103027,1,0,0:0:0:0:
402,192,103227,1,0,0:0:0:0:
256,192,103227,1,0,0:0:0:0:
329,192,103427,1,0,0:0:0:0:
182,192,103427,1,0,0:0:0:0:
256,192,103627,1,0,0:0:0:0:
402,192,103627,1,0,0:0:0:0:
329,192,103827,1,0,0:0:0:0:
475,192,103827,1,0,0:0:0:0:
402,192,104027,1,0,0:0:0:0:
256,192,104027,1,0,0:0:0:0:
460,192,104227,128,0,105827:0:0:0:0:
329,192,104227,1,0,0:0:0:0:
182,192,104227,1,0,0:0:0:0:
256,192,104427,1,0,0:0:0:0:
109,192,104427,1,0,0:0:0:0:
36,192,104627,1,0,0:0:0:0:
182,192,104627,1,0,0:0:0:0:
109,192,104827,1,0,0:0:0:0:
256,192,104827,1,0,0:0:0:0:
182,192,105027,1,0,0:0:0:0:
329,192,105027,1,0,0:0:0:0:
256,192,105227,1,0,0:0:0:0:
402,192,105227,1,0,0:0:0:0:
329,192,105427,1,0,0:0:0:0:
182,192,105427,1,0,0:0:0:0:
256,192,105627,1,0,0:0:0:0:
109,192,105627,1,0,0:0:0:0:
36,192,105827,1,0,0:0:0:0:
256,192,105827,1,0,0:0:0:0:
402,192,105827,1,0,0:0:0:0:
182,192,105927,1,0,0:0:0:0:
329,192,105927,1,0,0:0:0:0:
109,192,106027,1,0,0:0:0:0:
256,192,106027,1,0,0:0:0:0:
36,192,106227,1,0,0:0:0:0:
182,192,106227,1,0,0:0:0:0:
36,192,106427,1,0,0:0:0:0:
182,192,106427,1,0,0:0:0:0:
36,192,106627,1,0,0:0:0:0:
182,192,106627,1,0,0:0:0:0:
256,192,106827,1,0,0:0:0:0:
109,192,106827,1,0,0:0:0:0:
329,192,107027,1,0,0:0:0:0:
182,192,107027,1,0,0:0:0:0:
109,192,107227,1,0,0:0:0:0:
256,192,107227,1,0,0:0:0:0:
256,192,107427,1,0,0:0:0:0:
402,192,107427,1,0,0:0:0:0:
182,192,107527,1,0,0:0:0:0:
329,192,107527,1,0,0:0:0:0:
109,192,107627,1,0,0:0:0:0:
256,192,107627,1,0,0:0:0:0:
36,192,107827,1,0,0:0:0:0:
182,192,107827,1,0,0:0:0:0:
36,192,108027,1,0,0:0:0:0:
182,192,108027,1,0,0:0:0:0:
36,192,108227,1,0,0:0:0:0:
182,192,108227,1,0,0:0:0:0:
256,192,108427,1,0,0:0:0:0:
109,192,108427,1,0,0:0:0:0:
36,192,108627,1,0,0:0:0:0:
182,192,108627,1,0,0:0:0:0:
256,192,108827,1,0,0:0:0:0:
402,192,108827,1,0,0:0:0:0:
51,192,109027,128,0,110627:0:0:0:0:
475,192,109027,1,0,0:0:0:0:
402,192,109127,1,0,0:0:0:0:
329,192,109227,1,0,0:0:0:0:
256,192,109327,1,0,0:0:0:0:
182,192,109427,1,0,0:0:0:0:
256,192,109527,1,0,0:0:0:0:
329,192,109627,1,0,0:0:0:0:
402,192,109727,1,0,0:0:0:0:
475,192,109827,1,0,0:0:0:0:
402,192,109927,1,0,0:0:0:0:
329,192,110027,1,0,0:0:0:0:
256,192,110127,1,0,0:0:0:0:
182,192,110227,1,0,0:0:0:0:
256,192,110327,1,0,0:0:0:0:
329,192,110427,1,0,0:0:0:0:
256,192,110527,1,0,0:0:0:0:
460,192,110627,128,0,112227:0:0:0:0:
329,192,110627,1,0,0:0:0:0:
256,192,110727,1,0,0:0:0:0:
182,192,110827,1,0,0:0:0:0:
256,192,110927,1,0,0:0:0:0:
329,192,111027,1,0,0:0:0:0:
256,192,111127,1,0,0:0:0:0:
182,192,111227,1,0,0:0:0:0:
109,192,111327,1,0,0:0:0:0:
36,192,111427,1,0,0:0:0:0:
109,192,111527,1,0,0:0:0:0:
182,192,111627,1,0,0:0:0:0:
256,192,111727,1,0,0:0:0:0:
329,192,111827,1,0,0:0:0:0:
256,192,111927,1,0,0:0:0:0:
182,192,112027,1,0,0:0:0:0:
256,192,112127,1,0,0:0:0:0:
329,192,112227,1,0,0:0:0:0:
256,192,112327,1,0,0:0:0:0:
182,192,112427,1,0,0:0:0:0:
36,192,112627,1,0,0:0:0:0:
109,192,112727,1,0,0:0:0:0:
182,192,112827,1,0,0:0:0:0:
475,192,113027,1,0,0:0:0:0:
402,192,113127,1,0,0:0:0:0:
329,192,113227,1,0,0:0:0:0:
109,192,113427,1,0,0:0:0:0:
182,192,113527,1,0,0:0:0:0:
256,192,113627,1,0,0:0:0:0:
475,192,113827,1,0,0:0:0:0:
402,192,113927,1,0,0:0:0:0:
329,192,114027,1,0,0:0:0:0:
36,192,114227,1,0,0:0:0:0:
109,192,114327,1,0,0:0:0:0:
182,192,114427,1,0,0:0:0:0:
329,192,114627,1,0,0:0:0:0:
256,192,114727,1,0,0:0:0:0:
182,192,114827,1,0,0:0:0:0:
329,192,115027,1,0,0:0:0:0:
402,192,115127,1,0,0:0:0:0:
475,192,115227,1,0,0:0:0:0:
402,192,115327,1,0,0:0:0:0:
182,192,115427,128,0,115827:0:0:0:0:
256,192,115427,1,0,0:0:0:0:
475,192,115427,1,0,0:0:0:0:
256,192,115827,128,0,116227:0:0:0:0:
329,192,115827,1,0,0:0:0:0:
329,192,116227,128,0,116627:0:0:0:0:
402,192,116227,1,0,0:0:0:0:
402,192,116627,128,0,117027:0:0:0:0:
475,192,116627,1,0,0:0:0:0:
475,192,117027,128,0,117427:0:0:0:0:
402,192,117427,128,0,117827:0:0:0:0:
329,192,117427,1,0,0:0:0:0:
329,192,117827,128,0,118227:0:0:0:0:
256,192,117827,1,0,0:0:0:0:
256,192,118227,128,0,118627:0:0:0:0:
182,192,118227,1,0,0:0:0:0:
358,192,118627,1,0,0:0:0:0:
182,192,118627,1,0,0:0:0:0:
475,192,118627,1,0,0:0:0:0:
358,192,118827,1,0,0:0:0:0:
475,192,118827,1,0,0:0:0:0:
358,192,119227,1,0,0:0:0:0:
475,192,119227,1,0,0:0:0:0:
358,192,119627,1,0,0:0:0:0:
475,192,119627,1,0,0:0:0:0:
358,192,120027,1,0,0:0:0:0:
475,192,120027,1,0,0:0:0:0:
358,192,120427,1,0,0:0:0:0:
475,192,120427,1,0,0:0:0:0:
358,192,120827,1,0,0:0:0:0:
475,192,120827,1,0,0:0:0:0:
358,192,121227,1,0,0:0:0:0:
475,192,121227,1,0,0:0:0:0:
358,192,121627,1,0,0:0:0:0:
475,192,121627,1,0,0:0:0:0:
182,192,121827,1,0,0:0:0:0:
109,192,121827,128,0,122227:0:0:0:0:
36,192,121827,1,0,0:0:0:0:
182,192,122227,128,0,122627:0:0:0:0:
256,192,122227,1,0,0:0:0:0:
256,192,122627,128,0,123027:0:0:0:0:
329,192,122627,1,0,0:0:0:0:
329,192,123027,128,0,123427:0:0:0:0:
402,192,123027,1,0,0:0:0:0:
460,192,123427,1,0,0:0:0:0:
402,192,123427,128,0,123827:0:0:0:0:
329,192,123827,128,0,124227:0:0:0:0:
256,192,123827,1,0,0:0:0:0:
256,192,124227,128,0,124627:0:0:0:0:
182,192,124227,1,0,0:0:0:0:
182,192,124627,128,0,125027:0:0:0:0:
109,192,124627,1,0,0:0:0:0:
256,192,125027,1,0,0:0:0:0:
109,192,125027,1,0,0:0:0:0:
402,192,125027,1,0,0:0:0:0:
256,192,125227,1,0,0:0:0:0:
402,192,125227,1,0,0:0:0:0:
256,192,125627,1,0,0:0:0:0:
402,192,125627,1,0,0:0:0:0:
256,192,126027,1,0,0:0:0:0:
402,192,126027,1,0,0:0:0:0:
256,192,126427,1,0,0:0:0:0:
402,192,126427,1,0,0:0:0:0:
256,192,126827,1,0,0:0:0:0:
402,192,126827,1,0,0:0:0:0:
256,192,127227,1,0,0:0:0:0:
402,192,127227,1,0,0:0:0:0:
256,192,127627,1,0,0:0:0:0:
402,192,127627,1,0,0:0:0:0:
256,192,128027,1,0,0:0:0:0:
402,192,128027,1,0,0:0:0:0:
36,192,128227,128,0,128627:0:0:0:0:
109,192,128227,1,0,0:0:0:0:
182,192,128627,1,0,0:0:0:0:
109,192,128627,128,0,129027:0:0:0:0:
256,192,129027,1,0,0:0:0:0:
182,192,129027,128,0,129427:0:0:0:0:
329,192,129427,1,0,0:0:0:0:
256,192,129427,128,0,129827:0:0:0:0:
329,192,129827,128,0,130227:0:0:0:0:
402,192,129827,1,0,0:0:0:0:
256,192,130227,128,0,130627:0:0:0:0:
182,192,130227,1,0,0:0:0:0:
182,192,130627,128,0,131027:0:0:0:0:
109,192,130627,1,0,0:0:0:0:
109,192,131027,128,0,131427:0:0:0:0:
36,192,131027,1,0,0:0:0:0:
153,192,131427,1,0,0:0:0:0:
36,192,131427,1,0,0:0:0:0:
329,192,131427,1,0,0:0:0:0:
153,192,131627,1,0,0:0:0:0:
329,192,131627,1,0,0:0:0:0:
153,192,132027,1,0,0:0:0:0:
329,192,132027,1,0,0:0:0:0:
153,192,132427,1,0,0:0:0:0:
329,192,132427,1,0,0:0:0:0:
153,192,132827,1,0,0:0:0:0:
329,192,132827,1,0,0:0:0:0:
153,192,133227,1,0,0:0:0:0:
329,192,133227,1,0,0:0:0:0:
153,192,133627,1,0,0:0:0:0:
329,192,133627,1,0,0:0:0:0:
153,192,134027,1,0,0:0:0:0:
329,192,134027,1,0,0:0:0:0:
153,192,134427,1,0,0:0:0:0:
329,192,134427,1,0,0:0:0:0:
475,192,134627,128,0,137427:0:0:0:0:
402,192,135027,128,0,137027:0:0:0:0:
329,192,135427,128,0,136627:0:0:0:0:
256,192,135827,128,0,136227:0:0:0:0:
36,192,136227,128,0,137827:0:0:0:0:
109,192,136627,128,0,137827:0:0:0:0:
182,192,137027,128,0,137827:0:0:0:0:
256,192,137427,128,0,137827:0:0:0:0:
475,192,137827,128,0,140627:0:0:0:0:
402,192,138227,128,0,140227:0:0:0:0:
329,192,138627,128,0,139827:0:0:0:0:
256,192,139027,128,0,139427:0:0:0:0:
36,192,139427,128,0,141027:0:0:0:0:
109,192,139827,128,0,141027:0:0:0:0:
182,192,140227,128,0,141027:0:0:0:0:
256,192,140627,128,0,141027:0:0:0:0:
475,192,141027,128,0,143827:0:0:0:0:
402,192,141427,128,0,143427:0:0:0:0:
329,192,141827,128,0,143027:0:0:0:0:
256,192,142227,128,0,142627:0:0:0:0:
36,192,142627,128,0,145427:0:0:0:0:
109,192,143027,128,0,145027:0:0:0:0:
182,192,143427,128,0,144627:0:0:0:0:
256,192,143827,128,0,144227:0:0:0:0:
475,192,144227,128,0,144627:0:0:0:0:
402,192,144227,1,0,0:0:0:0:
402,192,144627,128,0,145027:0:0:0:0:
329,192,144627,1,0,0:0:0:0:
329,192,145027,128,0,145427:0:0:0:0:
256,192,145027,1,0,0:0:0:0:
475,192,145027,1,0,0:0:0:0:
256,192,145427,128,0,145827:0:0:0:0:
182,192,145427,1,0,0:0:0:0:
402,192,145427,1,0,0:0:0:0:
475,192,145827,128,0,147427:0:0:0:0:
36,192,145827,1,0,0:0:0:0:
329,192,145827,1,0,0:0:0:0:
182,192,145827,1,0,0:0:0:0:
402,192,146227,128,0,147427:0:0:0:0:
329,192,146627,128,0,147427:0:0:0:0:
256,192,147027,128,0,147427:0:0:0:0:
36,192,147427,128,0,149027:0:0:0:0:
109,192,147827,128,0,149027:0:0:0:0:
182,192,148227,128,0,149027:0:0:0:0:
256,192,148627,128,0,149027:0:0:0:0:
402,192,149027,1,0,0:0:0:0:
475,192,149027,1,0,0:0:0:0:
153,192,149227,1,0,0:0:0:0:
256,192,149227,1,0,0:0:0:0:
51,192,149627,1,0,0:0:0:0:
109,192,149627,1,0,0:0:0:0:
256,192,150027,1,0,0:0:0:0:
329,192,150027,1,0,0:0:0:0:
460,192,150427,1,0,0:0:0:0:
402,192,150427,1,0,0:0:0:0:
36,192,150627,1,0,0:0:0:0:
109,192,150727,1,0,0:0:0:0:
182,192,150827,1,0,0:0:0:0:
36,192,150927,1,0,0:0:0:0:
109,192,151027,1,0,0:0:0:0:
182,192,151127,1,0,0:0:0:0:
256,192,151227,1,0,0:0:0:0:
182,192,151327,1,0,0:0:0:0:
402,192,151427,1,0,0:0:0:0:
109,192,151427,1,0,0:0:0:0:
182,192,151827,1,0,0:0:0:0:
329,192,151827,1,0,0:0:0:0:
36,192,151827,1,0,0:0:0:0:
475,192,151827,1,0,0:0:0:0:
109,192,152227,1,0,0:0:0:0:
402,192,152227,1,0,0:0:0:0:
256,192,152227,1,0,0:0:0:0:
329,192,152627,1,0,0:0:0:0:
182,192,152627,1,0,0:0:0:0:
36,192,152627,1,0,0:0:0:0:
475,192,152627,1,0,0:0:0:0:
109,192,153027,1,0,0:0:0:0:
402,192,153027,1,0,0:0:0:0:
256,192,153027,1,0,0:0:0:0:
182,192,153427,1,0,0:0:0:0:
329,192,153427,1,0,0:0:0:0:
36,192,153427,1,0,0:0:0:0:
475,192,153427,1,0,0:0:0:0:
402,192,153827,1,0,0:0:0:0:
329,192,153827,1,0,0:0:0:0:
475,192,153827,1,0,0:0:0:0:
153,192,154227,1,0,0:0:0:0:
109,192,154227,1,0,0:0:0:0:
256,192,154227,1,0,0:0:0:0:
256,192,154627,1,0,0:0:0:0:
329,192,154627,1,0,0:0:0:0:
402,192,154627,1,0,0:0:0:0:
51,192,155027,1,0,0:0:0:0:
109,192,155027,1,0,0:0:0:0:
182,192,155027,1,0,0:0:0:0:
109,192,155427,1,0,0:0:0:0:
182,192,155527,1,0,0:0:0:0:
256,192,155627,1,0,0:0:0:0:
36,192,155727,1,0,0:0:0:0:
109,192,155827,1,0,0:0:0:0:
182,192,155927,1,0,0:0:0:0:
256,192,156027,1,0,0:0:0:0:
182,192,156127,1,0,0:0:0:0:
402,192,156227,1,0,0:0:0:0:
109,192,156227,1,0,0:0:0:0:
109,192,156627,1,0,0:0:0:0:
329,192,156627,1,0,0:0:0:0:
402,192,157027,1,0,0:0:0:0:
51,192,157027,1,0,0:0:0:0:
109,192,157427,1,0,0:0:0:0:
329,192,157427,1,0,0:0:0:0:
36,192,157827,1,0,0:0:0:0:
402,192,157827,1,0,0:0:0:0:
109,192,158227,1,0,0:0:0:0:
329,192,158227,1,0,0:0:0:0:
36,192,158627,1,0,0:0:0:0:
329,192,158627,1,0,0:0:0:0:
402,192,158627,1,0,0:0:0:0:
256,192,159027,1,0,0:0:0:0:
182,192,159027,1,0,0:0:0:0:
358,192,159427,1,0,0:0:0:0:
256,192,159427,1,0,0:0:0:0:
153,192,159827,1,0,0:0:0:0:
109,192,159827,1,0,0:0:0:0:
51,192,160227,1,0,0:0:0:0:
109,192,160227,1,0,0:0:0:0:
153,192,160627,1,0,0:0:0:0:
109,192,160627,1,0,0:0:0:0:
256,192,161027,1,0,0:0:0:0:
182,192,161027,1,0,0:0:0:0:
358,192,161427,1,0,0:0:0:0:
256,192,161427,1,0,0:0:0:0:
460,192,161827,1,0,0:0:0:0:
402,192,161827,1,0,0:0:0:0:
358,192,162227,1,0,0:0:0:0:
402,192,162227,1,0,0:0:0:0:
256,192,162627,1,0,0:0:0:0:
329,192,162627,1,0,0:0:0:0:
153,192,163027,1,0,0:0:0:0:
256,192,163027,1,0,0:0:0:0:
109,192,163427,1,0,0:0:0:0:
36,192,163427,128,0,163827:0:0:0:0:
153,192,163827,1,0,0:0:0:0:
109,192,163827,128,0,164227:0:0:0:0:
256,192,164227,1,0,0:0:0:0:
182,192,164227,128,0,164627:0:0:0:0:
358,192,164627,1,0,0:0:0:0:
256,192,164627,128,0,165027:0:0:0:0:
475,192,165027,1,0,0:0:0:0:
402,192,165027,128,0,165427:0:0:0:0:
329,192,165027,1,0,0:0:0:0:
329,192,165427,128,0,165827:0:0:0:0:
256,192,165427,1,0,0:0:0:0:
256,192,165827,128,0,166227:0:0:0:0:
182,192,165827,1,0,0:0:0:0:
182,192,166227,128,0,166627:0:0:0:0:
109,192,166227,1,0,0:0:0:0:
460,192,166627,128,0,168227:0:0:0:0:
109,192,166627,1,0,0:0:0:0:
36,192,166627,1,0,0:0:0:0:
182,192,167027,1,0,0:0:0:0:
329,192,167027,1,0,0:0:0:0:
256,192,167427,1,0,0:0:0:0:
36,192,167427,1,0,0:0:0:0:
182,192,167827,1,0,0:0:0:0:
329,192,167827,1,0,0:0:0:0:
51,192,168227,128,0,169827:0:0:0:0:
256,192,168227,1,0,0:0:0:0:
460,192,168627,1,0,0:0:0:0:
182,192,168627,1,0,0:0:0:0:
329,192,168627,1,0,0:0:0:0:
256,192,169027,1,0,0:0:0:0:
329,192,169427,1,0,0:0:0:0:
182,192,169427,1,0,0:0:0:0:
358,192,169827,128,0,171427:0:0:0:0:
475,192,169827,1,0,0:0:0:0:
182,192,169827,1,0,0:0:0:0:
182,192,170227,1,0,0:0:0:0:
36,192,170227,1,0,0:0:0:0:
109,192,170627,1,0,0:0:0:0:
475,192,170627,1,0,0:0:0:0:
182,192,171027,1,0,0:0:0:0:
36,192,171027,1,0,0:0:0:0:
153,192,171427,128,0,173027:0:0:0:0:
475,192,171427,1,0,0:0:0:0:
36,192,171427,1,0,0:0:0:0:
460,192,171827,1,0,0:0:0:0:
329,192,171827,1,0,0:0:0:0:
36,192,171827,1,0,0:0:0:0:
402,192,172227,1,0,0:0:0:0:
475,192,172627,1,0,0:0:0:0:
329,192,172627,1,0,0:0:0:0:
460,192,173027,128,0,174627:0:0:0:0:
329,192,173027,1,0,0:0:0:0:
36,192,173027,1,0,0:0:0:0:
182,192,173427,1,0,0:0:0:0:
329,192,173427,1,0,0:0:0:0:
256,192,173827,1,0,0:0:0:0:
36,192,173827,1,0,0:0:0:0:
182,192,174227,1,0,0:0:0:0:
329,192,174227,1,0,0:0:0:0:
51,192,174627,128,0,176227:0:0:0:0:
256,192,174627,1,0,0:0:0:0:
460,192,175027,1,0,0:0:0:0:
329,192,175027,1,0,0:0:0:0:
182,192,175027,1,0,0:0:0:0:
256,192,175427,1,0,0:0:0:0:
329,192,175827,1,0,0:0:0:0:
182,192,175827,1,0,0:0:0:0:
358,192,176227,128,0,177827:0:0:0:0:
182,192,176227,1,0,0:0:0:0:
475,192,176227,1,0,0:0:0:0:
182,192,176627,1,0,0:0:0:0:
36,192,176627,1,0,0:0:0:0:
109,192,177027,1,0,0:0:0:0:
475,192,177027,1,0,0:0:0:0:
182,192,177427,1,0,0:0:0:0:
36,192,177427,1,0,0:0:0:0:
256,192,177827,128,0,179427:0:0:0:0:
475,192,177827,1,0,0:0:0:0:
36,192,177827,1,0,0:0:0:0:
460,192,178227,1,0,0:0:0:0:
182,192,178227,1,0,0:0:0:0:
36,192,178227,1,0,0:0:0:0:
109,192,178627,1,0,0:0:0:0:
475,192,178627,1,0,0:0:0:0:
182,192,179027,1,0,0:0:0:0:
36,192,179027,1,0,0:0:0:0:
475,192,179027,1,0,0:0:0:0:
153,192,179427,128,0,181027:0:0:0:0:
475,192,179427,1,0,0:0:0:0:
36,192,179427,1,0,0:0:0:0:
402,192,179827,1,0,0:0:0:0:
475,192,179827,1,0,0:0:0:0:
256,192,180227,1,0,0:0:0:0:
329,192,180227,1,0,0:0:0:0:
402,192,180627,1,0,0:0:0:0:
475,192,180627,1,0,0:0:0:0:
256,192,181027,128,0,182627:0:0:0:0:
475,192,181027,1,0,0:0:0:0:
36,192,181027,1,0,0:0:0:0:
329,192,181427,1,0,0:0:0:0:
402,192,181427,1,0,0:0:0:0:
109,192,181827,1,0,0:0:0:0:
182,192,181827,1,0,0:0:0:0:
329,192,182227,1,0,0:0:0:0:
402,192,182227,1,0,0:0:0:0:
460,192,182627,128,0,183427:0:0:0:0:
36,192,182627,1,0,0:0:0:0:
256,192,183027,1,0,0:0:0:0:
182,192,183027,1,0,0:0:0:0:
329,192,183027,1,0,0:0:0:0:
358,192,183427,128,0,184227:0:0:0:0:
36,192,183427,1,0,0:0:0:0:
182,192,183427,1,0,0:0:0:0:
182,192,183827,1,0,0:0:0:0:
109,192,183827,1,0,0:0:0:0:
36,192,183827,1,0,0:0:0:0:
256,192,184227,128,0,185027:0:0:0:0:
475,192,184227,1,0,0:0:0:0:
36,192,184227,1,0,0:0:0:0:
402,192,184627,1,0,0:0:0:0:
475,192,184627,1,0,0:0:0:0:
109,192,184627,1,0,0:0:0:0:
51,192,185027,128,0,185827:0:0:0:0:
182,192,185427,1,0,0:0:0:0:
256,192,185427,1,0,0:0:0:0:
329,192,185427,1,0,0:0:0:0:
182,192,185827,128,0,187427:0:0:0:0:
329,192,185827,1,0,0:0:0:0:
475,192,185827,1,0,0:0:0:0:
475,192,186227,1,0,0:0:0:0:
402,192,186327,1,0,0:0:0:0:
329,192,186427,1,0,0:0:0:0:
402,192,186527,1,0,0:0:0:0:
475,192,186627,1,0,0:0:0:0:
36,192,186627,1,0,0:0:0:0:
402,192,186727,1,0,0:0:0:0:
329,192,186827,1,0,0:0:0:0:
402,192,186927,1,0,0:0:0:0:
475,192,187027,1,0,0:0:0:0:
402,192,187127,1,0,0:0:0:0:
329,192,187227,1,0,0:0:0:0:
402,192,187327,1,0,0:0:0:0:
51,192,187427,1,0,0:0:0:0:
460,192,187427,1,0,0:0:0:0:
329,192,187427,128,0,189027:0:0:0:0:
36,192,187827,1,0,0:0:0:0:
109,192,187927,1,0,0:0:0:0:
182,192,188027,1,0,0:0:0:0:
109,192,188127,1,0,0:0:0:0:
51,192,188227,1,0,0:0:0:0:
460,192,188227,1,0,0:0:0:0:
109,192,188327,1,0,0:0:0:0:
182,192,188427,1,0,0:0:0:0:
109,192,188527,1,0,0:0:0:0:
36,192,188627,1,0,0:0:0:0:
109,192,188727,1,0,0:0:0:0:
182,192,188827,1,0,0:0:0:0:
109,192,188927,1,0,0:0:0:0:
36,192,189027,1,0,0:0:0:0:
475,192,189027,1,0,0:0:0:0:
182,192,189027,128,0,190627:0:0:0:0:
475,192,189427,1,0,0:0:0:0:
402,192,189527,1,0,0:0:0:0:
329,192,189627,1,0,0:0:0:0:
402,192,189727,1,0,0:0:0:0:
475,192,189827,1,0,0:0:0:0:
36,192,189827,1,0,0:0:0:0:
402,192,189927,1,0,0:0:0:0:
329,192,190027,1,0,0:0:0:0:
402,192,190127,1,0,0:0:0:0:
475,192,190227,1,0,0:0:0:0:
402,192,190327,1,0,0:0:0:0:
329,192,190427,1,0,0:0:0:0:
402,192,190527,1,0,0:0:0:0:
475,192,190627,1,0,0:0:0:0:
36,192,190627,1,0,0:0:0:0:
109,192,191027,1,0,0:0:0:0:
182,192,191027,1,0,0:0:0:0:
256,192,191227,1,0,0:0:0:0:
329,192,191227,1,0,0:0:0:0:
460,192,191427,128,0,192227:0:0:0:0:
153,192,192227,1,0,0:0:0:0:
36,192,192227,1,0,0:0:0:0:
329,192,192227,1,0,0:0:0:0:
