osu file format v12

[General]
AudioFilename: Mozart.mp3
AudioLeadIn: 3000
PreviewTime: -1
Countdown: 1
SampleSet: Soft
StackLeniency: 0.7
Mode: 3
LetterboxInBreaks: 1

[Editor]
DistanceSpacing: 0.8
BeatDivisor: 4
GridSize: 32

[Metadata]
Title:mozart
TitleUnicode:mozart
Artist:M2U
ArtistUnicode:M2U
Creator:retadidas
Version:Easy
Source:
Tags:mozart M2U retadidas
BeatmapID:233017
BeatmapSetID:84624

[Difficulty]
HPDrainRate:0
CircleSize:4
OverallDifficulty:7
ApproachRate:10
SliderMultiplier:1.4
SliderTickRate:1

[Events]
//Background and Video events
0,0,"Mozart.jpg",1,1
//Break Periods
//Storyboard Layer 0 (Background)
//Storyboard Layer 1 (Fail)
//Storyboard Layer 2 (Pass)
//Storyboard Layer 3 (Foreground)
//Storyboard Sound Samples
//Background Colour Transformations
3,100,163,162,255

[TimingPoints]
227,400,4,2,0,100,1,0

[HitObjects]
153,192,227,1,0,0:0:0:0:
153,192,1027,1,0,0:0:0:0:
320,192,1827,1,0,0:0:0:0:
320,192,2627,1,0,0:0:0:0:
64,192,3427,1,0,0:0:0:0:
64,192,4227,1,0,0:0:0:0:
460,192,5027,1,0,0:0:0:0:
460,192,5827,1,0,0:0:0:0:
358,192,6627,128,0,8227:0:0:0:0:
64,192,7427,1,0,0:0:0:0:
153,192,8227,128,0,9827:0:0:0:0:
460,192,8627,1,0,0:0:0:0:
358,192,9827,128,0,11427:0:0:0:0:
51,192,10627,1,0,0:0:0:0:
64,192,11427,128,0,13027:0:0:0:0:
460,192,11827,1,0,0:0:0:0:
460,192,13027,128,0,14627:0:0:0:0:
64,192,13827,1,0,0:0:0:0:
320,192,14627,128,0,16227:0:0:0:0:
460,192,15027,1,0,0:0:0:0:
460,192,16227,128,0,17827:0:0:0:0:
192,192,17027,1,0,0:0:0:0:
192,192,17827,128,0,19427:0:0:0:0:
460,192,18227,1,0,0:0:0:0:
51,192,19427,1,0,0:0:0:0:
448,192,19827,1,0,0:0:0:0:
256,192,20227,1,0,0:0:0:0:
256,192,20627,1,0,0:0:0:0:
51,192,21027,1,0,0:0:0:0:
448,192,21427,1,0,0:0:0:0:
256,192,21827,1,0,0:0:0:0:
256,192,22227,1,0,0:0:0:0:
153,192,22627,1,0,0:0:0:0:
448,192,23027,1,0,0:0:0:0:
358,192,23427,1,0,0:0:0:0:
358,192,23827,1,0,0:0:0:0:
153,192,24227,1,0,0:0:0:0:
448,192,24627,1,0,0:0:0:0:
358,192,25027,1,0,0:0:0:0:
358,192,25427,1,0,0:0:0:0:
153,192,25827,1,0,0:0:0:0:
153,192,26227,1,0,0:0:0:0:
460,192,26627,1,0,0:0:0:0:
320,192,27027,1,0,0:0:0:0:
358,192,27427,1,0,0:0:0:0:
192,192,27827,1,0,0:0:0:0:
192,192,28227,1,0,0:0:0:0:
64,192,28627,1,0,0:0:0:0:
460,192,29027,1,0,0:0:0:0:
256,192,29427,1,0,0:0:0:0:
256,192,29827,1,0,0:0:0:0:
182,192,30227,1,0,0:0:0:0:
64,192,30627,1,0,0:0:0:0:
460,192,31027,1,0,0:0:0:0:
448,192,31427,1,0,0:0:0:0:
460,192,32227,1,0,0:0:0:0:
64,192,32227,1,0,0:0:0:0:
460,192,33027,1,0,0:0:0:0:
192,192,33827,1,0,0:0:0:0:
192,192,34627,1,0,0:0:0:0:
358,192,35427,1,0,0:0:0:0:
358,192,36227,1,0,0:0:0:0:
51,192,37027,1,0,0:0:0:0:
51,192,37827,1,0,0:0:0:0:
192,192,38627,1,0,0:0:0:0:
192,192,39427,1,0,0:0:0:0:
320,192,40227,1,0,0:0:0:0:
320,192,41027,1,0,0:0:0:0:
460,192,41827,1,0,0:0:0:0:
460,192,42627,1,0,0:0:0:0:
51,192,43427,1,0,0:0:0:0:
51,192,44227,1,0,0:0:0:0:
64,192,45027,1,0,0:0:0:0:
448,192,45027,1,0,0:0:0:0:
64,192,45827,1,0,0:0:0:0:
448,192,46227,1,0,0:0:0:0:
448,192,46627,1,0,0:0:0:0:
192,192,47427,1,0,0:0:0:0:
358,192,47827,1,0,0:0:0:0:
358,192,48227,1,0,0:0:0:0:
182,192,49027,1,0,0:0:0:0:
329,192,49027,1,0,0:0:0:0:
64,192,49827,1,0,0:0:0:0:
448,192,49827,1,0,0:0:0:0:
64,192,50227,1,0,0:0:0:0:
448,192,50227,1,0,0:0:0:0:
64,192,50627,1,0,0:0:0:0:
448,192,50627,1,0,0:0:0:0:
64,192,51027,1,0,0:0:0:0:
448,192,51027,1,0,0:0:0:0:
320,192,51427,1,0,0:0:0:0:
448,192,51427,1,0,0:0:0:0:
192,192,52227,1,0,0:0:0:0:
448,192,52227,1,0,0:0:0:0:
320,192,53027,1,0,0:0:0:0:
192,192,53027,1,0,0:0:0:0:
51,192,53827,1,0,0:0:0:0:
320,192,53827,1,0,0:0:0:0:
51,192,54627,1,0,0:0:0:0:
192,192,54627,1,0,0:0:0:0:
51,192,55427,1,0,0:0:0:0:
153,192,56227,1,0,0:0:0:0:
402,192,56627,1,0,0:0:0:0:
329,192,57027,1,0,0:0:0:0:
358,192,57427,1,0,0:0:0:0:
460,192,57827,1,0,0:0:0:0:
256,192,58227,1,0,0:0:0:0:
64,192,58627,1,0,0:0:0:0:
358,192,59027,1,0,0:0:0:0:
153,192,59427,1,0,0:0:0:0:
329,192,59827,1,0,0:0:0:0:
329,192,60227,1,0,0:0:0:0:
153,192,60627,1,0,0:0:0:0:
402,192,61027,1,0,0:0:0:0:
192,192,61427,1,0,0:0:0:0:
320,192,61827,1,0,0:0:0:0:
64,192,62227,1,0,0:0:0:0:
192,192,62627,1,0,0:0:0:0:
64,192,63027,1,0,0:0:0:0:
460,192,63427,1,0,0:0:0:0:
320,192,63827,1,0,0:0:0:0:
64,192,64227,128,0,65827:0:0:0:0:
460,192,65027,1,0,0:0:0:0:
448,192,65827,128,0,67427:0:0:0:0:
51,192,66227,1,0,0:0:0:0:
320,192,67427,1,0,0:0:0:0:
192,192,67827,1,0,0:0:0:0:
109,192,68227,1,0,0:0:0:0:
460,192,69027,1,0,0:0:0:0:
320,192,69427,1,0,0:0:0:0:
182,192,69827,1,0,0:0:0:0:
64,192,70627,128,0,72227:0:0:0:0:
448,192,72227,128,0,73827:0:0:0:0:
153,192,73827,128,0,75427:0:0:0:0:
358,192,75427,128,0,77027:0:0:0:0:
51,192,77027,1,0,0:0:0:0:
153,192,77427,1,0,0:0:0:0:
256,192,77827,1,0,0:0:0:0:
448,192,78227,1,0,0:0:0:0:
460,192,78627,1,0,0:0:0:0:
358,192,79027,1,0,0:0:0:0:
192,192,79427,1,0,0:0:0:0:
109,192,79827,1,0,0:0:0:0:
448,192,80227,128,0,83427:0:0:0:0:
51,192,83427,1,0,0:0:0:0:
192,192,83827,1,0,0:0:0:0:
256,192,84227,1,0,0:0:0:0:
448,192,84627,1,0,0:0:0:0:
460,192,85027,1,0,0:0:0:0:
358,192,85427,1,0,0:0:0:0:
192,192,85827,1,0,0:0:0:0:
64,192,86227,1,0,0:0:0:0:
192,192,86627,128,0,89827:0:0:0:0:
64,192,89827,1,0,0:0:0:0:
329,192,90227,1,0,0:0:0:0:
192,192,90627,1,0,0:0:0:0:
448,192,91027,1,0,0:0:0:0:
448,192,91427,1,0,0:0:0:0:
192,192,91827,1,0,0:0:0:0:
320,192,92227,1,0,0:0:0:0:
64,192,92627,1,0,0:0:0:0:
320,192,93027,128,0,96227:0:0:0:0:
460,192,96227,1,0,0:0:0:0:
402,192,96627,1,0,0:0:0:0:
256,192,97027,1,0,0:0:0:0:
153,192,97427,1,0,0:0:0:0:
358,192,97827,1,0,0:0:0:0:
256,192,98227,1,0,0:0:0:0:
153,192,98627,1,0,0:0:0:0:
51,192,99027,1,0,0:0:0:0:
358,192,99427,1,0,0:0:0:0:
153,192,99827,1,0,0:0:0:0:
329,192,100227,1,0,0:0:0:0:
109,192,100627,1,0,0:0:0:0:
64,192,101227,1,0,0:0:0:0:
192,192,101627,1,0,0:0:0:0:
320,192,102027,1,0,0:0:0:0:
448,192,102427,1,0,0:0:0:0:
51,192,102627,128,0,104227:0:0:0:0:
256,192,103427,1,0,0:0:0:0:
460,192,104227,128,0,105827:0:0:0:0:
64,192,105027,1,0,0:0:0:0:
192,192,105827,1,0,0:0:0:0:
448,192,106227,1,0,0:0:0:0:
402,192,106627,1,0,0:0:0:0:
192,192,107427,1,0,0:0:0:0:
448,192,107827,1,0,0:0:0:0:
448,192,108227,1,0,0:0:0:0:
51,192,109027,128,0,110627:0:0:0:0:
256,192,109827,1,0,0:0:0:0:
460,192,110627,128,0,112227:0:0:0:0:
192,192,111427,1,0,0:0:0:0:
64,192,112227,1,0,0:0:0:0:
320,192,112627,1,0,0:0:0:0:
320,192,113027,1,0,0:0:0:0:
64,192,113827,1,0,0:0:0:0:
320,192,114227,1,0,0:0:0:0:
320,192,114627,1,0,0:0:0:0:
51,192,115427,1,0,0:0:0:0:
192,192,115827,1,0,0:0:0:0:
256,192,116227,1,0,0:0:0:0:
448,192,116627,1,0,0:0:0:0:
460,192,117027,1,0,0:0:0:0:
358,192,117427,1,0,0:0:0:0:
64,192,117827,1,0,0:0:0:0:
153,192,118227,1,0,0:0:0:0:
320,192,118627,128,0,121827:0:0:0:0:
51,192,121827,1,0,0:0:0:0:
320,192,122227,1,0,0:0:0:0:
192,192,122627,1,0,0:0:0:0:
402,192,123027,1,0,0:0:0:0:
460,192,123427,1,0,0:0:0:0:
192,192,123827,1,0,0:0:0:0:
320,192,124227,1,0,0:0:0:0:
64,192,124627,1,0,0:0:0:0:
320,192,125027,128,0,128227:0:0:0:0:
51,192,128227,1,0,0:0:0:0:
182,192,128627,1,0,0:0:0:0:
320,192,129027,1,0,0:0:0:0:
448,192,129427,1,0,0:0:0:0:
460,192,129827,1,0,0:0:0:0:
358,192,130227,1,0,0:0:0:0:
192,192,130627,1,0,0:0:0:0:
64,192,131027,1,0,0:0:0:0:
192,192,131427,128,0,134627:0:0:0:0:
460,192,134627,1,0,0:0:0:0:
402,192,135027,1,0,0:0:0:0:
256,192,135427,1,0,0:0:0:0:
153,192,135827,1,0,0:0:0:0:
358,192,136227,1,0,0:0:0:0:
256,192,136627,1,0,0:0:0:0:
153,192,137027,1,0,0:0:0:0:
51,192,137427,1,0,0:0:0:0:
460,192,137827,1,0,0:0:0:0:
402,192,138227,1,0,0:0:0:0:
256,192,138627,1,0,0:0:0:0:
109,192,139027,1,0,0:0:0:0:
329,192,139427,1,0,0:0:0:0:
256,192,139827,1,0,0:0:0:0:
182,192,140227,1,0,0:0:0:0:
51,192,140627,1,0,0:0:0:0:
448,192,141027,128,0,141427:0:0:0:0:
320,192,141427,128,0,141827:0:0:0:0:
192,192,141827,128,0,142227:0:0:0:0:
64,192,142227,128,0,142627:0:0:0:0:
448,192,142627,128,0,143027:0:0:0:0:
320,192,143027,128,0,143427:0:0:0:0:
192,192,143427,128,0,143827:0:0:0:0:
64,192,143827,128,0,144227:0:0:0:0:
460,192,144227,1,0,0:0:0:0:
64,192,144627,1,0,0:0:0:0:
448,192,145027,1,0,0:0:0:0:
51,192,145427,1,0,0:0:0:0:
320,192,145827,1,0,0:0:0:0:
192,192,146227,1,0,0:0:0:0:
320,192,146627,1,0,0:0:0:0:
192,192,147027,1,0,0:0:0:0:
448,192,147427,1,0,0:0:0:0:
320,192,147827,1,0,0:0:0:0:
192,192,148227,1,0,0:0:0:0:
51,192,148627,1,0,0:0:0:0:
402,192,149027,1,0,0:0:0:0:
153,192,149227,1,0,0:0:0:0:
51,192,149627,1,0,0:0:0:0:
256,192,150027,1,0,0:0:0:0:
448,192,150427,1,0,0:0:0:0:
358,192,150627,1,0,0:0:0:0:
402,192,151427,1,0,0:0:0:0:
64,192,151427,1,0,0:0:0:0:
109,192,152227,1,0,0:0:0:0:
402,192,152227,1,0,0:0:0:0:
109,192,153027,1,0,0:0:0:0:
402,192,153027,1,0,0:0:0:0:
402,192,153827,1,0,0:0:0:0:
153,192,154227,1,0,0:0:0:0:
256,192,154627,1,0,0:0:0:0:
51,192,155027,1,0,0:0:0:0:
109,192,155427,1,0,0:0:0:0:
402,192,155427,1,0,0:0:0:0:
51,192,156227,1,0,0:0:0:0:
448,192,156227,1,0,0:0:0:0:
402,192,157027,1,0,0:0:0:0:
192,192,157027,1,0,0:0:0:0:
182,192,157827,1,0,0:0:0:0:
329,192,157827,1,0,0:0:0:0:
460,192,158627,1,0,0:0:0:0:
448,192,159027,1,0,0:0:0:0:
358,192,159427,1,0,0:0:0:0:
153,192,159827,1,0,0:0:0:0:
51,192,160227,1,0,0:0:0:0:
153,192,160627,1,0,0:0:0:0:
256,192,161027,1,0,0:0:0:0:
358,192,161427,1,0,0:0:0:0:
460,192,161827,1,0,0:0:0:0:
358,192,162227,1,0,0:0:0:0:
192,192,162627,1,0,0:0:0:0:
153,192,163027,1,0,0:0:0:0:
51,192,163427,1,0,0:0:0:0:
153,192,163827,1,0,0:0:0:0:
256,192,164227,1,0,0:0:0:0:
358,192,164627,1,0,0:0:0:0:
460,192,165027,1,0,0:0:0:0:
358,192,165427,1,0,0:0:0:0:
192,192,165827,1,0,0:0:0:0:
153,192,166227,1,0,0:0:0:0:
460,192,166627,128,0,168227:0:0:0:0:
256,192,167427,1,0,0:0:0:0:
51,192,168227,128,0,169827:0:0:0:0:
192,192,168627,1,0,0:0:0:0:
358,192,169827,128,0,171427:0:0:0:0:
109,192,170627,1,0,0:0:0:0:
153,192,171427,128,0,173027:0:0:0:0:
460,192,171827,1,0,0:0:0:0:
460,192,173027,128,0,174627:0:0:0:0:
256,192,173827,1,0,0:0:0:0:
51,192,174627,128,0,176227:0:0:0:0:
192,192,175027,1,0,0:0:0:0:
448,192,176227,128,0,177827:0:0:0:0:
153,192,177027,1,0,0:0:0:0:
256,192,177827,128,0,179427:0:0:0:0:
64,192,178227,1,0,0:0:0:0:
153,192,179427,128,0,181027:0:0:0:0:
256,192,181027,128,0,182627:0:0:0:0:
460,192,182627,128,0,183427:0:0:0:0:
192,192,183427,128,0,184227:0:0:0:0:
320,192,184227,128,0,185027:0:0:0:0:
51,192,185027,128,0,185827:0:0:0:0:
192,192,185827,128,0,187427:0:0:0:0:
51,192,187427,1,0,0:0:0:0:
460,192,187427,1,0,0:0:0:0:
51,192,188227,1,0,0:0:0:0:
460,192,188227,1,0,0:0:0:0:
358,192,189027,1,0,0:0:0:0:
64,192,189027,1,0,0:0:0:0:
109,192,189827,1,0,0:0:0:0:
358,192,189827,1,0,0:0:0:0:
109,192,190627,1,0,0:0:0:0:
358,192,190627,1,0,0:0:0:0:
460,192,191427,128,0,192227:0:0:0:0:
153,192,192227,1,0,0:0:0:0:
