osu file format v14

[General]
AudioFilename: M2U - Velocity.mp3
AudioLeadIn: 0
PreviewTime: 34500
Countdown: 0
SampleSet: Soft
StackLeniency: 0.5
Mode: 0
LetterboxInBreaks: 0
EpilepsyWarning: 1
WidescreenStoryboard: 1

[Editor]
Bookmarks: 24,60024,72024,131461
DistanceSpacing: 1.4
BeatDivisor: 8
GridSize: 4
TimelineZoom: 1

[Metadata]
Title:Velocity
TitleUnicode:Velocity
Artist:M2U
ArtistUnicode:M2U
Creator:Gero
Version:Irreversible's Normal
Source:
Tags:MMC MMC2 Modhelp Mapping Contest Yabai FutureBass Irreversible
BeatmapID:1260424
BeatmapSetID:593883

[Difficulty]
HPDrainRate:4
CircleSize:2.7
OverallDifficulty:4
ApproachRate:5
SliderMultiplier:1.17
SliderTickRate:2

[Events]
//Background and Video events
0,0,"BG.jpg",0,0
//Break Periods
2,60224,70824
//Storyboard Layer 0 (Background)
//Storyboard Layer 1 (Fail)
//Storyboard Layer 2 (Pass)
//Storyboard Layer 3 (Foreground)
//Storyboard Sound Samples

[TimingPoints]
24,375,4,2,3,80,1,0
5649,-100,4,2,3,80,0,0
6024,-100,4,2,3,80,0,0
6399,-100,4,2,3,80,0,0
11649,-100,4,2,3,80,0,0
12024,-100,4,2,3,80,0,0
27399,-100,4,2,3,80,0,0
30024,-100,4,2,3,80,0,0
30774,-100,4,2,3,80,0,0
31524,-100,4,2,3,80,0,0
32274,-100,4,2,3,80,0,0
33024,-100,4,2,3,80,0,0
35649,-100,4,2,3,80,0,0
36024,-100,4,2,3,80,0,1
36586,-100,4,2,3,80,0,0
39024,-100,4,2,3,80,0,1
39774,-100,4,2,3,80,0,1
40149,-100,4,2,3,80,0,1
40242,-100,4,2,3,40,0,1
40336,-100,4,2,3,80,0,1
40899,-100,4,2,3,80,0,0
41086,-100,4,2,3,80,0,0
42024,-100,4,2,0,80,0,0
42117,-100,4,2,3,80,0,0
42774,-100,4,2,3,80,0,0
43149,-100,4,2,3,80,0,0
45024,-100,4,2,3,80,0,1
45774,-100,4,2,3,80,0,0
46149,-100,4,2,3,80,0,0
46336,-100,4,2,3,80,0,0
47461,-100,4,2,3,80,0,0
48024,-100,4,2,3,80,0,1
49149,-100,4,2,3,80,0,1
50274,-100,4,2,0,80,0,1
50367,-100,4,2,3,80,0,1
51024,-100,4,2,3,80,0,1
51399,-100,4,2,3,80,0,1
51586,-100,4,2,3,80,0,1
51774,-100,4,2,3,80,0,1
51961,-100,4,2,3,80,0,1
52524,-100,4,2,3,80,0,1
52711,-100,4,2,3,80,0,1
53274,-100,4,2,3,80,0,0
54774,-100,4,2,3,80,0,0
55336,-100,4,2,3,80,0,0
57024,-100,4,2,3,80,0,1
57774,-100,4,2,3,80,0,0
58149,-100,4,2,3,80,0,0
58336,-100,4,2,3,80,0,0
59274,-100,4,2,3,80,0,0
60024,-100,4,2,3,80,0,0
66024,-100,4,2,3,80,0,0
66774,-100,4,2,3,80,0,0
81024,-100,4,2,3,80,0,0
84024,-100,4,2,3,80,0,0
90024,-100,4,2,3,80,0,0
90774,-100,4,2,3,80,0,0
91524,-100,4,2,3,80,0,0
92274,-100,4,2,3,80,0,0
93024,-100,4,2,3,80,0,0
93399,-100,4,2,3,80,0,0
93774,-100,4,2,3,80,0,0
94524,-100,4,2,3,80,0,0
96024,-100,4,2,3,80,0,1
96399,-100,4,2,3,80,0,1
96774,-100,4,2,3,80,0,1
97149,-100,4,2,3,80,0,1
99024,-100,4,2,3,80,0,1
99399,-100,4,2,3,80,0,1
101086,-100,4,2,3,80,0,0
105024,-100,4,2,3,80,0,1
105399,-100,4,2,3,80,0,1
105774,-100,4,2,3,80,0,0
106336,-100,4,2,3,80,0,0
107461,-100,4,2,3,80,0,0
108024,-100,4,2,3,80,0,1
111024,-100,4,2,3,80,0,1
111399,-100,4,2,3,80,0,1
111586,-100,4,2,3,80,0,1
111774,-100,4,2,3,80,0,1
111961,-100,4,2,3,80,0,1
112524,-100,4,2,0,80,0,1
112899,-100,4,2,3,80,0,1
113086,-100,4,2,3,80,0,0
114774,-100,4,2,3,80,0,0
115336,-100,4,2,3,80,0,0
117024,-100,4,2,3,80,0,1
117774,-100,4,2,3,80,0,0
119274,-100,4,2,3,80,0,0
120024,-100,4,2,3,80,0,0
126024,-100,4,2,3,80,0,0
126586,-100,4,2,3,80,0,0

[Colours]
Combo1 : 163,163,163
Combo2 : 117,226,232
Combo3 : 0,117,234
Combo4 : 190,146,239
Combo5 : 243,24,30
SliderBorder : 52,180,167
SliderTrackOverride : 193,193,193

[HitObjects]
64,288,24,6,0,P|132:344|212:324,1,175.5,4|0,0:0|0:0,0:0:0:0:
256,256,774,2,0,L|248:128,1,117,8|2,0:0|0:0,0:0:0:0:
92,92,1524,6,0,B|193:84|193:84|230:102|230:102|332:96,1,234,4|8,0:0|0:0,0:0:0:0:
472,28,2649,1,2,0:0:0:0:
504,188,3024,6,0,P|504:244|472:304,1,117,4|2,0:0|0:0,0:0:0:0:
313,297,3774,2,0,P|257:297|197:329,1,117,8|2,0:0|0:0,0:0:0:0:
48,372,4524,38,0,L|40:236,1,117,4|0,0:0|0:0,0:0:0:0:
20,176,5086,2,0,L|27:60,1,117,4|0,0:0|0:0,0:0:0:0:
100,20,5649,1,4,0:0:0:0:
256,92,6024,6,0,P|316:116|400:40,1,175.5,4|0,0:0|0:0,0:0:0:0:
479,56,6774,2,0,P|464:111|428:157,1,117,8|2,0:0|0:0,0:0:0:0:
392,316,7524,6,0,B|291:308|291:308|254:326|254:326|152:320,1,234,4|8,0:0|0:0,0:0:0:0:
16,244,8649,1,2,0:0:0:0:
152,152,9024,2,0,P|168:104|160:36,1,117,4|2,0:0|0:0,0:0:0:0:
312,100,9774,38,0,P|376:88|448:92,1,117,8|2,0:0|0:0,0:0:0:0:
372,244,10524,2,0,P|313:244|256:233,1,117,4|0,0:0|0:0,0:0:0:0:
220,308,11086,2,0,P|165:328|107:337,1,117,4|0,0:0|0:0,0:0:0:0:
36,296,11649,2,0,P|24:240|24:216,1,58.5,4|0,0:0|0:0,0:0:0:0:
28,156,12024,5,4,0:0:0:0:
160,60,12399,1,2,0:0:0:0:
256,192,12774,2,0,B|276:248|240:248|256:324,2,117,8|2|0,0:0|0:0|0:0,0:0:0:0:
352,60,13899,1,2,0:0:0:0:
472,172,14274,6,0,L|352:164,1,117,8|2,0:0|0:0,0:0:0:0:
256,296,15024,2,0,B|236:264|236:264|88:252,1,175.5,4|0,0:0|0:0,0:0:0:0:
32,208,15774,2,0,P|4:156|16:100,1,117,8|2,0:0|0:0,0:0:0:0:
164,32,16524,38,0,L|288:36,1,117,0|2,0:0|0:0,0:0:0:0:
380,168,17274,2,0,L|504:164,1,117,0|2,0:0|0:0,0:0:0:0:
416,308,18024,6,0,P|320:368|204:328,1,234,4|8,0:0|0:0,0:0:0:0:
48,364,19149,1,2,0:0:0:0:
100,208,19524,6,0,L|88:72,1,117,0|2,0:0|0:0,0:0:0:0:
224,184,20274,2,0,L|212:320,2,117,8|2|4,0:0|0:0|0:0,0:0:0:0:
332,60,21399,1,2,0:0:0:0:
480,132,21774,2,0,P|480:192|440:248,1,117,8|2,0:0|0:0,0:0:0:0:
324,344,22524,38,0,P|264:338|197:338,1,117,0|8,0:0|0:0,0:0:0:0:
128,356,23086,1,4,0:0:0:0:
64,308,23274,2,0,P|59:252|59:190,2,117,0|4|4,0:0|0:0|1:0,0:0:0:0:
256,44,24774,5,2,0:0:0:0:
448,308,25524,1,2,0:0:0:0:
140,192,26274,2,0,P|112:140|132:64,2,117,2|8|2,0:0|0:0|0:0,0:0:0:0:
448,76,27774,5,2,0:0:0:0:
256,340,28524,1,2,0:0:0:0:
64,76,29274,2,0,P|116:48|192:68,1,117,2|8,0:0|0:0,0:0:0:0:
240,204,30024,38,0,B|249:283|249:283|225:311,1,117,4|6,0:0|0:0,0:0:0:0:
140,172,30774,2,0,B|149:251|149:251|125:279,1,117,4|6,0:0|0:0,0:0:0:0:
40,140,31524,6,0,B|30:60|30:60|54:32,1,117,4|6,0:0|0:0,0:0:0:0:
140,172,32274,2,0,B|130:92|130:92|154:64,1,117,4|2,0:0|0:0,0:0:0:0:
312,24,33024,5,2,0:0:0:0:
427,139,33399,1,2,0:0:0:0:
427,301,33774,1,2,0:0:0:0:
84,336,34524,37,0,1:0:0:0:
84,336,36024,38,0,B|64:280|64:280|71:252,2,87.75,4|0|2,1:0|1:0|1:0,0:0:0:0:
160,364,36774,1,2,1:0:0:0:
256,232,37149,2,0,L|444:240,1,175.5,4|0,0:0|1:1,0:0:0:0:
436,156,37899,6,0,B|376:153|376:153|348:104|348:104|289:104|289:104|324:76|328:44,1,234,2|8,1:0|0:0,0:0:0:0:
160,44,39024,54,0,B|120:40|120:40|84:56|84:56|36:52,1,117,4|2,0:0|1:0,0:0:0:0:
4,212,39774,2,0,L|62:208,1,58.5,2|0,0:1|0:0,0:0:0:0:
116,272,40149,2,0,B|176:268|176:268|221:301|221:301|292:296,1,175.5,4|2,0:0|0:1,0:0:0:0:
348,340,40899,1,8,0:0:0:0:
412,288,41086,6,0,P|432:232|408:160,1,117,2|4,1:0|0:0,0:0:0:0:
476,116,41649,1,2,0:1:0:0:
324,56,42024,2,0,P|256:96|144:80,1,175.5,4|0,1:2|0:0,0:0:0:0:
104,28,42774,2,0,P|80:68|80:101,2,58.5,8|2|2,0:0|0:1|0:1,0:0:0:0:
162,89,43336,54,0,L|150:269,1,175.5,6|10,0:1|0:0,0:0:0:0:
208,322,44086,2,0,L|383:310,1,175.5,2|10,1:0|0:0,0:0:0:0:
476,176,45024,6,0,B|484:148|484:148|476:112,2,58.5,2|0|6,1:1|0:0|1:0,0:0:0:0:
383,310,45774,54,0,P|323:310|247:302,1,117,2|8,0:1|0:1,0:0:0:0:
192,340,46336,2,0,P|133:345|75:345,1,117,4|10,0:0|0:1,0:0:0:0:
16,288,46899,2,0,P|8:220|8:212,2,58.5,8|2|0,0:0|0:1|0:0,0:0:0:0:
256,64,48024,6,0,B|303:66|303:66|325:78|325:78|377:80,1,117,4|10,1:0|1:0,0:0:0:0:
492,188,48774,2,0,L|488:264,2,58.5,0|4|10,1:0|1:3|1:0,0:0:0:0:
376,303,49524,54,0,L|380:379,1,58.5,4|4,0:0|0:0,0:0:0:0:
299,340,49899,2,0,L|295:264,1,58.5,4|2,0:0|0:0,0:0:0:0:
256,212,50274,5,4,1:2:0:0:
140,328,50649,1,10,1:0:0:0:
48,192,51024,1,4,1:0:0:0:
160,76,51399,54,0,B|196:52|196:52|228:56|228:56|256:25|256:25|284:56|284:56|316:52|316:52|352:76,1,234,2|4,3:0|1:2,0:0:0:0:
464,192,52524,2,0,B|460:224|460:224|464:236|464:236|456:252|456:252|472:276|472:276|456:308,1,117,2|4,1:3|1:2,0:0:0:0:
388,332,53086,6,0,P|300:328|200:344,1,175.5,2|10,1:0|1:2,0:0:0:0:
72,260,54024,2,0,P|52:174|53:129,2,117,2|4|6,0:1|0:0|0:1,0:0:0:0:
213,340,55149,53,4,3:2:0:0:
344,240,55524,2,0,P|432:232|456:324,2,175.5,4|4|2,0:0|0:0|0:1,0:0:0:0:
196,152,57024,6,0,B|172:140|172:140|76:148,1,117,6|12,1:1|1:2,0:0:0:0:
20,304,57774,54,0,P|40:332|116:336,1,117,2|12,1:1|0:0,0:0:0:0:
196,308,58336,2,0,P|320:316|376:324,1,175.5,0|2,0:0|1:0,0:0:0:0:
436,276,59086,1,0,0:0:0:0:
440,196,59274,2,0,P|352:185|265:180,1,175.5,6|0,1:0|0:0,0:0:0:0:
184,192,60024,21,4,0:0:0:0:
484,228,72024,5,4,0:0:0:0:
352,324,72399,1,2,0:0:0:0:
256,192,72774,2,0,B|236:136|272:136|256:60,2,117,8|0|0,0:0|0:0|0:0,0:0:0:0:
160,324,73899,1,0,0:0:0:0:
40,212,74274,6,0,L|160:220,1,117,8|2,0:0|0:0,0:0:0:0:
256,88,75024,2,0,B|276:120|276:120|424:132,1,175.5,4|0,0:0|0:0,0:0:0:0:
480,176,75774,2,0,P|508:228|496:284,1,117,8|2,0:0|0:0,0:0:0:0:
348,352,76524,38,0,L|224:348,1,117,0|2,0:0|0:0,0:0:0:0:
132,216,77274,2,0,L|8:220,1,117,0|2,0:0|0:0,0:0:0:0:
96,76,78024,6,0,P|192:16|308:56,1,234,4|8,0:0|0:0,0:0:0:0:
464,20,79149,1,0,0:0:0:0:
412,176,79524,6,0,L|424:312,1,117,0|2,0:0|0:0,0:0:0:0:
288,200,80274,2,0,L|300:64,2,117,8|2|4,0:0|0:0|0:0,0:0:0:0:
180,324,81399,37,2,0:0:0:0:
32,252,81774,2,0,P|32:192|72:136,1,117,8|2,0:0|0:0,0:0:0:0:
188,40,82524,6,0,P|248:46|315:46,1,117,0|8,0:0|0:0,0:0:0:0:
384,28,83086,1,4,0:0:0:0:
448,76,83274,2,0,P|453:132|453:194,2,117,0|4|4,0:0|0:0|0:0,0:0:0:0:
256,340,84774,5,2,0:0:0:0:
76,64,85524,1,2,0:0:0:0:
256,340,86274,2,0,P|204:368|128:348,2,117,2|8|6,0:0|0:0|0:0,0:0:0:0:
436,64,87774,37,2,0:0:0:0:
188,276,88524,1,2,0:0:0:0:
436,64,89274,2,0,P|464:115|444:192,1,117,2|8,0:0|0:0,0:0:0:0:
340,287,90024,6,0,B|261:296|261:296|233:272,1,117,4|6,0:0|0:0,0:0:0:0:
68,271,90774,2,0,B|59:192|59:192|83:164,1,117,4|6,0:0|0:0,0:0:0:0:
199,47,91524,6,0,B|278:38|278:38|306:62,1,117,4|6,0:0|0:0,0:0:0:0:
471,63,92274,2,0,B|480:142|480:142|456:170,1,117,4|2,0:0|0:0,0:0:0:0:
339,286,93024,37,2,0:0:0:0:
176,296,93399,1,2,0:0:0:0:
12,304,93774,1,2,0:0:0:0:
256,84,94524,6,0,P|348:56|420:96,1,175.5,0|0,1:0|0:0,0:0:0:0:
460,160,95274,2,0,L|448:284,1,117,2|8,0:0|0:0,0:0:0:0:
296,340,96024,22,0,B|257:345|257:345|221:337|221:337|180:342,1,117,6|6,1:0|1:0,0:0:0:0:
64,226,96774,2,0,B|48:200|48:200|56:160,1,58.5,2|2,1:3|1:0,0:0:0:0:
72,92,97149,6,0,L|144:88,1,58.5,4|2,0:0|0:1,0:0:0:0:
212,84,97524,2,0,B|228:66|228:66|385:60,1,175.5,2|2,1:0|1:0,0:0:0:0:
444,112,98274,2,0,B|468:164|468:164|444:232,2,117,10|2|4,1:0|1:0|0:0,0:0:0:0:
328,227,99399,53,2,1:0:0:0:
256,192,99774,12,4,100899,1:0:0:0:
76,192,102024,6,0,P|60:128|68:64,2,117,6|2|2,1:0|1:0|1:0,0:0:0:0:
192,308,103149,1,8,1:2:0:0:
344,248,103524,2,0,L|488:252,2,117,4|10|4,0:0|0:0|0:0,0:0:0:0:
192,308,104649,1,10,0:0:0:0:
76,192,105024,54,0,B|100:160|100:160|92:56,1,117,4|2,0:0|1:0,0:0:0:0:
252,40,105774,6,0,B|344:16|344:68|424:44,2,175.5,4|4|0,1:0|0:0|0:0,0:0:0:0:
94,83,107274,1,8,0:0:0:0:
360,272,108024,54,0,B|388:244|388:244|400:144,1,117,4|8,1:0|1:0,0:0:0:0:
332,16,108774,1,12,1:3:0:0:
332,16,109149,1,12,1:3:0:0:
256,160,109524,6,0,L|256:232,2,58.5,2|2|2,1:2|0:3|1:2,0:0:0:0:
180,16,110274,1,4,1:2:0:0:
115,167,110649,2,0,L|127:299,1,117,4|4,1:2|1:0,0:0:0:0:
256,192,111399,12,4,112899,1:2:0:0:
436,192,114024,54,0,P|452:128|444:64,2,117,4|4|4,0:0|0:0|1:0,0:0:0:0:
320,308,115149,1,0,0:0:0:0:
168,248,115524,2,0,L|24:252,2,117,4|10|4,0:0|0:0|0:0,0:0:0:0:
320,308,116649,1,10,1:2:0:0:
436,192,117024,6,0,B|412:160|412:160|420:56,1,117,4|10,1:0|1:0,0:0:0:0:
260,40,117774,54,0,B|168:16|168:68|88:44,2,175.5,4|4|2,0:0|0:0|0:0,0:0:0:0:
196,192,119274,1,8,0:0:0:0:
448,288,120024,22,0,P|380:344|300:324,1,175.5,4|0,0:0|0:0,0:0:0:0:
256,256,120774,2,0,L|264:128,1,117,8|2,0:0|0:0,0:0:0:0:
420,92,121524,6,0,B|319:84|319:84|282:102|282:102|180:96,1,234,0|8,0:0|0:0,0:0:0:0:
40,28,122649,1,2,0:0:0:0:
8,188,123024,6,0,P|8:244|40:304,1,117,0|0,0:0|0:0,0:0:0:0:
199,297,123774,2,0,P|255:297|315:329,1,117,8|2,0:0|0:0,0:0:0:0:
472,352,124524,38,0,L|480:216,1,117
479,148,125086,2,0,L|472:32,1,117,4|0,0:0|0:0,0:0:0:0:
392,0,125649,1,4,0:0:0:0:
256,92,126024,6,0,P|196:116|112:40,1,175.5,4|0,0:0|0:0,0:0:0:0:
32,56,126774,2,0,P|44:104|92:160,1,117,8|2,0:0|0:0,0:0:0:0:
120,316,127524,6,0,B|221:308|221:308|258:326|258:326|360:320,1,234,0|8,0:0|0:0,0:0:0:0:
496,244,128649,1,2,0:0:0:0:
467,167,128836,38,0,P|407:163|291:199,1,175.5,2|0,0:0|0:0,0:0:0:0:
215,195,129586,2,0,P|132:165|45:166,1,175.5,2|2,0:0|0:0,0:0:0:0:
16,244,130336,1,2,0:0:0:0:
44,320,130524,6,0,P|131:320|213:290,1,175.5
300,292,131274,2,0,P|333:296|360:313,1,58.5,8|8,0:0|0:0,0:0:0:0:
