osu file format v14

[General]
AudioFilename: M2U - Velocity.mp3
AudioLeadIn: 0
PreviewTime: 34500
Countdown: 0
SampleSet: Soft
StackLeniency: 0.3
Mode: 0
LetterboxInBreaks: 0
EpilepsyWarning: 1
WidescreenStoryboard: 1

[Editor]
Bookmarks: 24,131461
DistanceSpacing: 1.2
BeatDivisor: 8
GridSize: 4
TimelineZoom: 2.4

[Metadata]
Title:Velocity
TitleUnicode:Velocity
Artist:M2U
ArtistUnicode:M2U
Creator:Gero
Version:Insane
Source:
Tags:MMC MMC2 Modhelp Mapping Contest Yabai FutureBass Irreversible
BeatmapID:1256329
BeatmapSetID:593883

[Difficulty]
HPDrainRate:6.5
CircleSize:4.5
OverallDifficulty:7.5
ApproachRate:9
SliderMultiplier:1.8
SliderTickRate:2

[Events]
//Background and Video events
0,0,"BG.jpg",0,0
//Break Periods
//Storyboard Layer 0 (Background)
//Storyboard Layer 1 (Fail)
//Storyboard Layer 2 (Pass)
//Storyboard Layer 3 (Foreground)
//Storyboard Sound Samples

[TimingPoints]
24,375,4,2,1,70,1,0
24,-142.857142857143,4,2,1,70,0,0
12024,-125,4,2,1,70,0,0
24024,-111.111111111111,4,2,1,70,0,0
30024,-100,4,2,1,70,0,0
34524,-100,4,2,2,70,0,0
36024,-100,4,2,2,70,0,1
37195,-100,4,1,2,70,0,1
37289,-100,4,2,2,70,0,1
38555,-100,4,2,2,5,0,1
38649,-100,4,2,2,70,0,1
38930,-100,4,2,2,5,0,1
39024,-100,4,2,2,70,0,1
39305,-100,4,2,2,5,0,1
39399,-100,4,2,2,70,0,1
39680,-100,4,2,2,5,0,1
39774,-100,4,2,2,70,0,1
45305,-100,4,2,2,5,0,1
45399,-100,4,2,2,70,0,1
45680,-100,4,2,2,5,0,1
45774,-100,4,2,2,70,0,1
47461,-133.333333333333,4,2,2,70,0,0
48024,-100,4,2,2,70,0,1
48305,-100,4,2,2,5,0,1
48399,-100,4,2,2,70,0,1
48680,-100,4,2,2,5,0,1
48774,-100,4,2,2,70,0,1
48867,-100,4,2,2,5,0,1
48961,-100,4,2,2,70,0,1
49055,-100,4,2,2,5,0,1
49149,-100,4,2,2,70,0,1
49430,-100,4,2,2,5,0,1
49524,-100,4,2,2,70,0,1
51305,-100,4,2,2,5,0,1
51399,-100,4,2,2,70,0,1
59274,-500,4,2,2,70,0,0
59930,-500,4,2,2,5,0,0
60024,-142.857142857143,4,2,1,40,0,0
72024,-125,4,2,1,50,0,0
84024,-111.111111111111,4,2,1,70,0,0
90024,-100,4,2,1,70,0,0
96024,-100,4,2,2,70,0,1
96305,-100,4,2,2,5,0,1
96399,-100,4,2,2,70,0,1
96680,-100,4,2,2,5,0,1
96774,-100,4,2,2,70,0,1
98930,-100,4,2,2,5,0,1
99024,-100,4,2,2,70,0,1
99305,-100,4,2,2,5,0,1
99399,-100,4,2,2,70,0,1
99680,-100,4,2,2,5,0,1
99774,-100,4,2,2,70,0,1
105305,-100,4,2,2,5,0,1
105399,-100,4,2,2,70,0,1
105680,-100,4,2,2,5,0,1
105774,-100,4,2,2,70,0,1
107274,-100,4,2,2,70,0,0
107461,-133.333333333333,4,2,2,70,0,0
108024,-100,4,2,2,70,0,1
108305,-100,4,2,2,5,0,1
108399,-100,4,2,2,70,0,1
108680,-100,4,2,2,5,0,1
108774,-100,4,2,2,70,0,1
111305,-100,4,2,2,5,0,1
111399,-100,4,2,2,70,0,1
119274,-500,4,2,2,70,0,0
119930,-500,4,2,2,5,0,0
120024,-133.333333333333,4,2,1,70,0,0

[Colours]
Combo1 : 163,163,163
Combo2 : 117,226,232
Combo3 : 0,117,234
Combo4 : 190,146,239
Combo5 : 243,24,30
SliderBorder : 52,180,167
SliderTrackOverride : 193,193,193

[HitObjects]
200,184,24,6,2,P|256:209|312:184,1,125.999996154785,4|0,0:0|0:0,0:0:0:0:
378,117,586,1,2,0:3:0:0:
444,183,774,2,0,B|432:212|432:212|444:241,1,62.9999980773926,10|2,0:0|0:3,0:0:0:0:
511,308,1149,1,2,0:0:0:0:
444,374,1336,1,2,0:0:0:0:
377,307,1524,6,2,B|323:307|323:307|248:307|221:380,1,188.999994232178,4|2,0:0|0:3,0:0:0:0:
154,313,2274,1,10,0:0:0:0:
220,246,2461,1,2,0:3:0:0:
153,179,2649,1,2,0:0:0:0:
141,166,2742,1,0,0:0:0:0:
129,153,2836,1,0,0:0:0:0:
117,140,2930,1,0,0:0:0:0:
104,128,3024,5,4,0:0:0:0:
201,96,3211,1,0,0:0:0:0:
189,83,3305,1,0,0:0:0:0:
177,70,3398,1,2,0:0:0:0:
110,3,3586,1,2,0:3:0:0:
177,70,3774,2,0,B|197:70|197:70|205:73|205:73|205:67|205:67|213:70|213:70|233:70,1,62.9999980773926,10|2,0:0|0:3,0:0:0:0:
369,136,4149,2,0,B|349:136|349:136|341:139|341:139|341:133|341:133|333:136|333:136|313:136,1,62.9999980773926,2|2,0:0|0:0,0:0:0:0:
177,202,4524,38,2,B|197:202|197:202|205:205|205:205|205:199|205:199|213:202|213:202|233:202,1,62.9999980773926,6|0,0:0|0:0,0:0:0:0:
369,268,4899,1,2,0:0:0:0:
369,268,5086,2,2,B|349:268|349:268|341:271|341:271|341:265|341:265|333:268|333:268|313:268,1,62.9999980773926,6|8,0:0|0:0,0:0:0:0:
232,334,5461,1,2,0:3:0:0:
232,334,5555,1,2,0:3:0:0:
232,334,5649,1,2,0:0:0:0:
313,268,5836,1,2,0:3:0:0:
233,202,6024,6,2,B|205:188|205:188|177:202,1,62.9999980773926,6|0,0:0|0:0,0:0:0:0:
53,135,6399,2,2,B|81:149|81:149|109:135,1,62.9999980773926,0|2,0:0|0:3,0:0:0:0:
176,67,6774,1,10,0:0:0:0:
53,135,6961,1,2,0:3:0:0:
176,202,7149,1,2,0:0:0:0:
53,270,7336,1,2,0:0:0:0:
176,337,7524,6,2,B|224:336|256:380|256:380|288:336|336:337,1,188.999994232178,4|2,0:0|0:3,0:0:0:0:
256,224,8274,2,0,P|247:254|255:284,1,62.9999980773926,10|2,0:0|0:3,0:0:0:0:
364,156,8649,1,2,0:0:0:0:
364,156,8742,1,0,0:0:0:0:
364,156,8836,2,0,B|367:140|367:140|364:124,1,31.4999990386963,2|0,0:0|0:0,0:0:0:0:
256,56,9024,38,2,B|236:44|236:44|228:44|228:44|220:44|220:44|200:56,1,62.9999980773926,4|2,0:0|0:0,0:0:0:0:
76,123,9399,2,2,B|96:135|96:135|104:135|104:135|112:135|112:135|132:123,1,62.9999980773926,2|2,0:0|0:3,0:0:0:0:
104,31,9774,1,10,0:0:0:0:
104,31,9961,2,0,L|193:120,1,125.999996154785,2|2,0:3|0:0,0:0:0:0:
256,192,10524,5,4,0:0:0:0:
319,120,10711,1,2,0:0:0:0:
256,212,10899,1,2,0:0:0:0:
193,120,11086,1,6,0:0:0:0:
256,232,11274,1,8,0:0:0:0:
319,120,11461,1,2,0:3:0:0:
319,120,11555,1,2,0:3:0:0:
319,120,11649,1,4,0:0:0:0:
256,252,11836,1,2,0:3:0:0:
193,120,12024,6,2,B|208:88|208:88|208:51,1,72,6|0,0:0|0:0,0:0:0:0:
304,51,12399,2,2,B|304:88|304:88|319:120,1,72,2|2,0:0|0:3,0:0:0:0:
256,192,12774,1,10,0:0:0:0:
320,264,12961,2,0,B|344:264|344:264|352:267|352:267|352:261|352:261|360:264|360:264|384:264,1,72,2|0,0:3|0:0,0:0:0:0:
256,336,13336,1,6,0:0:0:0:
193,264,13524,2,0,B|169:264|169:264|161:267|161:267|161:261|161:261|153:264|153:264|129:264,2,72,2|2|2,0:0|0:0|0:0,0:0:0:0:
256,192,14086,1,2,0:3:0:0:
193,120,14274,37,8,0:0:0:0:
210,118,14367,1,2,0:0:0:0:
228,112,14461,1,4,0:0:0:0:
243,103,14555,1,2,0:0:0:0:
256,91,14649,1,4,0:0:0:0:
268,103,14742,1,2,0:0:0:0:
284,113,14836,1,6,0:0:0:0:
301,118,14930,1,0,0:0:0:0:
319,120,15024,5,6,0:0:0:0:
390,48,15211,1,2,0:0:0:0:
461,119,15399,2,2,L|410:169,1,72,2|2,0:0|0:3,0:0:0:0:
481,241,15774,2,2,L|430:291,1,72,10|2,0:0|0:3,0:0:0:0:
358,363,16149,1,2,0:0:0:0:
285,290,16336,6,2,P|233:243|219:173,1,144,6|2,0:0|0:0,0:0:0:0:
256,80,16899,1,2,0:0:0:0:
292,173,17086,2,2,P|278:243|226:290,1,144,6|2,0:0|0:0,0:0:0:0:
154,363,17649,1,2,0:0:0:0:
154,363,17742,1,4,0:0:0:0:
154,363,17836,1,0,0:0:0:0:
82,291,18024,38,2,B|82:257|82:257|86:249|86:249|86:219,1,72,6|0,0:0|0:0,0:0:0:0:
14,148,18399,2,2,B|14:114|14:114|18:106|18:106|18:76,1,72
89,5,18774,1,10,0:0:0:0:
160,76,18961,2,0,B|184:88|208:88|208:88|192:104,1,72,2|2,0:0|0:0,0:0:0:0:
256,184,19336,1,2,0:0:0:0:
320,104,19524,2,0,B|304:88|304:88|328:88|352:76,1,72,4|2,0:0|0:0,0:0:0:0:
423,5,19899,1,2,0:0:0:0:
494,76,20086,1,2,0:0:0:0:
422,148,20274,5,8,0:0:0:0:
408,174,20367,1,2,0:0:0:0:
404,204,20461,1,6,0:0:0:0:
408,233,20555,1,2,0:0:0:0:
423,259,20649,1,4,0:0:0:0:
438,285,20742,1,2,0:0:0:0:
442,314,20836,1,6,0:0:0:0:
438,344,20930,1,2,0:0:0:0:
424,370,21024,5,6,0:0:0:0:
424,370,21211,1,2,0:0:0:0:
509,203,21399,1,2,0:0:0:0:
509,203,21586,1,2,0:0:0:0:
337,315,21774,1,10,0:0:0:0:
337,315,21961,1,2,0:0:0:0:
422,148,22149,1,2,0:0:0:0:
422,148,22336,38,2,B|411:87|354:71|354:71|320:62,1,144,6|2,0:0|0:0,0:0:0:0:
256,132,22899,1,8,0:0:0:0:
192,62,23086,2,2,B|158:71|158:71|101:87|90:148,1,144,6|2,0:0|0:0,0:0:0:0:
23,214,23649,1,2,0:0:0:0:
23,214,23742,1,4,0:0:0:0:
23,214,23836,1,0,0:0:0:0:
104,351,24024,6,0,P|160:371|216:351,1,121.499996292114,12|4,0:0|0:0,0:0:0:0:
194,285,24399,2,0,B|179:301|160:306|160:306|141:301|126:285,1,80.9999975280763,8|4,0:0|0:0,0:0:0:0:
160,192,24774,1,12,0:0:0:0:
126,99,24961,1,4,0:0:0:0:
126,99,25055,1,0,0:0:0:0:
126,99,25149,2,0,B|141:83|160:78|160:78|179:83|194:99,1,80.9999975280763,8|4,0:0|0:0,0:0:0:0:
408,351,25524,6,0,P|352:371|296:351,1,121.499996292114,12|4,0:0|0:0,0:0:0:0:
318,285,25899,2,0,B|333:301|352:306|352:306|371:301|386:285,1,80.9999975280763,8|4,0:0|0:0,0:0:0:0:
352,192,26274,1,12,0:0:0:0:
386,99,26461,1,4,0:0:0:0:
386,99,26555,1,0,0:0:0:0:
386,99,26649,2,0,B|371:83|352:78|352:78|333:83|318:99,1,80.9999975280763,8|4,0:0|0:0,0:0:0:0:
104,360,27024,38,0,B|124:330|124:330|99:290|124:250,1,121.499996292114,12|4,0:0|0:0,0:0:0:0:
160,192,27399,2,0,B|136:192|124:207|124:207|112:192|88:192,1,80.9999975280763,8|4,0:0|0:0,0:0:0:0:
16,116,27774,1,12,0:0:0:0:
88,40,27961,1,4,0:0:0:0:
88,40,28055,1,0,0:0:0:0:
88,40,28149,2,0,B|112:40|124:25|124:25|136:40|160:40,1,80.9999975280763,8|4,0:0|0:0,0:0:0:0:
408,360,28524,6,0,B|388:330|388:330|413:290|388:250,1,121.499996292114,12|4,0:0|0:0,0:0:0:0:
352,192,28899,2,0,B|376:192|388:207|388:207|400:192|424:192,1,80.9999975280763,8|4,0:0|0:0,0:0:0:0:
496,116,29274,1,12,0:0:0:0:
424,40,29461,1,4,0:0:0:0:
424,40,29555,1,0,0:0:0:0:
424,40,29649,2,0,B|400:40|388:25|388:25|376:40|352:40,1,80.9999975280763,8|4,0:0|0:0,0:0:0:0:
160,192,30024,6,0,P|104:224|48:192,1,135,12|8,0:0|0:0,0:0:0:0:
64,124,30399,2,0,P|104:106|144:124,1,90,12|8,0:0|0:0,0:0:0:0:
352,192,30774,38,0,P|408:224|464:192,1,135,12|8,0:0|0:0,0:0:0:0:
448,124,31149,2,0,P|408:106|368:124,1,90,12|8,0:0|0:0,0:0:0:0:
160,324,31524,6,0,P|104:356|48:324,1,135,12|8,0:0|0:0,0:0:0:0:
64,256,31899,2,0,P|104:238|144:256,1,90,12|8,0:0|0:0,0:0:0:0:
352,324,32274,6,0,P|408:356|464:324,1,135,12|8,0:0|0:0,0:0:0:0:
448,256,32649,2,0,P|408:238|368:256,1,90,12|8,0:0|0:0,0:0:0:0:
160,324,33024,37,4,0:0:0:0:
141,300,33117,1,4,0:0:0:0:
129,273,33211,1,4,0:0:0:0:
125,243,33305,1,4,0:0:0:0:
129,214,33399,5,4,0:0:0:0:
141,186,33492,1,4,0:0:0:0:
160,163,33586,1,4,0:0:0:0:
179,139,33680,1,4,0:0:0:0:
191,112,33774,5,4,0:0:0:0:
195,82,33867,1,4,0:0:0:0:
191,53,33961,1,4,0:0:0:0:
179,25,34055,1,4,0:0:0:0:
160,2,34149,38,0,L|203:12,1,45,4|4,0:0|0:0,0:0:0:0:
91,82,34336,2,0,L|47:92,1,45,4|4,0:0|0:0,0:0:0:0:
160,163,34524,5,4,0:0:0:0:
361,361,35086,6,0,L|352:382,3,22.5,4|4|4|4,0:0|0:0|0:0|0:0,0:0:0:0:
352,382,35274,37,4,0:0:0:0:
334,361,35367,1,4,0:0:0:0:
328,334,35461,1,4,0:0:0:0:
334,307,35555,1,4,0:0:0:0:
353,286,35649,2,2,P|367:244|353:202,1,90,8|2,1:2|0:0,0:1:0:0:
159,98,36024,38,0,P|132:158|159:218,1,135,4|2,0:0|0:1,0:0:0:0:
211,266,36399,1,8,1:2:0:0:
63,114,36586,2,0,B|54:158|54:158|63:202,1,90,4|2,0:0|0:1,0:0:0:0:
4,279,36961,1,2,0:1:0:0:
63,355,37149,2,2,P|143:390|223:355,1,180,4|0,0:0|0:0,0:1:0:0:
300,296,37711,5,2,0:0:0:0:
324,277,37805,1,2,0:0:0:0:
351,265,37899,1,0,0:0:0:0:
381,261,37992,1,0,0:0:0:0:
410,265,38086,1,2,0:0:0:0:
438,277,38180,1,2,0:0:0:0:
461,296,38274,54,2,B|430:236|430:236|461:176,1,135,8|0,0:0|0:0,0:1:0:0:
508,124,38649,2,2,B|453:124|453:124|445:128|445:128|445:120|445:120|437:124|437:124|382:124,1,135,8|0,1:2|0:0,0:1:0:0:
336,176,39024,6,0,B|368:132|344:80|344:80|329:50,1,135,4|0,1:0|0:0,0:0:0:0:
276,0,39399,2,2,B|244:44|268:96|268:96|282:126,1,135,2|0,0:1|0:0,0:1:0:0:
229,176,39774,54,2,L|216:157,6,22.5,8|0|2|2|2|2|2,0:0|0:0|0:1|0:1|0:1|0:1|0:1,0:1:0:0:
282,225,40149,5,4,0:0:0:0:
270,245,40242,1,2,0:1:0:0:
261,260,40336,1,2,0:1:0:0:
250,277,40430,1,2,0:1:0:0:
381,261,40617,53,2,0:1:0:0:
393,241,40711,1,2,0:1:0:0:
402,226,40805,1,2,0:1:0:0:
413,209,40899,5,8,1:2:0:0:
455,119,41086,2,0,P|413:105|371:119,1,90,4|2,0:0|0:0,0:0:0:0:
214,50,41461,1,4,0:0:0:0:
214,50,41555,1,4,0:0:0:0:
214,50,41649,2,0,P|256:64|298:50,1,90,4|2,0:0|0:1,0:0:0:0:
391,22,42024,54,2,L|263:149,1,180,4|4,0:0|0:0,0:1:0:0:
333,218,42586,2,0,L|349:202,3,22.5,4|4|4|4,0:0|0:0|0:0|0:0,0:0:0:0:
293,274,42774,2,0,B|333:254|333:254|373:274,1,90,4|2,1:0|0:1,0:0:0:0:
432,192,43149,1,2,0:0:0:0:
373,110,43336,6,2,B|292:110|292:110|284:106|284:106|276:102|276:102|194:102,1,180,4|2,0:0|0:0,0:1:0:0:
124,31,43899,1,8,1:2:0:0:
54,100,44086,2,2,P|18:180|54:260,1,180,4|4,0:0|0:0,0:1:0:0:
53,259,44555,1,4,0:0:0:0:
53,259,44649,1,4,0:0:0:0:
123,329,44836,1,4,0:0:0:0:
193,258,45024,54,2,B|209:254|209:254|225:258|225:258|241:254|241:254|257:258|257:258|265:254|265:254|265:262|265:262|273:258|273:258|316:258,1,135,2|0,0:1|0:0,0:1:0:0:
360,312,45399,2,2,B|356:296|356:296|360:280|360:280|356:264|356:264|360:248|360:248|356:240|356:240|364:240|364:240|360:232|360:232|360:188,1,135,8|0,0:0|0:0,0:1:0:0:
404,134,45774,1,4,0:0:0:0:
256,192,45961,1,4,0:0:0:0:
464,68,46149,1,4,1:0:0:0:
316,127,46336,6,2,B|276:145|256:191|256:191|236:145|196:127,1,180,4|8,0:0|1:2,0:1:0:0:
216,28,46899,2,0,P|256:10|296:28,1,90,2|4,0:1|0:0,0:0:0:0:
296,28,47180,1,4,0:0:0:0:
296,28,47274,1,4,0:0:0:0:
404,134,47461,54,0,L|397:168,1,33.7500012874604,2|2,0:3|0:3,0:0:0:0:
413,124,47649,2,0,L|406:158,1,33.7500012874604,2|2,0:3|0:3,0:0:0:0:
422,114,47836,2,0,L|415:148,1,33.7500012874604,2|2,0:3|0:3,0:0:0:0:
431,104,48024,6,2,L|403:236,1,135,6|0,0:0|0:0,0:1:0:0:
463,288,48399,2,2,P|403:262|343:288,1,135,6|0,0:0|0:0,0:0:0:0:
277,239,48774,2,2,P|256:246|235:239,1,45,6|0,0:0|0:0,0:1:0:0:
168,192,48961,2,2,P|147:185|126:192,1,45,2|0,0:0|0:0,0:1:0:0:
72,252,49149,2,2,B|102:192|102:192|72:132,1,135,4|0,0:0|0:0,0:1:0:0:
14,73,49524,53,4,0:0:0:0:
30,58,49617,1,2,0:1:0:0:
46,43,49711,1,2,0:1:0:0:
8,192,49899,5,4,0:0:0:0:
24,177,49992,1,2,0:1:0:0:
40,162,50086,1,2,0:1:0:0:
56,147,50180,1,2,0:1:0:0:
72,132,50274,53,8,1:2:0:0:
233,192,50461,1,4,0:0:0:0:
72,252,50649,1,8,1:2:0:0:
168,192,50836,1,4,0:0:0:0:
311,100,51024,6,2,P|371:74|431:100,1,135,4|0,0:0|0:0,0:1:0:0:
492,156,51399,1,4,0:0:0:0:
482,127,51492,1,2,0:1:0:0:
460,107,51586,1,0,0:0:0:0:
431,100,51680,1,2,0:1:0:0:
403,108,51774,53,12,1:2:0:0:
381,128,51867,1,2,0:1:0:0:
373,156,51961,1,2,0:1:0:0:
381,185,52055,1,0,0:0:0:0:
401,207,52149,1,4,0:0:0:0:
469,276,52336,1,2,0:1:0:0:
398,346,52524,6,2,P|377:353|356:346,1,45,4|2,0:0|0:0,0:1:0:0:
289,299,52711,2,2,P|268:292|247:299,1,45,2|2,0:1|0:0,0:1:0:0:
188,240,52899,53,8,1:2:0:0:
256,92,53086,1,4,0:0:0:0:
324,240,53274,1,2,0:1:0:0:
256,71,53461,1,2,0:0:0:0:
216,163,53649,2,0,P|256:181|296:163,1,90,8|2,1:2|0:0,0:0:0:0:
188,240,54024,6,2,B|212:280|256:296|256:296|300:280|324:240,1,180,4|4,0:0|0:0,0:1:0:0:
394,310,54586,2,0,L|409:325,3,22.5,4|4|4|4,0:0|0:0|0:0|0:0,0:0:0:0:
464,380,54774,1,4,1:0:0:0:
324,240,54961,1,4,0:0:0:0:
394,310,55149,1,2,0:0:0:0:
464,240,55336,54,2,B|464:160|464:160|468:152|468:152|472:144|472:144|472:61,1,180,4|2,0:0|0:0,0:1:0:0:
388,12,55899,1,8,1:2:0:0:
304,62,56086,2,2,B|248:72|228:52|228:24|256:12|284:24|284:52|264:72|208:62,1,180,4|4,0:0|0:0,0:1:0:0:
208,62,56555,1,4,0:0:0:0:
208,62,56649,1,12,1:2:0:0:
124,12,56836,1,4,0:0:0:0:
40,61,57024,6,2,B|40:144|40:144|44:152|44:152|48:160|48:160|48:240,1,180,4|8,1:0|1:2,0:1:0:0:
118,310,57586,1,2,0:0:0:0:
188,240,57774,2,0,P|204:199|188:158,1,90,4|4,0:0|0:0,0:0:0:0:
256,88,58149,1,4,1:0:0:0:
186,18,58336,54,2,L|59:145,1,180,4|8,0:0|1:2,0:1:0:0:
69,154,58805,1,4,0:0:0:0:
79,163,58899,1,4,0:0:0:0:
221,201,59086,1,4,0:0:0:0:
211,192,59180,1,4,0:0:0:0:
201,183,59274,6,2,B|215:155|215:155|201:127,1,63,4|0,1:0|0:0,0:0:0:0:
201,183,60024,6,2,B|256:214|256:214|311:183,1,125.999996154785,4|0,0:0|0:0,0:0:0:0:
378,116,60586,1,2,0:3:0:0:
445,182,60774,2,0,B|433:211|433:211|445:240,1,62.9999980773926,10|2,0:0|0:3,0:0:0:0:
512,307,61149,1,2,0:0:0:0:
446,373,61336,1,2,0:0:0:0:
380,306,61524,6,2,B|284:306|284:306|207:357,1,188.999994232178,4|2,0:0|0:3,0:0:0:0:
140,290,62274,1,10,0:0:0:0:
207,223,62462,1,4,0:0:0:0:
195,210,62556,1,2,0:0:0:0:
183,197,62649,1,4,0:0:0:0:
171,184,62743,1,0,0:0:0:0:
158,172,62837,1,4,0:0:0:0:
146,159,62930,1,2,0:0:0:0:
133,147,63024,5,4,0:0:0:0:
224,120,63211,1,0,0:0:0:0:
212,107,63305,1,0,0:0:0:0:
200,94,63398,1,2,0:0:0:0:
133,27,63586,1,2,0:3:0:0:
200,94,63774,2,0,B|220:94|220:94|228:97|228:97|228:91|228:91|236:94|236:94|256:94,1,62.9999980773926,10|2,0:0|0:3,0:0:0:0:
379,160,64149,2,0,B|359:160|359:160|351:163|351:163|351:157|351:157|343:160|343:160|323:160,1,62.9999980773926,2|2,0:0|0:0,0:0:0:0:
200,228,64524,38,2,B|220:228|220:228|228:231|228:231|228:225|228:225|236:228|236:228|256:228,1,62.9999980773926,6|0,0:0|0:0,0:0:0:0:
379,294,64899,1,2,0:0:0:0:
379,294,65086,2,2,B|359:294|359:294|351:297|351:297|351:291|351:291|343:294|343:294|323:294,1,62.9999980773926,6|8,0:0|0:0,0:0:0:0:
256,360,65461,1,2,0:3:0:0:
256,360,65555,1,2,0:3:0:0:
256,360,65649,6,0,L|234:382,1,31.4999990386963,2|2,0:3|0:3,0:0:0:0:
176,332,65836,2,0,L|154:354,1,31.4999990386963,2|2,0:3|0:3,0:0:0:0:
96,304,66024,6,2,B|82:276|82:276|96:248,1,62.9999980773926,6|0,0:0|0:0,0:0:0:0:
30,180,66399,2,2,B|44:152|44:152|30:124,1,62.9999980773926,0|2,0:0|0:3,0:0:0:0:
97,56,66774,1,10,0:0:0:0:
164,122,66961,1,2,0:3:0:0:
112,44,67149,1,2,0:0:0:0:
179,110,67336,1,2,0:0:0:0:
256,192,67524,38,2,B|303:216|343:196|347:192|351:188|391:168|438:192,1,188.999994232178,4|2,0:0|0:3,0:0:0:0:
304,60,68274,2,0,P|295:90|303:120,1,62.9999980773926,10|2,0:0|0:3,0:0:0:0:
396,296,68649,1,2,0:0:0:0:
396,296,68742,1,0,0:0:0:0:
396,296,68836,2,0,B|399:280|399:280|396:264,1,31.4999990386963,2|0,0:0|0:0,0:0:0:0:
256,192,69024,6,2,B|236:180|236:180|228:180|228:180|220:180|220:180|200:192,1,62.9999980773926,4|2,0:0|0:0,0:0:0:0:
76,259,69399,2,2,B|96:271|96:271|104:271|104:271|112:271|112:271|132:259,1,62.9999980773926,2|2,0:0|0:3,0:0:0:0:
104,167,69774,1,10,0:0:0:0:
104,167,69961,2,0,L|193:256,1,125.999996154785,2|2,0:3|0:0,0:0:0:0:
256,328,70524,5,4,0:0:0:0:
318,256,70711,1,10,0:0:0:0:
132,328,70899,1,2,0:0:0:0:
256,184,71086,1,6,0:0:0:0:
380,328,71274,1,8,0:0:0:0:
194,256,71461,37,10,0:0:0:0:
194,256,71555,1,10,0:0:0:0:
194,256,71649,1,4,0:0:0:0:
194,256,71742,1,2,0:3:0:0:
194,256,71836,1,2,0:3:0:0:
194,256,71930,1,2,0:3:0:0:
194,256,72024,6,2,B|144:205,1,72,6|0,0:0|0:0,0:0:0:0:
318,256,72399,2,2,B|369:205,1,72,2|2,0:0|0:3,0:0:0:0:
441,133,72774,1,10,0:0:0:0:
370,61,72961,2,0,B|346:61|346:61|338:58|338:58|338:64|338:64|330:61|330:61|306:61,1,72,2|0,0:3|0:0,0:0:0:0:
256,148,73336,1,6,0:0:0:0:
142,61,73524,2,0,B|166:61|166:61|174:58|174:58|174:64|174:64|182:61|182:61|206:61,2,72,2|2|2,0:0|0:0|0:0,0:0:0:0:
71,133,74086,1,2,0:3:0:0:
194,256,74274,5,12,0:0:0:0:
213,268,74367,1,2,0:0:0:0:
230,283,74461,1,4,0:0:0:0:
245,300,74555,1,2,0:0:0:0:
256,319,74649,1,4,0:0:0:0:
268,301,74742,1,2,0:0:0:0:
282,283,74836,1,6,0:0:0:0:
299,268,74930,1,0,0:0:0:0:
318,256,75024,37,4,0:0:0:0:
256,176,75211,1,2,0:0:0:0:
194,256,75399,2,2,L|143:306,1,72,2|2,0:0|0:3,0:0:0:0:
318,256,75774,2,2,L|369:306,1,72,10|2,0:0|0:3,0:0:0:0:
441,234,76149,1,2,0:0:0:0:
370,162,76336,6,2,B|300:162|300:162|316:128|301:90,1,144,6|2,0:0|0:0,0:0:0:0:
256,12,76899,1,2,0:0:0:0:
212,90,77086,2,2,B|196:128|212:162|212:162|142:162,1,144,6|2,0:0|0:0,0:0:0:0:
71,234,77649,1,2,0:0:0:0:
71,234,77742,1,4,0:0:0:0:
71,234,77836,1,0,0:0:0:0:
142,306,78024,6,2,B|142:340|142:340|146:348|146:348|146:378,1,72,6|0,0:0|0:0,0:0:0:0:
71,234,78399,2,2,B|71:200|71:200|75:192|75:192|75:162,1,72
147,91,78774,1,10,0:0:0:0:
219,162,78961,2,0,B|219:174|219:174|219:206|195:226,1,72,2|2,0:0|0:0,0:0:0:0:
256,308,79336,1,2,0:0:0:0:
317,226,79524,2,0,B|293:206|293:174|293:174|293:162,1,72,6|2,0:0|0:0,0:0:0:0:
365,91,79899,1,2,0:0:0:0:
437,162,80086,1,2,0:0:0:0:
367,309,80274,37,8,0:0:0:0:
341,323,80367,1,2,0:0:0:0:
311,327,80461,1,6,0:0:0:0:
282,323,80555,1,2,0:0:0:0:
256,308,80649,1,4,0:0:0:0:
230,293,80742,1,2,0:0:0:0:
201,289,80836,1,6,0:0:0:0:
171,293,80930,1,2,0:0:0:0:
145,307,81024,5,6,0:0:0:0:
74,378,81211,1,2,0:0:0:0:
120,288,81399,1,2,0:0:0:0:
49,359,81586,1,2,0:0:0:0:
96,269,81774,1,10,0:0:0:0:
25,340,81961,1,2,0:0:0:0:
71,250,82149,1,2,0:0:0:0:
71,250,82336,6,2,B|120:196|120:196|192:196,1,144,6|2,0:0|0:0,0:0:0:0:
256,120,82899,1,8,0:0:0:0:
320,196,83086,2,2,B|392:196|392:196|441:250,1,144,6|2,0:0|0:0,0:0:0:0:
487,340,83649,1,2,0:0:0:0:
487,340,83742,1,4,0:0:0:0:
487,340,83836,1,0,0:0:0:0:
312,368,84024,38,0,P|256:388|200:368,1,121.499996292114,12|4,0:0|0:0,0:0:0:0:
222,302,84399,2,0,B|237:318|256:323|256:323|275:318|290:302,1,80.9999975280763,8|4,0:0|0:0,0:0:0:0:
256,192,84774,1,12,0:0:0:0:
290,82,84961,1,4,0:0:0:0:
290,82,85055,1,0,0:0:0:0:
290,82,85149,2,0,B|256:60|256:60|222:82,1,80.9999975280763,8|4,0:0|0:0,0:0:0:0:
200,368,85524,6,0,P|256:388|312:368,1,121.499996292114,12|4,0:0|0:0,0:0:0:0:
290,302,85899,2,0,B|275:318|256:323|256:323|237:318|222:302,1,80.9999975280763,8|4,0:0|0:0,0:0:0:0:
256,192,86274,1,12,0:0:0:0:
222,82,86461,1,4,0:0:0:0:
222,82,86555,1,0,0:0:0:0:
222,82,86649,2,0,B|256:60|256:60|290:82,1,80.9999975280763,8|4,0:0|0:0,0:0:0:0:
408,360,87024,6,0,B|403:340|388:330|388:330|413:290|388:250,1,121.499996292114,12|4,0:0|0:0,0:0:0:0:
352,192,87399,2,0,B|376:192|388:207|388:207|400:192|424:192,1,80.9999975280763,8|4,0:0|0:0,0:0:0:0:
496,116,87774,1,12,0:0:0:0:
424,40,87961,1,4,0:0:0:0:
424,40,88055,1,0,0:0:0:0:
424,40,88149,2,0,B|400:40|388:25|388:25|376:40|352:40,1,80.9999975280763,8|4,0:0|0:0,0:0:0:0:
104,360,88524,38,0,B|109:340|124:330|124:330|99:290|124:250,1,121.499996292114,12|4,0:0|0:0,0:0:0:0:
160,192,88899,2,0,B|136:192|124:207|124:207|112:192|88:192,1,80.9999975280763,8|4,0:0|0:0,0:0:0:0:
16,116,89274,1,12,0:0:0:0:
88,40,89461,1,4,0:0:0:0:
88,40,89555,1,0,0:0:0:0:
88,40,89649,2,0,B|112:40|124:25|124:25|136:40|160:40,1,80.9999975280763,8|4,0:0|0:0,0:0:0:0:
352,192,90024,6,0,P|408:224|464:192,1,135,12|8,0:0|0:0,0:0:0:0:
448,124,90399,2,0,P|408:106|368:124,1,90,12|8,0:0|0:0,0:0:0:0:
160,192,90774,6,0,P|104:224|48:192,1,135,12|8,0:0|0:0,0:0:0:0:
64,124,91149,2,0,P|104:106|144:124,1,90,12|8,0:0|0:0,0:0:0:0:
352,324,91524,38,0,P|408:356|464:324,1,135,12|8,0:0|0:0,0:0:0:0:
448,256,91899,2,0,P|408:238|368:256,1,90,12|8,0:0|0:0,0:0:0:0:
160,324,92274,6,0,P|104:356|48:324,1,135,12|8,0:0|0:0,0:0:0:0:
64,256,92649,2,0,P|104:238|144:256,1,90,12|8,0:0|0:0,0:0:0:0:
352,324,93024,5,4,0:0:0:0:
371,300,93117,1,4,0:0:0:0:
383,273,93211,1,4,0:0:0:0:
387,243,93305,1,4,0:0:0:0:
383,214,93399,37,4,0:0:0:0:
371,186,93492,1,4,0:0:0:0:
352,163,93586,1,4,0:0:0:0:
333,139,93680,1,4,0:0:0:0:
321,112,93774,5,4,0:0:0:0:
317,82,93867,1,4,0:0:0:0:
321,53,93961,1,4,0:0:0:0:
333,25,94055,1,4,0:0:0:0:
352,2,94149,6,0,L|309:12,1,45,4|4,0:0|0:0,0:0:0:0:
421,82,94336,2,0,L|465:92,1,45,4|4,0:0|0:0,0:0:0:0:
352,163,94524,37,4,0:0:0:0:
151,361,95086,6,0,L|160:382,3,22.5,4|4|4|4,0:0|0:0|0:0|0:0,0:0:0:0:
160,382,95274,5,4,0:0:0:0:
178,361,95367,1,4,0:0:0:0:
184,334,95461,1,4,0:0:0:0:
178,307,95555,1,4,0:0:0:0:
159,286,95649,2,2,P|145:244|159:202,1,90,8|2,1:2|0:0,0:1:0:0:
353,98,96024,6,2,P|380:158|353:218,1,135,4|0,0:0|0:0,0:1:0:0:
309,278,96399,2,2,P|336:218|309:158,1,135,2|0,0:1|0:0,0:1:0:0:
266,99,96774,1,2,0:1:0:0:
448,192,96961,1,2,0:1:0:0:
201,159,97149,5,4,0:0:0:0:
181,132,97242,1,2,0:0:0:0:
174,99,97336,1,2,0:1:0:0:
180,66,97430,1,2,0:1:0:0:
200,39,97524,1,2,0:1:0:0:
311,225,97711,53,2,0:1:0:0:
331,252,97804,1,2,0:1:0:0:
338,285,97898,1,2,0:0:0:0:
332,318,97992,1,2,0:0:0:0:
312,345,98086,1,2,0:1:0:0:
64,192,98274,5,8,1:2:0:0:
246,285,98461,1,2,1:0:0:0:
4,124,98649,2,2,B|59:124|59:124|67:128|67:128|67:120|67:120|75:124|75:124|130:124,1,135,8|0,1:2|0:0,0:1:0:0:
176,176,99024,54,0,B|144:132|168:80|168:80|183:50,1,135,4|0,1:0|0:0,0:0:0:0:
236,0,99399,2,2,B|268:44|244:96|244:96|229:126,1,135,2|0,0:1|0:0,0:1:0:0:
283,176,99774,6,2,L|296:157,6,22.5,8|0|2|2|2|2|2,0:0|0:0|0:1|0:1|0:1|0:1|0:1,0:1:0:0:
230,225,100149,53,4,0:0:0:0:
242,245,100242,1,2,0:0:0:0:
251,260,100336,1,2,0:1:0:0:
262,277,100430,1,2,0:1:0:0:
308,304,100523,5,4,0:0:0:0:
320,324,100617,1,2,0:0:0:0:
329,339,100711,1,2,0:1:0:0:
340,356,100805,1,2,0:1:0:0:
386,383,100899,53,10,1:2:0:0:
456,240,101086,2,2,P|470:198|456:156,1,90,4|2,0:0|0:1,0:1:0:0:
386,1,101461,1,4,0:0:0:0:
386,1,101555,1,4,0:0:0:0:
386,1,101649,2,0,P|372:42|386:84,1,90,4|2,0:0|0:1,0:0:0:0:
475,43,102024,6,2,L|291:43,1,180,4|4,0:0|0:0,0:0:0:0:
222,113,102586,2,0,L|206:97,3,22.5,4|4|4|4,0:0|0:0|0:0|0:0,0:0:0:0:
262,169,102774,2,2,B|222:149|222:149|182:169,1,90,8|2,1:2|0:0,0:1:0:0:
111,239,103149,1,2,0:3:0:0:
41,308,103336,54,2,B|201:388,1,180,4|2,0:0|0:0,0:1:0:0:
256,304,103899,1,8,1:2:0:0:
310,388,104086,2,0,B|471:308,1,180,4|4,0:0|0:0,0:0:0:0:
471,308,104555,1,4,0:0:0:0:
471,308,104649,1,8,1:2:0:0:
401,239,104836,1,8,1:2:0:0:
401,239,105024,6,2,B|346:239|346:239|338:235|338:235|338:243|338:243|330:239|330:239|275:239,1,135,4|0,1:0|0:0,0:1:0:0:
224,192,105399,2,2,B|279:192|279:192|287:188|287:188|287:196|287:196|295:192|295:192|350:192,1,135,8|0,1:2|0:0,0:0:0:0:
401,145,105774,1,4,0:0:0:0:
331,75,105961,2,0,P|288:64|245:75,1,90,4|2,0:0|0:0,0:0:0:0:
164,132,106336,54,2,B|146:172|100:192|100:192|146:212|164:252,1,180,4|8,0:0|1:2,0:1:0:0:
262,232,106899,2,2,P|280:192|262:152,1,90,10|6,1:2|0:1,0:1:0:0:
262,152,107180,1,4,0:0:0:0:
262,152,107274,1,8,1:2:0:0:
61,251,107461,6,0,L|95:258,1,33.7500012874604,2|2,0:3|0:3,0:0:0:0:
51,242,107649,2,0,L|85:249,1,33.7500012874604,2|2,0:3|0:3,0:0:0:0:
41,233,107836,2,0,L|75:240,1,33.7500012874604,2|2,0:3|0:3,0:0:0:0:
31,224,108024,54,2,L|163:252,1,135,4|0,1:0|0:0,0:1:0:0:
215,192,108399,2,2,P|189:252|215:312,1,135,4|0,0:0|0:0,0:1:0:0:
272,369,108774,1,4,0:0:0:0:
386,254,108961,2,2,P|393:233|386:212,1,45,2|2,0:1|0:0,0:1:0:0:
327,153,109149,2,2,P|319:131|326:110,1,45,4|2,0:0|0:1,0:1:0:0:
384,53,109336,5,2,0:0:0:0:
358,62,109429,1,2,0:0:0:0:
333,71,109523,1,2,0:0:0:0:
307,80,109617,1,0,0:0:0:0:
256,52,109711,53,2,0:0:0:0:
230,61,109804,1,2,0:0:0:0:
205,70,109898,1,2,0:0:0:0:
179,79,109992,1,0,0:0:0:0:
128,51,110086,5,2,0:0:0:0:
102,60,110179,1,2,0:0:0:0:
77,69,110273,1,8,1:2:0:0:
180,196,110461,1,4,0:0:0:0:
9,109,110649,2,2,B|-11:69|-11:69|9:29,1,90,8|4,1:2|0:0,0:1:0:0:
248,152,111024,54,2,B|280:156|299:192|299:192|280:228|248:232,1,135,4|0,0:0|0:0,0:1:0:0:
190,289,111399,5,2,0:0:0:0:
211,283,111492,1,2,0:0:0:0:
234,280,111586,1,2,0:1:0:0:
256,283,111680,1,2,0:0:0:0:
278,289,111774,53,8,1:2:0:0:
299,295,111867,1,2,0:0:0:0:
322,297,111961,1,2,0:1:0:0:
344,294,112055,1,2,0:0:0:0:
366,288,112149,6,0,L|354:331,1,45,4|2,0:0|0:1,0:0:0:0:
444,224,112336,2,0,L|455:267,1,45,2|2,0:1|0:0,0:0:0:0:
366,160,112524,54,0,L|354:203,1,45,2|2,0:1|0:0,0:0:0:0:
444,96,112711,2,0,L|455:139,1,45,2|2,0:1|0:0,0:0:0:0:
366,32,112899,5,8,1:2:0:0:
444,224,113086,1,4,0:0:0:0:
366,160,113274,1,2,0:0:0:0:
444,352,113461,1,2,0:0:0:0:
366,288,113649,2,2,B|326:268|326:268|286:288,1,90,8|2,1:2|0:0,0:1:0:0:
55,218,114024,54,2,B|135:259|135:259|215:218,1,180,4|4,0:0|0:0,0:1:0:0:
135,158,114586,2,0,L|115:146,3,22.5,4|4|4|4,0:0|0:0|0:0|0:0,0:0:0:0:
135,158,114774,2,2,P|119:117|135:76,1,90,4|4,1:0|0:0,0:1:0:0:
256,117,115149,1,2,0:0:0:0:
377,76,115336,6,2,L|504:202,1,180,4|2,0:0|0:0,0:1:0:0:
434,273,115899,1,8,1:2:0:0:
364,203,116086,2,2,B|324:224|280:200|280:200|276:208|276:208|232:188|195:206,1,180,4|4,0:0|0:0,0:1:0:0:
186,215,116555,1,4,0:0:0:0:
176,224,116649,2,0,L|199:137,1,90,8|4,1:2|0:0,0:0:0:0:
129,50,117024,54,2,L|176:224,1,180,4|8,0:0|1:2,0:1:0:0:
106,293,117586,1,2,0:0:0:0:
176,363,117774,1,8,1:2:0:0:
245,293,117961,2,2,P|285:275|325:293,1,90,4|4,0:0|1:0,0:1:0:0:
385,373,118336,6,2,P|349:293|385:213,1,180,4|4,0:0|0:0,0:1:0:0:
384,213,118805,1,4,0:0:0:0:
384,213,118899,1,4,0:0:0:0:
455,143,119086,1,4,0:0:0:0:
455,143,119180,1,4,0:0:0:0:
455,143,119274,54,2,P|463:113|455:83,1,63,8|0,1:2|0:0,0:0:0:0:
455,143,120024,22,2,P|428:203|455:263,1,135.000005149842,4|0,0:0|0:0,0:0:0:0:
372,324,120586,1,2,0:3:0:0:
290,263,120774,2,0,B|242:310,1,67.5000025749208,10|2,0:0|0:3,0:0:0:0:
121,285,121149,2,0,B|169:238,1,67.5000025749208,2|4,0:0|0:0,0:0:0:0:
241,165,121524,6,2,B|287:139|335:159|339:163|343:167|391:187|438:165,1,202.500007724762,6|2,0:0|0:3,0:0:0:0:
509,93,122274,1,8,0:0:0:0:
437,21,122461,1,4,0:0:0:0:
417,41,122554,1,2,0:0:0:0:
404,66,122648,1,4,0:0:0:0:
400,93,122742,1,2,0:0:0:0:
404,121,122836,1,6,0:0:0:0:
417,146,122929,1,0,0:0:0:0:
437,165,123023,5,6,0:0:0:0:
365,236,123211,1,0,0:0:0:0:
365,236,123305,1,0,0:0:0:0:
365,236,123398,1,2,0:0:0:0:
436,307,123586,1,2,0:3:0:0:
364,236,123774,2,0,B|328:236|328:236|305:258,1,67.5000025749208,10|2,0:0|0:3,0:0:0:0:
148,236,124149,2,0,B|184:236|184:236|207:258,1,67.5000025749208,2|4,0:0|0:0,0:0:0:0:
256,136,124524,38,2,B|256:113|256:113|253:105|253:105|259:105|259:105|256:97|256:97|256:75,1,67.5000025749208,6|0,0:0|0:0,0:0:0:0:
256,248,124899,1,2,0:0:0:0:
256,248,125086,2,2,B|256:271|256:271|253:279|253:279|259:279|259:279|256:287|256:287|256:308,1,67.5000025749208,6|8,0:0|0:0,0:0:0:0:
256,136,125461,1,2,0:3:0:0:
256,136,125555,1,2,0:3:0:0:
256,136,125649,6,0,L|256:96,1,33.7500012874604,2|0,0:0|0:0,0:0:0:0:
256,248,125836,2,0,L|256:296,1,33.7500012874604,2|0,0:0|0:0,0:0:0:0:
224,364,126024,6,2,B|256:375|256:375|288:364,1,67.5000025749208,6|0,0:0|0:0,0:0:0:0:
164,284,126399,2,2,B|132:273|132:273|100:284,1,67.5000025749208,2|2,0:0|0:3,0:0:0:0:
56,192,126774,1,10,0:0:0:0:
100,100,126961,1,2,0:3:0:0:
32,192,127149,1,2,0:0:0:0:
100,283,127336,1,2,0:0:0:0:
256,192,127524,38,2,B|304:164|352:192|352:192|400:164|448:192,1,202.500007724762,4|2,0:0|0:3,0:0:0:0:
352,116,128274,1,8,0:0:0:0:
256,192,128461,2,0,L|276:218,1,33.7500012874604,4|2,0:0|0:0,0:0:0:0:
220,112,128649,2,0,L|199:85,1,33.7500012874604,4|2,0:0|0:0,0:0:0:0:
286,60,128836,6,2,L|256:192,1,135.000005149842,6|2,0:0|0:0,0:0:0:0:
183,264,129399,1,2,0:0:0:0:
256,336,129586,1,4,0:0:0:0:
329,264,129774,2,0,P|360:252|391:264,1,67.5000025749208,10|2,0:0|0:0,0:0:0:0:
256,191,130149,1,0,0:0:0:0:
183,264,130336,2,0,P|152:252|121:264,1,67.5000025749208,6|2,0:0|0:0,0:0:0:0:
224,124,130711,2,0,B|256:113|256:113|288:124,1,67.5000025749208,10|2,0:0|0:0,0:0:0:0:
360,192,131086,1,4,0:0:0:0:
360,192,131180,1,4,0:0:0:0:
360,192,131274,5,8,0:0:0:0:
152,192,131461,1,8,0:0:0:0:
