osu file format v14

[General]
AudioFilename: M2U - Velocity.mp3
AudioLeadIn: 0
PreviewTime: 34500
Countdown: 0
SampleSet: Soft
StackLeniency: 0.5
Mode: 0
LetterboxInBreaks: 0
EpilepsyWarning: 1
WidescreenStoryboard: 1

[Editor]
Bookmarks: 24,60024,72024,131461
DistanceSpacing: 1
BeatDivisor: 8
GridSize: 4
TimelineZoom: 1

[Metadata]
Title:Velocity
TitleUnicode:Velocity
Artist:M2U
ArtistUnicode:M2U
Creator:Gero
Version:Hard
Source:
Tags:MMC MMC2 Modhelp Mapping Contest Yabai FutureBass Irreversible
BeatmapID:1257167
BeatmapSetID:593883

[Difficulty]
HPDrainRate:6
CircleSize:4
OverallDifficulty:6
ApproachRate:7.5
SliderMultiplier:1.6
SliderTickRate:2

[Events]
//Background and Video events
0,0,"BG.jpg",0,0
//Break Periods
2,60224,71199
//Storyboard Layer 0 (Background)
//Storyboard Layer 1 (Fail)
//Storyboard Layer 2 (Pass)
//Storyboard Layer 3 (Foreground)
//Storyboard Sound Samples

[TimingPoints]
24,375,4,2,1,70,1,0
24,-142.857142857143,4,2,1,70,0,0
12024,-125,4,2,1,70,0,0
24024,-111.111111111111,4,2,1,70,0,0
30024,-100,4,2,1,70,0,0
34524,-100,4,2,2,70,0,0
36024,-100,4,2,2,70,0,1
37195,-100,4,1,2,70,0,1
37289,-100,4,2,2,70,0,1
39305,-100,4,2,2,5,0,1
39399,-100,4,2,2,70,0,1
39680,-100,4,2,2,5,0,1
39774,-100,4,2,2,70,0,1
45305,-100,4,2,2,5,0,1
45399,-100,4,2,2,70,0,1
45680,-100,4,2,2,5,0,1
45774,-100,4,2,2,70,0,1
47461,-100,4,2,2,70,0,0
48024,-100,4,2,2,70,0,1
48305,-100,4,2,2,5,0,1
48399,-100,4,2,2,70,0,1
48680,-100,4,2,2,5,0,1
48774,-100,4,2,2,70,0,1
49149,-100,4,2,2,70,0,1
59274,-133.333333333333,4,2,2,70,0,0
60024,-142.857142857143,4,2,1,40,0,0
72024,-125,4,2,1,50,0,0
84024,-111.111111111111,4,2,1,70,0,0
90024,-100,4,2,1,70,0,0
96024,-100,4,2,2,70,0,1
96305,-100,4,2,2,5,0,1
96399,-100,4,2,2,70,0,1
96680,-100,4,2,2,5,0,1
96774,-100,4,2,2,70,0,1
99305,-100,4,2,2,5,0,1
99399,-100,4,2,2,70,0,1
99680,-100,4,2,2,5,0,1
99774,-100,4,2,2,70,0,1
105305,-100,4,2,2,5,0,1
105399,-100,4,2,2,70,0,1
105680,-100,4,2,2,5,0,1
105774,-100,4,2,2,70,0,1
107274,-100,4,2,2,70,0,0
107461,-100,4,2,2,70,0,0
108024,-100,4,2,2,70,0,1
108305,-100,4,2,2,5,0,1
108399,-100,4,2,2,70,0,1
108680,-100,4,2,2,5,0,1
108774,-100,4,2,2,70,0,1
119274,-133.333333333333,4,2,2,70,0,0
120024,-133.333333333333,4,2,1,70,0,0

[Colours]
Combo1 : 163,163,163
Combo2 : 117,226,232
Combo3 : 0,117,234
Combo4 : 190,146,239
Combo5 : 243,24,30
SliderBorder : 52,180,167
SliderTrackOverride : 193,193,193

[HitObjects]
332,256,24,6,2,P|256:287|180:256,1,167.999994873047,4|2,0:0|0:3,0:0:0:0:
232,192,774,2,0,B|256:206|256:206|280:192,1,55.9999982910157,10|2,0:0|0:3,0:0:0:0:
332,128,1149,1,2,0:0:0:0:
384,192,1336,1,2,0:0:0:0:
436,128,1524,6,2,B|472:151|472:151|472:233|472:233|436:256,1,167.999994873047,4|2,0:0|0:3,0:0:0:0:
488,320,2274,1,10,0:0:0:0:
436,384,2461,1,2,0:3:0:0:
384,320,2649,2,0,B|356:320|356:320|336:339,1,55.9999982910157,2|0,0:0|0:0,0:0:0:0:
276,280,3024,6,2,L|196:359,1,111.999996582031,4|2,0:0|0:0,0:0:0:0:
137,299,3586,1,2,0:3:0:0:
196,239,3774,1,10,0:0:0:0:
137,299,3961,1,2,0:3:0:0:
78,239,4149,2,0,P|69:213|78:187,1,55.9999982910157,2|2,0:0|0:0,0:0:0:0:
138,127,4524,38,2,B|110:127|82:103|78:77|78:77|74:103|46:127|18:127,2,167.999994873047,6|6|2,0:0|0:0|0:0,0:0:0:0:
78,186,5836,1,2,0:3:0:0:
138,127,6024,6,2,L|177:87,1,55.9999982910157,6|0,0:0|0:0,0:0:0:0:
250,127,6399,2,2,L|289:87,1,55.9999982910157,0|2,0:0|0:3,0:0:0:0:
362,127,6774,1,10,0:0:0:0:
435,88,6961,1,2,0:3:0:0:
362,49,7149,1,2,0:0:0:0:
289,87,7336,1,2,0:0:0:0:
362,127,7524,6,2,B|415:192|415:192|362:257,1,167.999994873047,4|2,0:0|0:3,0:0:0:0:
435,296,8274,2,0,B|421:320|421:320|435:344,2,55.9999982910157,10|2|2,0:0|0:3|0:0,0:0:0:0:
508,257,8836,1,2,0:0:0:0:
435,296,9024,38,2,L|323:296,1,111.999996582031,4|2,0:0|0:0,0:0:0:0:
256,243,9586,1,2,0:3:0:0:
189,296,9774,1,10,0:0:0:0:
256,243,9961,2,0,B|256:200|256:200|252:192|252:192|260:192|260:192|256:184|256:184|256:141,1,111.999996582031,2|2,0:3|0:0,0:0:0:0:
204,72,10524,6,2,P|256:54|308:72,1,111.999996582031,4|2,0:0|0:0,0:0:0:0:
256,141,11086,2,2,P|204:159|152:141,1,111.999996582031,6|2,0:0|0:3,0:0:0:0:
204,72,11649,1,4,0:0:0:0:
152,141,11836,1,2,0:3:0:0:
100,72,12024,6,2,L|9:162,2,128,6|2|10,0:0|0:0|0:0,0:0:0:0:
152,141,12961,2,0,L|61:231,1,128,2|6,0:3|0:0,0:0:0:0:
112,300,13524,2,0,P|142:310|172:300,2,64,2|2|2,0:0|0:0|0:0,0:0:0:0:
60,231,14086,1,2,0:3:0:0:
8,300,14274,2,0,L|30:322,7,32,8|2|4|2|4|0|0|0,0:0|0:0|0:0|0:0|0:0|0:0|0:0|0:0,0:0:0:0:
62,354,15024,37,6,0:0:0:0:
132,300,15211,1,2,0:0:0:0:
202,354,15399,2,2,B|233:354|233:354|256:377,1,64,2|2,0:0|0:3,0:0:0:0:
319,313,15774,2,2,B|342:336|342:336|373:336,1,64,10|2,0:0|0:3,0:0:0:0:
436,272,16149,1,2,0:0:0:0:
373,208,16336,6,2,B|329:164|329:164|329:98,1,128,6|2,0:0|0:0,0:0:0:0:
256,44,16899,1,2,0:0:0:0:
183,98,17086,2,2,B|183:164|183:164|139:208,1,128,6|2,0:0|0:0,0:0:0:0:
76,272,17649,1,2,0:0:0:0:
76,272,17742,1,4,0:0:0:0:
76,272,17836,1,0,0:0:0:0:
138,336,18024,6,2,B|76:351|76:351|14:336,2,128,6|2|10,0:0|0:0|0:0,0:0:0:0:
200,272,18961,2,0,P|256:245|312:272,1,128,2|2,0:0|0:0,0:0:0:0:
374,336,19524,1,4,0:0:0:0:
312,272,19711,1,2,0:0:0:0:
374,208,19899,2,0,L|419:162,1,64,2|2,0:0|0:0,0:0:0:0:
355,99,20274,2,0,L|377:76,7,32,8|2|6|2|4|0|0|0,0:0|0:0|0:0|0:0|0:0|0:0|0:0|0:0,0:0:0:0:
409,44,21024,37,6,0:0:0:0:
472,107,21211,1,2,0:0:0:0:
417,35,21399,1,2,0:0:0:0:
480,98,21586,1,2,0:0:0:0:
417,161,21774,2,0,P|410:192|417:223,2,64,10|2|2,0:0|0:0|0:0,0:0:0:0:
500,192,22336,6,2,L|443:306,1,128,6|2,0:0|0:0,0:0:0:0:
379,242,22899,1,8,0:0:0:0:
379,242,23086,2,2,L|322:356,1,128,6|2,0:0|0:0,0:0:0:0:
256,296,23649,1,2,0:0:0:0:
256,296,23742,1,4,0:0:0:0:
256,296,23836,1,0,0:0:0:0:
190,235,24024,6,0,B|170:223|159:192|159:192|170:161|190:149,1,107.999996704102,12|4,0:0|0:0,0:0:0:0:
190,149,24399,2,0,L|139:98,1,71.9999978027344,8|4,0:0|0:0,0:0:0:0:
256,98,24774,2,0,L|256:26,1,71.9999978027344,12|4,0:0|0:0,0:0:0:0:
322,149,25149,2,0,L|347:123,2,35.9999989013672,8|0|4,0:0|0:0|0:0,0:0:0:0:
322,149,25524,38,0,B|342:161|353:192|353:192|342:223|322:235,1,107.999996704102,12|4,0:0|0:0,0:0:0:0:
322,235,25899,2,0,L|372:285,1,71.9999978027344,8|4,0:0|0:0,0:0:0:0:
256,286,26274,2,0,L|256:358,1,71.9999978027344,12|4,0:0|0:0,0:0:0:0:
190,235,26649,2,0,L|164:260,2,35.9999989013672,8|0|4,0:0|0:0|0:0,0:0:0:0:
190,235,27024,6,0,B|145:235|145:235|137:239|137:239|129:243|129:243|84:243,1,107.999996704102,12|4,0:0|0:0,0:0:0:0:
84,243,27399,2,0,B|57:269|57:269|22:269,1,71.9999978027344,8|4,0:0|0:0,0:0:0:0:
22,114,27774,2,0,B|57:114|57:114|84:141,1,71.9999978027344,12|4,0:0|0:0,0:0:0:0:
190,192,28149,2,0,L|154:192,2,35.9999989013672,8|0|4,0:0|0:0|0:0,0:0:0:0:
322,235,28524,6,0,B|367:235|367:235|375:239|375:239|383:243|383:243|428:243,1,107.999996704102,12|4,0:0|0:0,0:0:0:0:
428,243,28899,2,0,B|454:269|454:269|489:269,1,71.9999978027344,8|4,0:0|0:0,0:0:0:0:
489,114,29274,2,0,B|454:114|454:114|428:141,1,71.9999978027344,12|4,0:0|0:0,0:0:0:0:
322,192,29649,2,0,L|358:192,2,35.9999989013672,8|0|4,0:0|0:0|0:0,0:0:0:0:
322,192,30024,38,0,P|341:136|322:80,2,120,12|8|8,0:0|0:0|0:0,0:0:0:0:
256,136,30774,2,0,L|256:16,2,120,12|8|8,0:0|0:0|0:0,0:0:0:0:
190,192,31524,2,0,P|171:136|190:80,2,120,12|8|8,0:0|0:0|0:0,0:0:0:0:
256,248,32274,2,0,L|256:368,2,120,12|8|8,0:0|0:0|0:0,0:0:0:0:
256,192,33024,12,4,34524,0:0:0:0:
256,104,35086,5,4,0:0:0:0:
256,104,35180,1,4,0:0:0:0:
256,104,35274,2,0,L|256:44,3,40,4|4|4|4,0:0|0:0|0:0|0:0,0:0:0:0:
256,24,35649,1,8,1:2:0:0:
204,176,36024,22,0,B|256:206|256:206|308:176,2,120,4|2|4,0:0|0:1|0:0,0:0:0:0:
220,268,36774,2,0,B|256:285|256:285|292:268,1,80,2|2,0:1|0:1,0:0:0:0:
292,358,37149,2,2,B|310:377|310:377|202:377|202:377|220:358,1,160,4|0,0:0|0:0,0:1:0:0:
256,286,37711,2,0,L|256:238,5,40,2|2|0|0|2|2,0:0|0:0|0:0|0:0|0:0|0:0,0:0:0:0:
220,222,38274,2,2,P|256:165|292:222,1,160,8|8,0:0|1:2,0:1:0:0:
357,57,39024,6,2,B|313:13|313:13|256:13,1,120,4|0,1:0|0:0,0:1:0:0:
256,13,39399,2,2,B|199:13|199:13|154:57,1,120,2|0,0:1|0:0,0:1:0:0:
155,57,39774,2,2,L|98:0,1,80,8|2,0:0|0:1,0:1:0:0:
36,62,40149,54,0,L|64:90,3,40,4|2|2|2,0:0|0:1|0:1|0:1,0:0:0:0:
2,152,40617,2,0,L|30:180,3,40,2|2|2|8,0:1|0:1|0:1|1:2,0:0:0:0:
109,218,41086,1,4,0:0:0:0:
188,180,41274,2,0,P|199:218|188:256,1,80,2|4,0:0|0:0,0:0:0:0:
188,255,41555,1,4,0:0:0:0:
188,255,41649,1,4,0:0:0:0:
256,312,41836,1,2,0:1:0:0:
324,255,42024,6,2,B|395:255|395:255|403:259|403:259|411:263|411:263|483:263,1,160,4|4,0:0|0:0,0:1:0:0:
432,192,42586,1,4,0:0:0:0:
432,192,42680,1,4,0:0:0:0:
432,192,42774,2,0,P|421:154|432:116,1,80,4|2,1:0|0:1,0:0:0:0:
369,53,43149,1,2,0:0:0:0:
307,117,43336,54,2,B|272:136|256:176|256:176|240:136|205:117,1,160,4|2,0:0|0:0,0:1:0:0:
256,44,43899,1,8,1:2:0:0:
307,117,44086,2,2,L|256:269,1,160,4|4,0:0|0:0,0:1:0:0:
256,268,44555,1,4,0:0:0:0:
256,268,44649,1,4,0:0:0:0:
318,330,44836,1,4,0:0:0:0:
380,268,45024,6,2,B|408:261|408:261|408:230|408:230|408:199|408:199|380:192,1,120,2|0,0:1|0:0,0:1:0:0:
380,192,45399,2,2,B|352:185|352:185|352:154|352:154|352:123|352:123|380:116,1,120,8|0,0:0|0:0,0:1:0:0:
380,116,45774,2,0,B|397:80|397:80|380:44,1,80,4|4,0:0|0:0,0:0:0:0:
300,80,46149,1,4,1:0:0:0:
300,80,46336,54,2,B|252:80|252:80|188:80|162:135,1,160,4|8,0:0|1:2,0:1:0:0:
92,192,46899,1,2,0:1:0:0:
162,248,47086,1,4,0:0:0:0:
162,248,47180,1,4,0:0:0:0:
162,248,47274,1,4,0:0:0:0:
92,192,47461,2,0,L|52:192,4,40,2|2|2|2|2,0:3|0:3|0:3|0:3|0:3,0:0:0:0:
162,136,48024,6,2,B|184:136|184:136|235:136|256:192,1,120,6|0,0:0|0:0,0:1:0:0:
256,192,48399,2,2,B|235:248|184:248|184:248|162:248,1,120,6|0,0:0|0:0,0:1:0:0:
162,248,48774,2,2,L|218:304,1,80,6|2,0:0|0:0,0:1:0:0:
151,361,49149,2,2,L|94:304,1,80,4|0,0:0|0:0,0:1:0:0:
26,248,49524,53,4,0:0:0:0:
26,248,49617,1,2,0:1:0:0:
26,248,49711,1,2,0:1:0:0:
94,192,49899,1,4,0:0:0:0:
94,192,49992,1,2,0:1:0:0:
94,192,50086,1,2,0:1:0:0:
26,136,50274,2,0,P|13:99|26:62,2,80,8|4|8,1:2|0:0|1:2,0:0:0:0:
94,192,50836,1,4,0:0:0:0:
26,248,51024,6,2,L|139:361,1,160,4|4,0:0|0:0,0:1:0:0:
139,361,51492,1,2,0:1:0:0:
139,361,51586,1,0,0:0:0:0:
201,298,51774,1,12,1:2:0:0:
201,298,51867,1,2,0:1:0:0:
201,298,51961,1,2,0:1:0:0:
263,235,52149,2,2,P|301:224|339:235,1,80,4|2,0:0|0:1,0:1:0:0:
416,192,52524,54,0,B|435:198|435:198|454:192,2,40,4|2|2,0:0|0:0|0:1,0:0:0:0:
338,150,52899,1,8,1:2:0:0:
416,108,53086,1,4,0:0:0:0:
338,66,53274,2,0,L|258:66,1,80,2|2,0:1|0:0,0:0:0:0:
416,108,53649,2,0,L|496:108,1,80,8|2,1:2|0:0,0:0:0:0:
338,150,54024,6,2,B|258:150|258:150|202:206,1,160,4|4,0:0|0:0,0:1:0:0:
256,276,54586,1,4,0:0:0:0:
256,276,54680,1,4,0:0:0:0:
256,276,54774,1,4,1:0:0:0:
310,346,54961,1,4,0:0:0:0:
256,276,55149,1,2,0:0:0:0:
202,346,55336,54,2,P|169:276|202:206,1,160,4|2,0:0|0:0,0:1:0:0:
256,136,55899,1,8,1:2:0:0:
310,206,56086,2,2,P|343:276|310:346,1,160,4|4,0:0|0:0,0:1:0:0:
310,346,56555,1,4,0:0:0:0:
310,346,56649,1,12,1:2:0:0:
256,276,56836,1,4,0:0:0:0:
202,346,57024,6,2,L|88:233,1,160,4|8,1:0|1:2,0:1:0:0:
12,192,57586,1,2,0:0:0:0:
88,151,57774,2,0,B|124:168|124:168|160:151,1,80,4|4,0:0|0:0,0:0:0:0:
222,88,58149,1,4,1:0:0:0:
222,88,58336,54,2,B|298:63|298:63|374:88,1,160,4|8,0:0|1:2,0:1:0:0:
373,87,58805,1,4,0:0:0:0:
373,87,58899,1,4,0:0:0:0:
436,25,59086,1,4,0:0:0:0:
436,25,59180,1,4,0:0:0:0:
436,25,59274,6,2,L|308:152,1,180.000006866455,4|0,1:0|0:0,0:0:0:0:
367,211,60024,5,4,0:0:0:0:
196,36,72024,6,2,B|256:14|256:14|316:36,2,128,6|2|10,0:0|0:0|0:0,0:0:0:0:
256,104,72961,2,0,B|320:104|320:104|365:149,1,128,2|6,0:3|0:0,0:0:0:0:
444,192,73524,2,0,L|508:192,2,64,2|2|2,0:0|0:0|0:0,0:0:0:0:
365,234,74086,1,2,0:3:0:0:
444,276,74274,2,0,B|446:292|446:292|444:308,7,32,12|2|4|2|4|0|0|0,0:0|0:0|0:0|0:0|0:0|0:0|0:0|0:0,0:0:0:0:
475,339,75024,5,4,0:0:0:0:
396,380,75211,1,2,0:0:0:0:
317,339,75399,2,2,B|272:384,1,64,2|2,0:0|0:3,0:0:0:0:
208,320,75774,2,2,B|162:365,1,64,10|2,0:0|0:3,0:0:0:0:
99,301,76149,1,2,0:0:0:0:
162,236,76336,38,2,B|195:211|195:167|195:167|195:119,1,128,6|2,0:0|0:0,0:0:0:0:
256,52,76899,1,2,0:0:0:0:
317,119,77086,2,2,B|317:167|317:167|317:211|350:236,1,128,6|2,0:0|0:0,0:0:0:0:
413,301,77649,1,2,0:0:0:0:
413,301,77742,1,4,0:0:0:0:
413,301,77836,1,0,0:0:0:0:
476,237,78024,6,0,B|476:182|476:182|472:174|472:174|468:166|468:166|468:110,2,128,6|2|10,0:0|0:0|0:0,0:0:0:0:
413,301,78961,2,0,P|357:328|301:301,1,128,2|2,0:0|0:0,0:0:0:0:
256,380,79524,1,6,0:0:0:0:
211,301,79711,1,2,0:0:0:0:
256,224,79899,2,0,L|301:178,1,64,2|2,0:0|0:0,0:0:0:0:
237,115,80274,2,0,L|215:92,7,32,8|2|6|2|4|0|0|0,0:0|0:0|0:0|0:0|0:0|0:0|0:0|0:0,0:0:0:0:
183,60,81024,5,6,0:0:0:0:
119,123,81211,1,2,0:0:0:0:
55,60,81399,1,2,0:0:0:0:
119,123,81586,1,2,0:0:0:0:
55,186,81774,2,0,B|47:217|47:217|55:248,2,64,10|2|2,0:0|0:0|0:0,0:0:0:0:
119,123,82336,38,2,P|177:119|182:59,1,128,6|2,0:0|0:0,0:0:0:0:
256,8,82899,1,8,0:0:0:0:
329,59,83086,2,2,P|334:118|393:123,1,128,6|2,0:0|0:0,0:0:0:0:
457,186,83649,1,2,0:0:0:0:
457,186,83742,1,4,0:0:0:0:
457,186,83836,1,0,0:0:0:0:
392,249,84024,6,0,B|356:249|356:249|323:249|296:285,1,107.999996704102,12|4,0:0|0:0,0:0:0:0:
297,285,84399,2,0,B|309:319|309:319|297:353,1,71.9999978027344,8|4,0:0|0:0,0:0:0:0:
215,353,84774,2,0,B|203:319|203:319|215:285,1,71.9999978027344,12|4,0:0|0:0,0:0:0:0:
256,210,85149,2,0,L|256:174,2,35.9999989013672,8|0|4,0:0|0:0|0:0,0:0:0:0:
215,285,85524,6,0,B|188:249|155:249|155:249|119:249,1,107.999996704102,12|4,0:0|0:0,0:0:0:0:
119,249,85899,2,0,B|102:265|102:265|99:273|99:273|94:268|94:268|91:276|91:276|75:292,1,71.9999978027344,8|4,0:0|0:0,0:0:0:0:
62,192,86274,2,0,B|39:192|39:192|31:187|31:187|31:196|31:196|23:192|23:192|0:192,1,71.9999978027344,12|4,0:0|0:0,0:0:0:0:
119,135,86649,2,0,L|107:101,2,35.9999989013672,8|0|4,0:0|0:0|0:0,0:0:0:0:
119,135,87024,38,0,B|155:135|155:135|188:135|215:99,1,107.999996704102,12|4,0:0|0:0,0:0:0:0:
215,99,87399,2,0,B|203:65|203:65|215:31,1,71.9999978027344,8|4,0:0|0:0,0:0:0:0:
297,31,87774,2,0,B|309:65|309:65|297:99,1,71.9999978027344,12|4,0:0|0:0,0:0:0:0:
256,174,88149,2,0,L|256:210,2,35.9999989013672,8|0|4,0:0|0:0|0:0,0:0:0:0:
297,99,88524,6,0,B|324:135|357:135|357:135|393:135,1,107.999996704102,12|4,0:0|0:0,0:0:0:0:
393,135,88899,2,0,B|410:119|410:119|413:111|413:111|418:116|418:116|421:108|421:108|437:92,1,71.9999978027344,8|4,0:0|0:0,0:0:0:0:
450,192,89274,2,0,B|473:192|473:192|481:197|481:197|481:188|481:188|489:192|489:192|512:192,1,71.9999978027344,12|4,0:0|0:0,0:0:0:0:
393,249,89649,2,0,L|405:283,2,35.9999989013672,8|0|4,0:0|0:0|0:0,0:0:0:0:
393,249,90024,6,0,L|352:361,2,120,12|8|8,0:0|0:0|0:0,0:0:0:0:
316,232,90774,2,0,B|269:232|269:232|261:236|261:236|261:228|261:228|253:232|253:232|206:232,2,120,12|8|8,0:0|0:0|0:0,0:0:0:0:
316,152,91524,2,0,B|269:152|269:152|261:148|261:148|261:156|261:156|253:152|253:152|206:152,2,120,12|8|8,0:0|0:0|0:0,0:0:0:0:
393,135,92274,2,0,L|352:22,2,120,12|8|8,0:0|0:0|0:0,0:0:0:0:
256,192,93024,12,4,94524,0:0:0:0:
256,104,95086,37,4,0:0:0:0:
256,104,95180,1,4,0:0:0:0:
256,104,95274,2,0,L|256:44,3,40,4|4|4|4,0:0|0:0|0:0|0:0,0:0:0:0:
256,24,95649,1,8,1:2:0:0:
204,176,96024,38,2,B|256:206|256:206|308:176,1,120,4|0,0:0|0:1,0:1:0:0:
308,176,96399,2,2,B|246:279,1,120,2|0,0:1|0:0,0:1:0:0:
246,279,96774,1,2,0:1:0:0:
308,341,96961,1,2,0:1:0:0:
370,278,97149,1,4,0:0:0:0:
370,278,97242,1,2,0:0:0:0:
370,278,97336,2,0,L|390:243,2,40,2|2|2,0:1|0:1|0:1,0:0:0:0:
432,341,97711,5,2,0:1:0:0:
432,341,97805,1,2,0:1:0:0:
432,341,97899,2,0,L|452:306,2,40,2|2|2,0:0|0:0|0:1,0:0:0:0:
370,278,98274,2,2,P|359:240|370:202,1,80,8|2,1:2|1:0,0:1:0:0:
432,63,98649,2,2,P|442:100|431:138,1,80,8|0,1:2|0:0,0:1:0:0:
352,101,99024,54,2,B|305:101|305:101|297:97|297:97|297:105|297:105|289:101|289:101|242:101,1,120,4|0,1:0|0:0,0:1:0:0:
242,101,99399,2,2,B|218:57|170:57|170:57|139:57,1,120,2|0,0:1|0:0,0:1:0:0:
139,57,99774,1,8,0:0:0:0:
77,119,99961,1,2,0:1:0:0:
139,181,100149,6,0,L|110:209,3,40,4|2|2|2,0:0|0:0|0:1|0:1,0:0:0:0:
79,240,100524,2,0,L|107:268,3,40,4|2|2|2,0:0|0:0|0:1|0:1,0:0:0:0:
138,299,100899,1,10,1:2:0:0:
200,361,101086,2,2,B|240:344|256:307|256:307|272:344|312:361,1,160,4|4,0:0|0:0,0:1:0:0:
374,299,101649,1,4,0:0:0:0:
435,361,101836,1,2,0:1:0:0:
374,299,102024,54,2,B|374:228|374:228|378:220|378:220|382:212|382:212|382:140,1,160,4|4,0:0|0:0,0:1:0:0:
344,61,102586,1,4,0:0:0:0:
344,61,102680,1,4,0:0:0:0:
344,61,102774,2,0,B|382:49|382:49|420:61,1,80,8|2,1:2|0:0,0:0:0:0:
382,140,103149,1,2,0:3:0:0:
342,219,103336,6,2,P|265:208|220:144,1,160,4|2,0:0|0:0,0:1:0:0:
256,61,103899,1,8,1:2:0:0:
291,144,104086,2,2,P|246:208|169:219,1,160,4|4,0:0|0:0,0:1:0:0:
169,219,104555,1,4,0:0:0:0:
169,219,104649,1,8,1:2:0:0:
106,281,104836,1,8,1:2:0:0:
170,343,105024,54,2,B|181:371|213:382|213:382|245:371|256:343,1,120,4|0,1:0|0:0,0:1:0:0:
256,343,105399,2,2,B|267:371|299:382|299:382|331:371|342:343,1,120,8|0,1:2|0:0,0:1:0:0:
341,343,105774,1,4,0:0:0:0:
406,281,105961,2,0,L|462:224,1,80,4|2,0:0|0:0,0:0:0:0:
409,154,106336,6,2,P|376:84|409:14,1,160,4|8,0:0|1:2,0:1:0:0:
409,13,106805,1,0,0:0:0:0:
409,13,106899,1,10,1:2:0:0:
479,76,107086,1,6,0:1:0:0:
475,80,107180,1,4,0:0:0:0:
471,84,107274,1,8,1:2:0:0:
409,154,107461,2,0,L|437:181,4,40,2|2|2|2|2,0:3|0:3|0:3|0:3|0:3,0:0:0:0:
354,83,108024,54,2,B|328:84|328:84|280:84|256:134,1,120,4|0,1:0|0:0,0:1:0:0:
256,134,108399,2,2,B|232:84|184:84|184:84|157:83,1,120,4|0,0:0|0:0,0:1:0:0:
157,83,108774,1,4,0:0:0:0:
103,154,108961,1,2,0:1:0:0:
103,154,109055,1,2,0:0:0:0:
103,154,109149,1,4,0:0:0:0:
165,225,109336,5,2,0:0:0:0:
165,225,109430,1,2,0:0:0:0:
165,225,109524,2,0,B|184:231|184:231|203:225,3,40,2|0|2|0,0:0|0:0|0:0|0:0,0:0:0:0:
237,253,109899,2,0,B|256:247|256:247|275:253,3,40,2|0|2|0,0:0|0:0|0:0|0:0,0:0:0:0:
309,281,110274,53,8,1:2:0:0:
371,343,110461,1,4,0:0:0:0:
433,281,110649,1,8,1:2:0:0:
371,219,110836,1,4,0:0:0:0:
371,219,111024,6,2,L|484:105,1,160,4|2,0:0|0:0,0:1:0:0:
484,105,111492,1,2,0:0:0:0:
484,105,111586,1,2,0:1:0:0:
421,43,111774,1,8,1:2:0:0:
421,43,111867,1,2,0:0:0:0:
421,43,111961,1,2,0:1:0:0:
358,105,112149,53,4,0:0:0:0:
358,105,112242,1,2,0:1:0:0:
358,105,112336,1,2,0:1:0:0:
421,167,112524,2,0,B|440:186|440:186|448:188|448:188|442:194|442:194|451:197|451:197|470:216,2,80,2|2|8,0:1|0:1|1:2,0:0:0:0:
358,105,113086,2,2,B|338:85|338:85|330:83|330:83|336:77|336:77|327:74|327:74|308:55,2,80,4|2|2,0:0|0:0|0:0,0:1:0:0:
295,167,113649,1,8,1:2:0:0:
358,105,113836,1,2,0:0:0:0:
295,167,114024,6,2,B|264:192|256:235|256:235|248:192|217:167,1,160,4|4,0:0|0:0,0:1:0:0:
154,105,114586,1,4,0:0:0:0:
154,105,114680,1,4,0:0:0:0:
154,105,114774,1,4,1:0:0:0:
91,167,114961,2,2,B|108:203|108:203|91:239,1,80,4|2,0:0|0:0,0:1:0:0:
23,295,115336,54,2,P|91:331|159:295,1,160,4|2,0:0|0:0,0:1:0:0:
256,328,115899,1,8,1:2:0:0:
353,295,116086,2,2,P|421:331|489:295,1,160,4|4,0:0|0:0,0:1:0:0:
489,295,116555,1,4,0:0:0:0:
489,295,116649,1,8,1:2:0:0:
421,239,116836,1,4,0:0:0:0:
488,183,117024,6,2,B|446:170|435:127|435:127|393:116|380:75,1,160,4|8,0:0|1:2,0:1:0:0:
317,12,117586,1,2,0:0:0:0:
256,74,117774,2,0,L|256:154,1,80,8|4,1:2|0:0,0:0:0:0:
195,12,118149,1,4,1:0:0:0:
131,75,118336,54,2,B|118:116|76:127|76:127|65:170|24:183,1,160,4|4,0:0|0:0,0:1:0:0:
19,187,118805,1,4,0:0:0:0:
15,191,118899,1,4,0:0:0:0:
99,231,119086,1,4,0:0:0:0:
95,235,119180,1,4,0:0:0:0:
91,239,119274,6,2,L|219:364,1,180.000006866455,8|0,1:2|0:0,0:0:0:0:
256,284,120024,6,2,P|336:249|416:284,1,180.000006866455,4|2,0:0|0:3,0:0:0:0:
364,356,120774,2,0,P|336:365|308:356,1,60.0000022888184,10|2,0:0|0:3,0:0:0:0:
256,284,121149,1,2,0:0:0:0:
219,364,121336,1,4,0:0:0:0:
256,284,121524,6,2,L|256:103,1,180.000006866455,6|2,0:0|0:3,0:0:0:0:
319,40,122274,2,0,B|334:38|334:38|349:40,3,30.0000011444092,8|0|4|0,0:0|0:0|0:0|0:0,0:0:0:0:
380,71,122649,2,0,B|395:73|395:73|410:71,3,30.0000011444092,4|2|6|0,0:0|0:0|0:0|0:0,0:0:0:0:
441,102,123024,6,2,L|356:186,1,120.000004577637,6|2,0:0|0:0,0:0:0:0:
419,250,123586,1,2,0:3:0:0:
355,313,123774,1,10,0:0:0:0:
427,258,123961,1,2,0:3:0:0:
363,321,124149,2,0,L|320:363,1,60.0000022888184,2|4,0:0|0:0,0:0:0:0:
256,300,124524,38,2,B|212:276|201:232|201:232|212:188|256:164,2,180.000006866455,6|6|2,0:0|0:0|0:0,0:0:0:0:
314,232,125836,1,2,0:0:0:0:
314,232,125930,1,0,0:0:0:0:
314,232,126024,6,2,L|406:140,1,120.000004577637,6|2,0:0|0:0,0:0:0:0:
462,83,126586,1,2,0:3:0:0:
398,18,126774,2,0,P|370:9|342:18,1,60.0000022888184,10|2,0:0|0:3,0:0:0:0:
277,83,127149,2,0,B|272:96|256:103|256:103|240:96|235:83,1,60.0000022888184,2|2,0:0|0:0,0:0:0:0:
170,18,127524,6,2,B|157:63|112:83|112:83|157:103|170:148,1,180.000006866455,4|2,0:0|0:3,0:0:0:0:
248,192,128274,1,8,0:0:0:0:
169,236,128461,2,0,L|133:236,3,30.0000011444092,4|2|4|2,0:0|0:0|0:0|0:0,0:0:0:0:
107,267,128836,38,2,L|192:351,1,120.000004577637,6|2,0:0|0:0,0:0:0:0:
256,288,129399,1,2,0:0:0:0:
319,351,129586,1,4,0:0:0:0:
382,288,129774,2,0,P|391:260|382:232,1,60.0000022888184,10|2,0:0|0:0,0:0:0:0:
464,192,130149,1,0,0:0:0:0:
381,152,130336,6,2,B|329:152|329:152|321:156|321:156|313:160|313:160|262:160,1,120.000004577637,6|10,0:0|0:0,0:0:0:0:
180,192,130899,1,2,0:0:0:0:
98,160,131086,1,4,0:0:0:0:
98,160,131180,1,4,0:0:0:0:
98,160,131274,1,8,0:0:0:0:
16,192,131461,1,8,0:0:0:0:
