osu file format v14

[General]
AudioFilename: M2U - The Queen(O2Jam OST).mp3
AudioLeadIn: 0
PreviewTime: 100152
Countdown: 0
SampleSet: Soft
StackLeniency: 0.7
Mode: 2
LetterboxInBreaks: 0
WidescreenStoryboard: 0

[Editor]
Bookmarks: 31492,79040
DistanceSpacing: 1.3
BeatDivisor: 4
GridSize: 8
TimelineZoom: 1.4

[Metadata]
Title:The Queen
TitleUnicode:The Queen
Artist:M2U
ArtistUnicode:M2U
Creator:WildOne94
Version:Platter Collab
Source:O2JAM U
Tags:RHYTHM ATTACK GATHERING 2013 Limited Album Withered_Lotus Razor_Sharp
BeatmapID:588651
BeatmapSetID:255039

[Difficulty]
HPDrainRate:5.5
CircleSize:3.5
OverallDifficulty:8
ApproachRate:8
SliderMultiplier:1.9
SliderTickRate:1

[Events]
//Background and Video events
0,0,"cartoon_the-most-beautiful-cg-girl-widescreen_18-1920x1200.jpg",0,0
//Break Periods
2,92472,97482
//Storyboard Layer 0 (Background)
//Storyboard Layer 1 (Fail)
//Storyboard Layer 2 (Pass)
//Storyboard Layer 3 (Foreground)
//Storyboard Sound Samples

[TimingPoints]
312,480,4,2,1,20,1,0
1272,-100,4,2,1,30,0,0
2232,-100,4,2,1,40,0,0
3192,-100,4,2,1,50,0,0
4152,-100,4,2,1,60,0,0
5112,-100,4,2,1,70,0,0
6072,-100,4,2,1,80,0,0
7032,-100,4,2,1,90,0,0
61752,-100,4,2,1,80,0,1
75672,-100,4,2,1,80,0,0
91632,-50,4,2,1,80,0,0
98232,-100,4,2,3,40,0,0
98712,-100,4,2,3,80,0,0
99552,-100,4,2,2,80,0,0
100152,-100,4,2,2,80,0,1
113592,-100,4,2,1,80,0,0
115032,-100,4,2,3,40,0,0
115632,-100,4,2,1,80,0,0
119352,-100,4,2,1,80,0,1
128952,-100,4,2,1,80,0,0
131592,-100,4,2,1,80,0,0
131832,-100,4,2,1,80,0,0
132792,-100,4,2,1,80,0,1
139272,-50,4,2,1,80,0,1
139512,-100,4,2,1,80,0,1
145752,-100,4,2,3,40,0,0
146112,-50,4,2,3,40,0,0
146352,-100,4,2,3,40,0,0
146592,-100,4,2,3,80,0,0
146952,-100,4,2,3,40,0,0
147432,-50,4,2,3,80,0,0
147552,-50,4,2,2,80,0,0
152472,-100,4,2,1,5,0,0

[Colours]
Combo1 : 255,0,128
Combo2 : 255,0,0
Combo3 : 255,79,79
Combo4 : 220,74,232
Combo5 : 255,136,196

[HitObjects]
39,207,312,6,0,L|236:204,1,190,0|2,0:0|0:0,0:0:0:0:
381,212,1032,1,0,0:0:0:0:
442,213,1152,1,0,0:0:0:0:
497,186,1272,2,0,P|442:205|332:195,1,142.5
297,193,1752,1,2,0:0:0:0:
56,198,1992,6,0,P|135:222|158:219,1,95
391,205,2472,1,0,0:0:0:0:
208,201,2712,1,2,0:0:0:0:
460,209,2952,1,0,0:0:0:0:
398,203,3072,1,0,0:0:0:0:
336,195,3192,1,0,0:0:0:0:
136,192,3432,2,0,L|21:209,1,95,0|2,0:0|0:0,0:0:0:0:
241,213,3912,1,0,0:0:0:0:
336,195,4152,6,0,P|257:222|174:216,1,142.5
137,212,4632,1,2,0:0:0:0:
13,209,4872,1,0,0:0:0:0:
183,213,5112,1,0,0:0:0:0:
59,211,5352,1,0,0:0:0:0:
182,214,5592,1,2,0:0:0:0:
364,214,5832,2,0,L|501:215,2,95,0|0|0,0:0|0:0|0:0,0:0:0:0:
240,218,6552,1,2,0:0:0:0:
116,219,6792,5,0,0:0:0:0:
55,232,6912,1,0,0:0:0:0:
22,284,7032,1,0,0:0:0:0:
46,340,7152,1,0,0:0:0:0:
106,353,7272,1,0,0:0:0:0:
240,229,7512,1,4,0:0:0:0:
301,234,7632,1,0,0:0:0:0:
362,232,7752,1,0,0:0:0:0:
487,220,7992,6,0,L|389:202,1,95
212,214,8472,2,0,L|325:200,1,95,8|0,0:0|0:0,0:0:0:0:
107,216,8952,2,0,L|238:198,1,95
40,220,9432,2,0,L|103:218,1,47.5,8|0,0:0|0:0,0:0:0:0:
184,216,9672,2,0,L|104:216,1,47.5
200,216,9912,1,0,0:0:0:0:
367,222,10152,1,0,0:0:0:0:
490,223,10392,5,8,0:0:0:0:
428,225,10512,2,0,L|343:224,1,47.5
318,221,10752,2,0,L|248:219,1,47.5
146,218,11112,1,0,0:0:0:0:
22,216,11352,2,0,L|88:218,1,47.5,8|0,0:0|0:0,0:0:0:0:
160,224,11592,2,0,L|85:220,1,47.5
24,216,11832,2,0,L|144:216,1,95
262,220,12312,5,8,0:0:0:0:
323,225,12432,1,0,0:0:0:0:
384,224,12552,1,0,0:0:0:0:
507,224,12792,1,0,0:0:0:0:
323,223,13032,1,0,0:0:0:0:
162,221,13272,2,0,P|83:223|44:207,1,95,8|0,0:0|0:0,0:0:0:0:
256,192,13752,12,0,14952,0:0:0:0:
71,224,15192,6,0,L|144:221,1,47.5,8|0,0:0|0:0,0:0:0:0:
451,198,15552,2,0,P|382:216|288:218,1,142.5,4|0,0:0|0:0,0:0:0:0:
145,209,16152,1,8,0:0:0:0:
268,212,16392,2,0,L|339:213,1,47.5
376,212,16632,2,0,P|456:221|489:219,2,95,0|0|8,0:0|0:0|0:0,0:0:0:0:
128,216,17592,6,0,L|253:217,1,95
61,218,18072,1,8,0:0:0:0:
276,224,18312,2,0,L|83:220,1,190
24,222,18912,1,0,0:0:0:0:
87,221,19032,2,0,L|224:216,1,95,8|0,0:0|0:0,0:0:0:0:
360,220,19512,2,0,L|254:219,1,95
66,220,19992,5,8,0:0:0:0:
263,220,20232,1,8,0:0:0:0:
448,224,20472,2,0,P|393:218|252:226,2,190,8|8|0,0:0|0:0|0:0,0:0:0:0:
250,228,21672,1,0,0:0:0:0:
443,228,21912,5,8,0:0:0:0:
319,223,22152,1,0,0:0:0:0:
257,223,22272,1,0,0:0:0:0:
195,225,22392,1,0,0:0:0:0:
136,224,22512,1,0,0:0:0:0:
72,224,22632,1,0,0:0:0:0:
192,232,22872,2,0,L|246:230,1,47.5,8|0,0:0|0:0,0:0:0:0:
471,227,23232,6,0,P|410:224|317:239,1,142.5
24,228,23832,2,0,L|144:232,1,95,8|0,0:0|0:0,0:0:0:0:
312,232,24312,1,0,0:0:0:0:
496,232,24552,1,0,0:0:0:0:
344,232,24792,1,8,0:0:0:0:
36,243,25272,6,0,L|87:243,1,47.5
145,241,25512,1,0,0:0:0:0:
268,243,25752,1,8,0:0:0:0:
456,238,25992,2,0,P|390:251|301:249,1,142.5
252,248,26472,1,0,0:0:0:0:
80,236,26712,2,0,L|18:237,2,47.5,8|0|0,0:0|0:0|0:0,0:0:0:0:
251,246,27192,6,0,P|353:250|384:240,1,95
472,248,27672,1,8,0:0:0:0:
264,240,27912,1,8,0:0:0:0:
72,224,28152,1,8,0:0:0:0:
376,214,28632,6,0,L|277:234,1,95,8|0,0:0|0:0,0:0:0:0:
67,227,29112,2,0,L|178:240,1,95
223,238,29472,1,0,0:0:0:0:
284,235,29592,1,8,0:0:0:0:
345,232,29712,2,0,L|434:228,1,47.5
460,225,29952,2,0,L|404:229,1,47.5
350,229,30192,1,0,0:0:0:0:
289,233,30312,2,0,L|181:229,1,95,0|8,0:0|0:0,0:0:0:0:
455,220,31032,5,4,0:0:0:0:
307,222,31272,1,0,0:0:0:0:
136,224,31512,2,0,L|17:227,1,95,2|0,0:0|0:0,0:0:0:0:
377,220,31992,2,0,L|473:221,1,95
253,221,32472,1,8,0:0:0:0:
45,220,32712,1,0,0:0:0:0:
254,221,32952,5,0,0:0:0:0:
456,224,33192,2,0,L|527:224,1,47.5
441,224,33432,2,0,L|371:224,1,47.5,8|0,0:0|0:0,0:0:0:0:
331,226,33672,2,0,L|258:224,1,47.5
176,216,33912,2,0,P|128:168|64:53,2,190,0|8|0,0:0|0:0|0:0,0:0:0:0:
505,232,35352,6,0,L|384:234,1,95,8|0,0:0|0:0,0:0:0:0:
245,235,35832,1,0,0:0:0:0:
62,235,36072,1,0,0:0:0:0:
297,238,36312,1,8,0:0:0:0:
120,234,36552,2,0,L|26:233,1,95
245,235,37032,1,0,0:0:0:0:
306,237,37152,1,0,0:0:0:0:
367,234,37272,1,8,0:0:0:0:
243,232,37512,1,0,0:0:0:0:
73,231,37752,6,0,L|179:226,1,95,8|0,0:0|0:0,0:0:0:0:
480,227,38232,2,0,L|368:221,1,95,8|0,0:0|0:0,0:0:0:0:
72,228,38712,1,8,0:0:0:0:
229,226,38952,1,0,0:0:0:0:
366,221,39192,2,0,L|477:222,1,95,8|2,0:0|0:0,0:0:0:0:
128,224,39672,1,0,0:0:0:0:
248,224,39912,1,0,0:0:0:0:
56,222,40152,5,8,0:0:0:0:
233,224,40392,1,0,0:0:0:0:
402,237,40632,1,0,0:0:0:0:
278,235,40872,2,0,L|214:233,1,47.5
292,238,41112,2,0,L|369:238,1,47.5,8|0,0:0|0:0,0:0:0:0:
277,238,41352,2,0,L|205:234,1,47.5
151,233,41592,2,0,L|50:233,2,95,0|0|8,0:0|0:0|0:0,0:0:0:0:
274,236,42312,1,0,0:0:0:0:
414,239,42552,1,0,0:0:0:0:
63,232,43032,6,0,L|188:233,1,95,8|0,0:0|0:0,0:0:0:0:
281,240,43512,1,0,0:0:0:0:
66,235,43752,2,0,L|172:239,2,95,0|8|0,0:0|0:0|0:0,0:0:0:0:
332,239,44472,2,0,L|466:238,1,95
268,236,44952,1,8,0:0:0:0:
441,237,45192,1,0,0:0:0:0:
219,234,45432,5,8,0:0:0:0:
343,230,45912,2,0,P|267:243|146:228,1,190,8|4,0:0|0:0,0:0:0:0:
457,243,46632,1,0,0:0:0:0:
271,246,46872,1,8,0:0:0:0:
394,246,47112,1,0,0:0:0:0:
456,244,47352,6,0,L|356:245,1,95,0|0,0:0|0:0,0:0:0:0:
146,247,47832,1,8,0:0:0:0:
22,247,48072,1,0,0:0:0:0:
196,251,48312,2,0,P|268:279|316:269,1,95
346,277,48672,1,0,0:0:0:0:
407,274,48792,1,8,0:0:0:0:
468,273,48912,1,0,0:0:0:0:
407,274,49032,1,0,0:0:0:0:
68,271,49272,5,0,0:0:0:0:
191,273,49512,2,0,L|268:277,1,47.5
300,274,49752,2,0,L|356:275,1,47.5,8|0,0:0|0:0,0:0:0:0:
501,270,50112,1,0,0:0:0:0:
439,267,50232,2,0,L|326:271,1,95
157,262,50712,6,0,L|32:258,1,95,8|0,0:0|0:0,0:0:0:0:
230,261,51192,2,0,L|339:261,1,95
115,261,51672,2,0,L|2:259,1,95,8|0,0:0|0:0,0:0:0:0:
336,260,52152,2,0,L|457:258,1,95
492,256,52512,1,0,0:0:0:0:
430,258,52632,1,8,0:0:0:0:
220,259,52872,5,0,0:0:0:0:
52,255,53112,1,8,0:0:0:0:
213,254,53352,1,0,0:0:0:0:
21,257,53592,1,8,0:0:0:0:
323,260,53832,1,0,0:0:0:0:
168,266,54072,2,0,L|61:266,1,95,8|0,0:0|0:0,0:0:0:0:
196,268,54552,6,0,L|290:265,2,95,4|0|0,0:0|0:0|0:0,0:0:0:0:
345,270,55272,1,0,0:0:0:0:
406,268,55392,1,0,0:0:0:0:
468,267,55512,1,8,0:0:0:0:
344,268,55752,1,0,0:0:0:0:
220,267,55992,6,0,P|152:278|66:266,1,142.5
17,262,56472,1,8,0:0:0:0:
78,270,56592,1,0,0:0:0:0:
139,267,56712,1,0,0:0:0:0:
200,263,56832,1,0,0:0:0:0:
261,257,56952,2,0,L|461:248,1,190,0|8,0:0|0:0,0:0:0:0:
263,258,57672,1,0,0:0:0:0:
85,258,57912,5,0,0:0:0:0:
208,259,58152,1,0,0:0:0:0:
331,261,58392,2,0,L|452:262,1,95,8|0,0:0|0:0,0:0:0:0:
512,177,58872,2,0,L|418:180,1,95
200,59,59352,2,0,L|82:62,1,95,8|0,0:0|0:0,0:0:0:0:
43,62,59712,1,0,0:0:0:0:
104,63,59832,1,0,0:0:0:0:
465,57,60312,6,0,L|353:57,1,95,8|0,0:0|0:0,0:0:0:0:
164,54,60792,2,0,L|285:54,1,95,8|0,0:0|0:0,0:0:0:0:
493,53,61272,2,0,L|366:55,1,95,8|0,0:0|0:0,0:0:0:0:
200,48,61752,6,0,L|105:43,2,95,4|0|8,0:0|0:0|0:0,0:0:0:0:
259,54,62352,2,0,L|315:53,1,47.5
200,48,62592,2,0,P|76:46|0:144,1,237.5,0|8,0:0|0:0,0:0:0:0:
334,83,63432,1,0,0:0:0:0:
171,83,63672,2,0,L|273:83,1,95
327,84,64032,1,0,0:0:0:0:
265,84,64152,1,8,0:0:0:0:
489,84,64392,6,0,L|378:85,1,95
238,80,64872,1,0,0:0:0:0:
60,83,65112,1,8,0:0:0:0:
183,85,65352,1,0,0:0:0:0:
367,87,65592,2,0,L|267:91,1,95
210,95,65952,1,0,0:0:0:0:
148,102,66072,1,8,0:0:0:0:
287,228,66312,1,0,0:0:0:0:
228,232,66432,5,0,0:0:0:0:
166,228,66552,2,0,P|65:226|46:215,2,95,0|0|8,0:0|0:0|0:0,0:0:0:0:
352,224,67272,1,0,0:0:0:0:
118,112,67512,2,0,L|5:118,1,95,0|0,0:0|0:0,0:0:0:0:
261,181,67992,2,0,L|129:188,1,95,8|0,0:0|0:0,0:0:0:0:
396,198,68472,2,0,L|259:200,1,95,8|0,0:0|0:0,0:0:0:0:
238,199,68832,1,0,0:0:0:0:
176,202,68952,1,8,0:0:0:0:
17,202,69192,6,0,P|110:222|188:215,1,142.5
219,220,69672,1,0,0:0:0:0:
280,224,69792,1,0,0:0:0:0:
341,215,69912,1,8,0:0:0:0:
464,220,70152,1,0,0:0:0:0:
402,217,70272,1,0,0:0:0:0:
340,213,70392,6,0,P|263:234|120:211,1,190,0|8,0:0|0:0,0:0:0:0:
47,218,71112,1,0,0:0:0:0:
266,217,71352,2,0,P|366:214|481:177,2,190,0|8|0,0:0|0:0|0:0,0:0:0:0:
204,217,72432,1,0,0:0:0:0:
142,211,72552,1,0,0:0:0:0:
21,186,72792,6,0,L|105:186,1,47.5,8|0,0:0|0:0,0:0:0:0:
167,188,73032,2,0,L|97:189,1,47.5
193,189,73272,2,0,L|346:191,1,142.5
397,193,73752,1,8,0:0:0:0:
183,191,73992,1,0,0:0:0:0:
466,194,74232,1,0,0:0:0:0:
342,198,74472,6,0,L|262:195,1,47.5
232,194,74712,2,0,L|175:199,1,47.5,8|0,0:0|0:0,0:0:0:0:
122,195,74952,2,0,L|15:192,2,95,0|0|0,0:0|0:0|0:0,0:0:0:0:
345,196,75672,1,8,0:0:0:0:
491,197,76152,5,0,0:0:0:0:
261,192,76392,1,0,0:0:0:0:
308,185,76632,2,0,L|387:183,2,47.5,8|0|0,0:0|0:0|0:0,0:0:0:0:
160,201,76992,2,0,L|329:197,1,142.5
474,191,77592,2,0,L|380:193,1,95,8|0,0:0|0:0,0:0:0:0:
170,193,78072,2,0,L|265:192,1,95
512,192,78552,2,0,L|418:193,1,95,8|0,0:0|0:0,0:0:0:0:
96,191,79032,6,0,L|193:193,1,95
360,203,79512,1,8,0:0:0:0:
152,288,79752,2,0,P|105:284|72:251,1,95
264,192,80232,2,0,P|312:184|312:128,1,95,0|8,0:0|0:0,0:0:0:0:
382,140,80592,1,0,0:0:0:0:
512,88,80832,2,0,P|496:128|424:200,1,142.5
208,200,81432,5,8,0:0:0:0:
392,200,81672,1,8,0:0:0:0:
200,200,81912,2,0,P|120:176|80:128,1,142.5,8|0,0:0|0:0,0:0:0:0:
136,104,82392,1,8,0:0:0:0:
224,80,82512,2,0,L|296:72,1,47.5
432,128,82872,2,0,L|336:144,1,95
176,160,83352,6,0,L|96:136,1,47.5,8|0,0:0|0:0,0:0:0:0:
72,160,83592,2,0,L|148:215,1,95
264,208,83952,2,0,L|336:168,1,47.5
400,152,84192,2,0,L|360:112,1,47.5,0|8,0:0|0:0,0:0:0:0:
320,80,84432,1,0,0:0:0:0:
48,86,84672,6,0,L|168:150,1,95
168,144,85032,1,0,0:0:0:0:
424,161,85272,2,0,L|312:225,1,95,8|0,0:0|0:0,0:0:0:0:
200,272,85752,2,0,L|117:224,1,95
192,208,86112,1,0,0:0:0:0:
264,192,86232,2,0,L|346:239,1,95,8|0,0:0|0:0,0:0:0:0:
468,223,86712,5,0,0:0:0:0:
213,218,86952,1,0,0:0:0:0:
343,221,87192,1,8,0:0:0:0:
24,80,87432,2,0,L|201:154,1,190
318,185,88152,1,8,0:0:0:0:
422,178,88272,1,0,0:0:0:0:
476,148,88392,1,0,0:0:0:0:
415,137,88512,2,0,L|339:133,1,47.5
260,196,88872,6,0,L|356:148,1,95,0|8,0:0|0:0,0:0:0:0:
104,213,89352,2,0,L|8:165,1,95,8|8,0:0|0:0,0:0:0:0:
345,174,89832,2,0,L|441:126,1,95,0|8,0:0|0:0,0:0:0:0:
263,50,90312,1,0,0:0:0:0:
144,288,90552,6,0,L|248:264,1,95
304,240,90912,1,0,0:0:0:0:
368,200,91032,1,8,0:0:0:0:
432,160,91152,1,0,0:0:0:0:
368,120,91272,1,2,0:0:0:0:
304,88,91392,1,0,0:0:0:0:
232,80,91512,1,2,0:0:0:0:
160,80,91632,2,0,L|384:80,1,190
432,72,91992,1,4,0:0:0:0:
256,192,98232,12,2,99672,0:0:0:0:
112,240,100152,6,0,L|232:240,1,95,4|0,0:0|0:0,0:0:0:0:
384,224,100632,1,8,0:0:0:0:
456,176,100752,1,0,0:0:0:0:
384,136,100872,1,8,0:0:0:0:
248,88,101112,6,0,P|176:64|120:72,1,95
53,130,101592,1,8,0:0:0:0:
0,152,101712,1,0,0:0:0:0:
202,186,101952,1,0,0:0:0:0:
374,290,102312,5,0,0:0:0:0:
456,288,102432,1,0,0:0:0:0:
480,231,102552,2,0,L|458:170,1,47.5,8|0,0:0|0:0,0:0:0:0:
384,56,102792,2,0,L|368:112,1,47.5,8|0,0:0|0:0,0:0:0:0:
304,104,103032,2,0,L|288:160,1,47.5,0|0,0:0|0:0,0:0:0:0:
224,152,103272,2,0,L|208:208,1,47.5,0|0,0:0|0:0,0:0:0:0:
112,200,103512,2,0,P|160:272|192:304,1,95,8|0,0:0|0:0,0:0:0:0:
424,280,103992,6,0,P|453:242|477:201,1,95
424,96,104472,1,8,0:0:0:0:
224,88,104712,1,8,0:0:0:0:
144,104,104832,1,0,0:0:0:0:
64,120,104952,1,0,0:0:0:0:
240,216,105192,1,0,0:0:0:0:
320,240,105312,1,0,0:0:0:0:
408,264,105432,1,8,0:0:0:0:
392,312,105672,2,0,P|336:328|256:328,1,95,0|2,0:0|0:0,0:0:0:0:
176,288,106152,6,0,L|80:240,1,95,0|2,0:0|0:0,0:0:0:0:
336,272,106632,2,0,L|420:314,2,95,0|2|0,0:0|0:0|0:0,0:0:0:0:
64,168,107352,2,0,L|170:105,1,95,2|0,0:0|0:0,0:0:0:0:
192,48,107832,6,0,P|238:56|283:71,1,95,4|0,0:0|0:0,0:0:0:0:
208,128,108312,1,8,0:0:0:0:
128,136,108432,1,0,0:0:0:0:
48,152,108552,1,8,0:0:0:0:
88,224,108672,2,0,L|8:227,1,47.5
122,226,108912,2,0,L|203:226,1,47.5
419,256,109272,2,0,P|363:288|299:304,1,95,8|0,0:0|0:0,0:0:0:0:
256,128,109752,6,0,P|211:144|171:169,1,95,0|0,0:0|0:0,0:0:0:0:
112,208,110112,1,0,0:0:0:0:
85,263,110232,1,8,0:0:0:0:
192,320,110472,5,8,0:0:0:0:
272,288,110592,1,0,0:0:0:0:
352,256,110712,1,0,0:0:0:0:
272,216,110832,1,0,0:0:0:0:
192,184,110952,2,0,L|112:184,1,47.5
69,163,111192,1,8,0:0:0:0:
132,100,111312,1,0,0:0:0:0:
216,64,111432,5,0,0:0:0:0:
288,112,111552,1,0,0:0:0:0:
216,160,111672,2,0,L|128:216,1,95
192,320,112152,1,8,0:0:0:0:
208,328,112272,6,0,L|248:280,1,47.5
336,256,112512,2,0,L|296:208,1,47.5,0|8,0:0|0:0,0:0:0:0:
200,192,112752,2,0,L|240:144,1,47.5
338,118,112992,2,0,L|378:70,2,47.5,0|8|0,0:0|0:0|0:0,0:0:0:0:
504,192,113592,6,0,L|280:192,1,190,8|2,0:0|0:0,0:0:0:0:
272,192,114192,1,0,0:0:0:0:
224,192,114312,2,0,P|176:160|200:40,1,190,2|2,0:0|0:0,0:0:0:0:
264,43,115032,1,2,0:0:0:0:
127,43,115152,1,2,0:0:0:0:
240,92,115392,6,0,P|312:116|408:92,1,142.5,2|0,0:0|0:0,0:0:0:0:
504,248,115992,1,2,0:0:0:0:
304,248,116232,1,0,0:0:0:0:
408,131,116472,2,0,P|456:123|484:51,2,95,2|2|0,0:0|0:0|0:0,0:0:0:0:
88,213,117432,6,0,P|45:192|17:155,2,95,8|8|8,0:0|0:0|0:0,0:0:0:0:
327,304,118152,2,0,P|391:264|407:208,1,95,8|0,0:0|0:0,0:0:0:0:
283,205,118632,2,0,L|227:173,1,47.5
185,156,118872,2,0,L|257:116,1,47.5,8|0,0:0|0:0,0:0:0:0:
464,96,119232,6,0,P|384:64|288:40,1,142.5,4|0,0:0|0:0,0:0:0:0:
224,48,119832,1,8,0:0:0:0:
112,64,120072,1,0,0:0:0:0:
360,136,120312,2,0,P|424:192|456:256,1,142.5
384,248,120792,1,8,0:0:0:0:
312,248,120912,2,0,L|152:248,1,142.5
144,144,121512,5,0,0:0:0:0:
208,144,121632,1,0,0:0:0:0:
272,144,121752,1,8,0:0:0:0:
210,144,121872,1,0,0:0:0:0:
271,146,121992,5,0,0:0:0:0:
332,143,122112,1,0,0:0:0:0:
393,139,122232,1,0,0:0:0:0:
331,146,122352,1,0,0:0:0:0:
269,147,122472,1,0,0:0:0:0:
207,147,122592,1,0,0:0:0:0:
145,147,122712,1,8,0:0:0:0:
329,253,123072,6,0,P|417:205|465:141,1,142.5
304,144,123672,1,8,0:0:0:0:
88,104,123912,2,0,P|144:64|192:48,1,95
352,64,124392,1,0,0:0:0:0:
408,72,124512,1,0,0:0:0:0:
464,96,124632,1,8,0:0:0:0:
224,272,125112,6,0,P|168:272|104:240,1,95
80,232,125472,1,0,0:0:0:0:
60,173,125592,1,8,0:0:0:0:
240,128,125832,2,0,P|320:152|344:184,1,95
328,184,126312,5,0,0:0:0:0:
448,280,126432,2,0,L|400:304,1,47.5,0|8,0:0|0:0,0:0:0:0:
352,312,126672,1,0,0:0:0:0:
176,248,126912,2,0,P|216:208|288:184,1,95
304,192,127272,5,0,0:0:0:0:
448,192,127512,1,8,0:0:0:0:
211,193,127752,1,8,0:0:0:0:
448,192,127992,2,0,P|376:160|320:120,1,142.5,8|0,0:0|0:0,0:0:0:0:
264,112,128472,1,8,0:0:0:0:
16,192,128952,6,0,P|56:232|104:240,1,95,4|0,0:0|0:0,0:0:0:0:
161,380,129432,1,8,0:0:0:0:
200,320,129552,2,0,L|264:304,1,47.5
288,296,129792,2,0,L|352:280,1,47.5,0|8,0:0|0:0,0:0:0:0:
393,266,130032,2,0,L|314:267,1,47.5
224,248,130392,6,0,P|188:228|109:226,1,95,8|0,0:0|0:0,0:0:0:0:
304,168,130752,2,0,P|400:176|456:216,1,142.5
208,256,131352,2,0,L|96:216,1,95,8|0,0:0|0:0,0:0:0:0:
336,256,131832,1,8,0:0:0:0:
480,112,132072,6,0,L|416:72,1,47.5
384,64,132312,1,8,0:0:0:0:
184,80,132552,2,0,L|248:120,1,47.5
280,128,132792,1,4,0:0:0:0:
376,256,133032,1,0,0:0:0:0:
192,256,133272,1,8,0:0:0:0:
32,198,133512,6,0,P|120:150|152:150,1,95
296,152,133992,1,0,0:0:0:0:
416,152,134232,1,8,0:0:0:0:
352,152,134352,1,0,0:0:0:0:
288,152,134472,1,0,0:0:0:0:
352,152,134592,1,0,0:0:0:0:
306,154,134712,1,0,0:0:0:0:
144,296,134952,6,0,L|32:240,2,95,0|8|8,0:0|0:0|0:0,0:0:0:0:
360,312,135672,1,8,0:0:0:0:
176,192,135912,2,0,L|224:184,1,47.5
312,176,136152,2,0,L|384:168,1,47.5,8|0,0:0|0:0,0:0:0:0:
94,168,136632,1,0,0:0:0:0:
320,344,136872,5,0,0:0:0:0:
384,312,136992,1,0,0:0:0:0:
424,280,137112,1,8,0:0:0:0:
384,248,137232,1,0,0:0:0:0:
320,216,137352,1,0,0:0:0:0:
256,200,137472,1,0,0:0:0:0:
192,184,137592,5,0,0:0:0:0:
128,152,137712,1,0,0:0:0:0:
88,120,137832,1,0,0:0:0:0:
128,88,137952,1,0,0:0:0:0:
192,56,138072,1,8,0:0:0:0:
400,56,138432,6,0,P|472:96|464:152,1,142.5
296,184,139032,1,8,0:0:0:0:
416,304,139272,2,0,L|224:304,1,190
96,248,139752,6,0,L|64:184,1,47.5
48,160,139992,1,8,0:0:0:0:
224,248,140232,2,0,L|256:184,1,47.5
272,160,140472,1,0,0:0:0:0:
424,160,140712,1,0,0:0:0:0:
272,160,140952,1,8,0:0:0:0:
432,63,141192,2,0,L|472:95,2,47.5
228,68,141672,1,0,0:0:0:0:
192,184,141912,5,8,0:0:0:0:
248,184,142032,1,0,0:0:0:0:
304,184,142152,1,0,0:0:0:0:
360,184,142272,1,0,0:0:0:0:
298,183,142392,1,0,0:0:0:0:
128,233,142632,5,0,0:0:0:0:
312,240,142872,1,8,0:0:0:0:
56,200,143112,1,8,0:0:0:0:
272,208,143352,2,0,P|312:160|360:152,1,95,8|0,0:0|0:0,0:0:0:0:
224,104,143832,2,0,L|280:88,1,47.5,8|0,0:0|0:0,0:0:0:0:
328,72,144072,1,0,0:0:0:0:
104,151,144312,1,0,0:0:0:0:
320,320,144552,5,0,0:0:0:0:
384,296,144672,1,0,0:0:0:0:
448,272,144792,1,8,0:0:0:0:
384,248,144912,1,0,0:0:0:0:
320,224,145032,1,2,0:0:0:0:
256,200,145152,1,0,0:0:0:0:
296,152,145272,1,8,0:0:0:0:
232,128,145392,1,0,0:0:0:0:
288,96,145512,1,0,0:0:0:0:
416,72,145752,5,2,0:0:0:0:
472,56,145872,1,2,0:0:0:0:
168,312,146112,2,0,P|64:312|-16:224,1,190,2|0,0:0|0:0,0:0:0:0:
24,200,146472,1,2,0:0:0:0:
80,168,146592,1,2,0:0:0:0:
232,144,146832,5,2,0:0:0:0:
176,120,146952,1,2,0:0:0:0:
480,72,147192,2,0,L|358:77,1,95,4|0,0:0|0:0,0:0:0:0:
256,192,147672,12,0,152952,0:0:0:0:
