osu file format v14

[General]
AudioFilename: M2U - The Queen(O2Jam OST).mp3
AudioLeadIn: 0
PreviewTime: 100152
Countdown: 0
SampleSet: Soft
StackLeniency: 0.7
Mode: 2
LetterboxInBreaks: 0
WidescreenStoryboard: 0

[Editor]
DistanceSpacing: 1.2
BeatDivisor: 4
GridSize: 32
TimelineZoom: 1

[Metadata]
Title:The Queen
TitleUnicode:The Queen
Artist:M2U
ArtistUnicode:M2U
Creator:WildOne94
Version:Cup
Source:O2JAM U
Tags:RHYTHM ATTACK GATHERING 2013 Limited Album Withered_Lotus Razor_Sharp
BeatmapID:610531
BeatmapSetID:255039

[Difficulty]
HPDrainRate:3
CircleSize:2.5
OverallDifficulty:5
ApproachRate:5
SliderMultiplier:1.5
SliderTickRate:1

[Events]
//Background and Video events
0,0,"cartoon_the-most-beautiful-cg-girl-widescreen_18-1920x1200.jpg",0,0
//Break Periods
2,92472,97032
//Storyboard Layer 0 (Background)
//Storyboard Layer 1 (Fail)
//Storyboard Layer 2 (Pass)
//Storyboard Layer 3 (Foreground)
//Storyboard Sound Samples

[TimingPoints]
312,480,4,2,1,20,1,0
1272,-100,4,2,1,30,0,0
2232,-100,4,2,1,40,0,0
3192,-100,4,2,1,50,0,0
4152,-100,4,2,1,60,0,0
5112,-100,4,2,1,70,0,0
6072,-100,4,2,1,80,0,0
7032,-100,4,2,1,90,0,0
61752,-100,4,2,1,80,0,1
75672,-100,4,2,1,80,0,0
98232,-100,4,2,3,40,0,0
98712,-100,4,2,3,80,0,0
99552,-100,4,2,2,80,0,0
100152,-100,4,2,2,80,0,1
113592,-100,4,2,1,80,0,0
115032,-100,4,2,3,40,0,0
115632,-100,4,2,1,80,0,0
119352,-100,4,2,1,80,0,1
128952,-100,4,2,1,80,0,0
132792,-100,4,2,1,80,0,1
145752,-100,4,2,3,40,0,0
146592,-100,4,2,3,80,0,0
146952,-100,4,2,3,40,0,0
147432,-50,4,2,3,80,0,0
147552,-50,4,2,2,80,0,0
152472,-100,4,2,1,5,0,0

[Colours]
Combo1 : 255,0,128
Combo2 : 255,0,0
Combo3 : 255,79,79
Combo4 : 220,74,232
Combo5 : 255,136,196

[HitObjects]
128,256,312,5,0,0:0:0:0:
308,256,792,1,2,0:0:0:0:
487,254,1272,2,0,L|327:254,2,150,0|2|0,0:0|0:0|0:0,0:0:0:0:
307,256,2712,5,2,0:0:0:0:
127,261,3192,2,0,P|25:247|3:198,1,150,0|2,0:0|0:0,0:0:0:0:
82,261,3912,2,0,L|186:261,1,75
336,256,4632,6,0,L|510:255,2,150,2|0|2,0:0|0:0|0:0,0:0:0:0:
156,255,6072,2,0,B|0:256|160:256,1,150,0|2,0:0|0:0,0:0:0:0:
336,258,7032,2,0,L|504:258,2,150,0|4|0,0:0|0:0|0:0,0:0:0:0:
96,192,8472,5,8,0:0:0:0:
163,208,8952,2,0,L|325:209,1,150,0|8,0:0|0:0,0:0:0:0:
403,210,9672,2,0,L|297:210,1,75
147,219,10392,5,8,0:0:0:0:
326,226,10872,2,0,L|487:229,2,150,0|8|0,0:0|0:0|0:0,0:0:0:0:
149,259,12312,2,0,L|-25:258,1,150,8|0,0:0|0:0,0:0:0:0:
89,258,13032,2,0,L|179:260,1,75,0|8,0:0|0:0,0:0:0:0:
256,192,13752,12,2,15192,0:0:0:0:
410,254,15672,6,0,P|329:284|237:278,1,150,4|8,0:0|0:0,0:0:0:0:
86,281,16632,2,0,L|1:282,2,75,0|0|8,0:0|0:0|0:0,0:0:0:0:
260,271,17592,6,0,L|369:268,1,75
424,270,18072,1,8,0:0:0:0:
334,263,18312,2,0,P|229:312|184:313,1,150
106,313,19032,1,8,0:0:0:0:
285,309,19512,6,0,L|390:307,2,75,0|0|8,0:0|0:0|0:0,0:0:0:0:
194,309,20232,1,8,0:0:0:0:
104,306,20472,2,0,L|28:305|104:306,1,150,8|8,0:0|0:0,0:0:0:0:
265,230,21432,6,0,P|353:249|441:232,1,150,0|8,0:0|0:0,0:0:0:0:
502,245,22152,1,0,0:0:0:0:
412,244,22392,1,0,0:0:0:0:
232,251,22872,2,0,L|91:249,2,112.5,8|0|0,0:0|0:0|0:0,0:0:0:0:
322,246,23832,1,8,0:0:0:0:
142,248,24312,6,0,L|47:248,2,75,0|0|8,0:0|0:0|0:0,0:0:0:0:
323,311,25272,1,0,0:0:0:0:
143,312,25752,2,0,L|323:311,1,150,8|0,0:0|0:0,0:0:0:0:
473,314,26712,5,8,0:0:0:0:
338,308,27072,2,0,L|204:307,1,112.5
135,304,27672,2,0,L|38:305,2,75,8|8|8,0:0|0:0|0:0,0:0:0:0:
314,305,28632,5,8,0:0:0:0:
226,300,29112,2,0,L|55:303,2,150,0|8|0,0:0|0:0|0:0,0:0:0:0:
405,303,30552,1,0,0:0:0:0:
261,230,31032,6,0,L|110:164,1,150,4|8,0:0|0:0,0:0:0:0:
317,127,31992,2,0,L|475:126,1,150,0|8,0:0|0:0,0:0:0:0:
448,224,32712,2,0,L|373:224,1,75
295,360,33432,6,0,L|295:263,1,75,8|0,0:0|0:0,0:0:0:0:
210,139,33912,1,0,0:0:0:0:
30,140,34392,2,0,L|136:141,1,75,8|0,0:0|0:0,0:0:0:0:
63,221,34872,2,0,L|223:220,1,150,0|8,0:0|0:0,0:0:0:0:
392,226,35832,2,0,P|293:235|249:178,2,150,0|8|0,0:0|0:0|0:0,0:0:0:0:
212,222,37272,5,8,0:0:0:0:
32,222,37752,1,8,0:0:0:0:
121,222,37992,1,0,0:0:0:0:
210,220,38232,2,0,L|372:224,2,150,8|8|2,0:0|0:0|0:0,0:0:0:0:
389,199,39672,6,0,P|340:228|221:238,1,150,4|8,0:0|0:0,0:0:0:0:
339,241,40392,2,0,L|444:240,1,75
503,243,40872,2,0,L|502:148,2,75,0|8|0,0:0|0:0|0:0,0:0:0:0:
413,248,41592,2,0,L|240:248,1,150,0|8,0:0|0:0,0:0:0:0:
172,248,42312,2,0,L|281:247,1,75
384,254,43032,6,0,L|458:253,2,75,8|0|0,0:0|0:0|0:0,0:0:0:0:
204,263,43992,2,0,B|44:264|195:264,1,150,8|0,0:0|0:0,0:0:0:0:
279,262,44712,1,0,0:0:0:0:
368,263,44952,2,0,L|501:188,1,150,8|8,0:0|0:0,0:0:0:0:
297,272,45912,5,8,0:0:0:0:
117,275,46392,2,0,P|41:272|21:188,1,150,4|8,0:0|0:0,0:0:0:0:
98,179,47112,2,0,L|193:181,1,75,2|0,0:0|0:0,0:0:0:0:
353,184,47832,6,0,L|195:182,1,150,8|0,0:0|0:0,0:0:0:0:
130,128,48552,2,0,L|129:228,1,75,0|8,0:0|0:0,0:0:0:0:
211,164,49032,1,2,0:0:0:0:
289,111,49272,6,0,L|472:113,2,150,0|8|0,0:0|0:0|0:0,0:0:0:0:
108,104,50712,1,8,0:0:0:0:
18,101,50952,1,0,0:0:0:0:
107,106,51192,2,0,P|216:162|266:159,1,150,0|8,0:0|0:0,0:0:0:0:
417,128,52152,5,0,0:0:0:0:
237,126,52632,1,8,0:0:0:0:
147,128,52872,2,0,L|54:129,1,75,0|8,0:0|0:0,0:0:0:0:
162,128,53352,2,0,L|272:129,3,75,0|8|0|8,0:0|0:0|0:0|0:0,0:0:0:0:
417,131,54552,5,4,0:0:0:0:
237,122,55032,2,0,P|129:145|59:132,1,150,0|8,0:0|0:0,0:0:0:0:
0,138,55752,2,0,L|98:138,1,75
254,137,56472,5,8,0:0:0:0:
343,137,56712,1,0,0:0:0:0:
432,137,56952,2,0,L|268:137,2,150,8|8|8,0:0|0:0|0:0,0:0:0:0:
252,135,58392,5,8,0:0:0:0:
162,135,58632,1,2,0:0:0:0:
0,136,59112,1,0,0:0:0:0:
101,137,59352,2,0,P|189:167|269:160,1,150,8|0,0:0|0:0,0:0:0:0:
424,155,60312,6,0,L|323:155,1,75,8|0,0:0|0:0,0:0:0:0:
438,152,60792,2,0,L|264:153,1,150,8|8,0:0|0:0,0:0:0:0:
108,159,61752,2,0,P|171:198|271:206,1,150,4|8,0:0|0:0,0:0:0:0:
334,213,62472,1,0,0:0:0:0:
423,214,62712,2,0,L|250:216,1,150,0|8,0:0|0:0,0:0:0:0:
93,210,63672,5,0,0:0:0:0:
272,217,64152,1,8,0:0:0:0:
361,223,64392,2,0,L|455:224,1,75
255,223,65112,2,0,L|167:223,1,75,8|0,0:0|0:0,0:0:0:0:
89,226,65592,2,0,P|183:209|263:198,1,150,0|8,0:0|0:0,0:0:0:0:
414,230,66552,5,0,0:0:0:0:
503,232,66792,1,0,0:0:0:0:
413,233,67032,2,0,L|239:232,1,150,8|0,0:0|0:0,0:0:0:0:
83,220,67992,2,0,L|180:220,1,75,8|0,0:0|0:0,0:0:0:0:
247,219,68472,2,0,L|153:221,1,75,8|0,0:0|0:0,0:0:0:0:
82,221,68952,2,0,L|232:221,1,150,8|4,0:0|0:0,0:0:0:0:
60,231,69912,5,8,0:0:0:0:
149,232,70152,1,0,0:0:0:0:
238,229,70392,2,0,P|339:248|418:248,1,150,0|8,0:0|0:0,0:0:0:0:
207,226,71352,2,0,L|379:222,2,150,0|8|0,0:0|0:0|0:0,0:0:0:0:
27,230,72792,5,8,0:0:0:0:
117,230,73032,1,0,0:0:0:0:
206,229,73272,2,0,L|305:231,2,75,0|0|8,0:0|0:0|0:0,0:0:0:0:
385,235,74232,2,0,L|281:235,2,75,0|0|8,0:0|0:0|0:0,0:0:0:0:
474,241,74952,2,0,B|334:163|307:312,1,225,0|8,0:0|0:0,0:0:0:0:
129,280,76152,5,0,0:0:0:0:
308,276,76632,1,8,0:0:0:0:
441,267,76992,2,0,P|340:233|245:234,1,187.5,0|8,0:0|0:0,0:0:0:0:
82,264,78072,6,0,L|252:265,2,150,0|8|4,0:0|0:0|0:0,0:0:0:0:
171,265,79272,2,0,L|245:264,1,75,0|8,0:0|0:0,0:0:0:0:
425,259,79992,1,0,0:0:0:0:
335,259,80232,2,0,L|235:264,1,75,0|8,0:0|0:0,0:0:0:0:
96,274,80952,2,0,L|-10:275,2,75,8|0|8,0:0|0:0|0:0,0:0:0:0:
186,272,81672,1,0,0:0:0:0:
96,270,81912,1,8,0:0:0:0:
275,274,82392,5,8,0:0:0:0:
377,275,82872,2,0,L|477:275,2,75,0|0|8,0:0|0:0|0:0,0:0:0:0:
290,255,83592,1,0,0:0:0:0:
192,256,83832,2,0,L|32:256,1,150,0|8,0:0|0:0,0:0:0:0:
192,256,84672,1,0,0:0:0:0:
416,256,85272,5,8,0:0:0:0:
320,256,85512,1,0,0:0:0:0:
224,256,85752,1,0,0:0:0:0:
416,256,86232,2,0,L|256:258,1,150,8|0,0:0|0:0,0:0:0:0:
192,256,86952,2,0,L|298:255,1,75,0|8,0:0|0:0,0:0:0:0:
192,256,87432,2,0,P|312:297|437:284,1,225,0|8,0:0|0:0,0:0:0:0:
224,256,88632,6,0,L|326:256,1,75,8|0,0:0|0:0,0:0:0:0:
384,256,89112,2,0,L|291:258,1,75,8|0,0:0|0:0,0:0:0:0:
224,256,89592,1,8,0:0:0:0:
32,256,90072,1,8,0:0:0:0:
224,256,90552,2,0,L|374:257,2,150,0|8|0,0:0|0:0|0:0,0:0:0:0:
416,256,91992,1,4,0:0:0:0:
256,192,98232,12,0,99672,0:0:0:0:
254,199,100152,6,0,L|436:198,1,150,4|8,0:0|0:0,0:0:0:0:
493,198,100872,1,8,0:0:0:0:
403,200,101112,2,0,L|237:201,2,150,0|8|0,0:0|0:0|0:0,0:0:0:0:
492,202,102312,6,0,L|399:200,1,75,0|8,0:0|0:0,0:0:0:0:
327,202,102792,1,8,0:0:0:0:
237,201,103032,1,0,0:0:0:0:
147,196,103272,2,0,L|252:201,1,75,0|8,0:0|0:0,0:0:0:0:
311,204,103752,2,0,L|221:202,1,75
56,202,104472,5,8,0:0:0:0:
145,201,104712,2,0,L|250:201,2,75,8|0|0,0:0|0:0|0:0,0:0:0:0:
55,206,105432,1,8,0:0:0:0:
31,134,105672,1,0,0:0:0:0:
120,126,105912,6,0,L|281:125,2,150,2|2|2,0:0|0:0|0:0,0:0:0:0:
31,134,107112,2,0,L|-53:133,2,75,0|2|0,0:0|0:0|0:0,0:0:0:0:
121,134,107832,6,0,L|281:134,1,150,4|8,0:0|0:0,0:0:0:0:
359,135,108552,1,8,0:0:0:0:
447,131,108792,1,0,0:0:0:0:
267,134,109272,1,8,0:0:0:0:
446,143,109752,6,0,L|294:143,1,150,0|8,0:0|0:0,0:0:0:0:
206,153,110472,1,8,0:0:0:0:
116,157,110712,2,0,L|221:153,1,75
281,152,111192,2,0,L|97:157,1,150,8|0,0:0|0:0,0:0:0:0:
187,120,112152,6,0,L|285:119,1,75,8|0,0:0|0:0,0:0:0:0:
349,140,112632,2,0,L|245:138,1,75,8|0,0:0|0:0,0:0:0:0:
192,176,113112,2,0,L|372:174,1,150,8|8,0:0|0:0,0:0:0:0:
160,211,114072,5,2,0:0:0:0:
339,203,114552,2,0,L|443:207,2,75,2|2|0,0:0|0:0|0:0,0:0:0:0:
159,196,115512,2,0,P|68:215|-10:212,2,150,2|0|2,0:0|0:0|0:0,0:0:0:0:
294,200,116832,1,0,0:0:0:0:
69,200,117432,5,8,0:0:0:0:
159,200,117672,1,8,0:0:0:0:
98,199,117912,1,0,0:0:0:0:
160,224,118152,2,0,P|325:263|395:256,1,225,8|8,0:0|0:0,0:0:0:0:
202,220,119352,6,0,L|35:226,2,150,4|8|0,0:0|0:0|0:0,0:0:0:0:
291,221,120552,2,0,L|398:218,1,75,0|8,0:0|0:0,0:0:0:0:
185,219,121272,1,0,0:0:0:0:
274,218,121512,1,0,0:0:0:0:
184,214,121752,2,0,L|90:215,2,75,8|0|0,0:0|0:0|0:0,0:0:0:0:
364,209,122712,2,0,L|480:212,1,112.5,8|0,0:0|0:0,0:0:0:0:
251,206,123672,6,0,L|430:201,1,150,8|0,0:0|0:0,0:0:0:0:
220,202,124632,1,8,0:0:0:0:
399,198,125112,2,0,L|291:201,1,75
234,201,125592,2,0,L|79:202,2,150,8|0|8,0:0|0:0|0:0,0:0:0:0:
413,212,127032,6,0,L|518:213,1,75,8|0,0:0|0:0,0:0:0:0:
397,212,127512,2,0,L|315:215,1,75,8|0,0:0|0:0,0:0:0:0:
232,215,127992,1,8,0:0:0:0:
52,211,128472,1,8,0:0:0:0:
231,212,128952,1,4,0:0:0:0:
411,212,129432,2,0,L|174:210,1,225,8|0,0:0|0:0,0:0:0:0:
96,218,130392,6,0,L|20:329,2,112.5,8|0|0,0:0|0:0|0:0,0:0:0:0:
185,214,131352,1,8,0:0:0:0:
364,213,131832,1,0,0:0:0:0:
185,214,132312,1,8,0:0:0:0:
5,211,132792,6,0,L|181:214,1,150,4|8,0:0|0:0,0:0:0:0:
64,213,133512,2,0,L|165:213,1,75
364,226,134232,1,8,0:0:0:0:
208,218,134712,2,0,L|112:216,1,75,8|0,0:0|0:0,0:0:0:0:
222,218,135192,2,0,L|50:217,2,150,8|8|8,0:0|0:0|0:0,0:0:0:0:
376,260,136632,6,0,L|487:258,1,75
361,249,137112,1,8,0:0:0:0:
450,245,137352,1,0,0:0:0:0:
362,225,137592,2,0,L|177:226,1,150,0|8,0:0|0:0,0:0:0:0:
77,221,138432,6,0,L|271:224,1,187.5,0|8,0:0|0:0,0:0:0:0:
444,223,139512,1,0,0:0:0:0:
354,223,139752,1,0,0:0:0:0:
444,223,139992,1,8,0:0:0:0:
280,143,140472,6,0,L|119:141,2,150,4|8|0,0:0|0:0|0:0,0:0:0:0:
459,146,141912,1,8,0:0:0:0:
279,141,142392,2,0,L|172:139,1,75,8|0,0:0|0:0,0:0:0:0:
114,137,142872,2,0,L|266:136,1,150,8|8,0:0|0:0,0:0:0:0:
443,148,143832,5,8,0:0:0:0:
263,149,144312,1,0,0:0:0:0:
173,146,144552,1,0,0:0:0:0:
83,148,144792,2,0,L|-8:148,2,75,8|0|0,0:0|0:0|0:0,0:0:0:0:
262,151,145752,5,2,0:0:0:0:
395,154,146112,1,2,0:0:0:0:
344,28,146472,1,0,0:0:0:0:
305,60,146592,2,0,L|165:59,1,112.5,2|2,0:0|0:0,0:0:0:0:
102,61,147192,2,0,L|198:60,1,75,2|0,0:0|0:0,0:0:0:0:
256,192,147672,12,0,152952,0:0:0:0:
