osu file format v13

[General]
AudioFilename: bgm.mp3
AudioLeadIn: 0
PreviewTime: 54400
Countdown: 0
SampleSet: Soft
StackLeniency: 0.4
Mode: 3
LetterboxInBreaks: 0
SpecialStyle: 0
WidescreenStoryboard: 0

[Editor]
DistanceSpacing: 0.8
BeatDivisor: 1
GridSize: 8
TimelineZoom: 1

[Metadata]
Title:Seeker
TitleUnicode:Seeker
Artist:M2U
ArtistUnicode:M2U
Creator:diamdiam
Version:4K SHD
Source:djmax
Tags:djmax,M2U
BeatmapID:506072
BeatmapSetID:82068

[Difficulty]
HPDrainRate:9
CircleSize:4
OverallDifficulty:8
ApproachRate:7
SliderMultiplier:0.4
SliderTickRate:1

[Events]
//Background and Video events
0,0,"Seeker_ORG_mx.jpg",0,0
//Break Periods
//Storyboard Layer 0 (Background)
//Storyboard Layer 1 (Fail)
//Storyboard Layer 2 (Pass)
//Storyboard Layer 3 (Foreground)
//Storyboard Sound Samples
Sample,15400,0,"piano-08.wav",50
Sample,15800,0,"piano-12.wav",50
Sample,16200,0,"openhat.wav",50
Sample,16800,0,"openhat.wav",50
Sample,17400,0,"openhat.wav",50
Sample,19400,0,"openhat.wav",50
Sample,20000,0,"openhat.wav",50
Sample,20600,0,"openhat.wav",50
Sample,22000,0,"openhat.wav",50
Sample,22600,0,"openhat.wav",50
Sample,23200,0,"openhat.wav",50
Sample,23800,0,"openhat.wav",50
Sample,25800,0,"openhat.wav",50
Sample,26400,0,"openhat.wav",50
Sample,27000,0,"openhat.wav",50
Sample,28400,0,"openhat.wav",50
Sample,41800,0,"openhat.wav",50
Sample,41800,0,"hat2.wav",50
Sample,41800,0,"hat.wav",50
Sample,42000,0,"snare.wav",50
Sample,42200,0,"hat.wav",50
Sample,42200,0,"hat2.wav",50
Sample,42400,0,"openhat.wav",50
Sample,42600,0,"hat2.wav",50
Sample,42600,0,"hat.wav",50
Sample,42800,0,"snare.wav",50
Sample,43000,0,"hat2.wav",50
Sample,43000,0,"openhat.wav",50
Sample,43000,0,"hat.wav",50
Sample,43400,0,"hat.wav",50
Sample,43400,0,"hat2.wav",50
Sample,43600,0,"snare.wav",50
Sample,43800,0,"hat2.wav",50
Sample,43800,0,"hat.wav",50
Sample,44200,0,"hat.wav",50
Sample,44200,0,"hat2.wav",50
Sample,44400,0,"snare.wav",50
Sample,44600,0,"hat.wav",50
Sample,44600,0,"hat2.wav",50
Sample,44700,0,"hat.wav",50
Sample,44700,0,"snare.wav",50
Sample,45000,0,"hat2.wav",50
Sample,45000,0,"openhat.wav",50
Sample,45000,0,"hat.wav",50
Sample,45200,0,"snare.wav",50
Sample,45400,0,"hat2.wav",50
Sample,45400,0,"hat.wav",50
Sample,45600,0,"openhat.wav",50
Sample,45800,0,"hat.wav",50
Sample,45800,0,"hat2.wav",50
Sample,46000,0,"snare.wav",50
Sample,46200,0,"hat.wav",50
Sample,46200,0,"hat2.wav",50
Sample,46200,0,"openhat.wav",50
Sample,46600,0,"hat2.wav",50
Sample,46600,0,"hat.wav",50
Sample,46800,0,"snare.wav",50
Sample,47000,0,"hat2.wav",50
Sample,47000,0,"hat.wav",50
Sample,47300,0,"snare.wav",50
Sample,47400,0,"hat.wav",50
Sample,47400,0,"hat2.wav",50
Sample,47600,0,"snare.wav",50
Sample,47600,0,"openhat.wav",50
Sample,47800,0,"hat2.wav",50
Sample,47800,0,"hat.wav",50
Sample,47900,0,"hat.wav",50
Sample,48200,0,"hat2.wav",50
Sample,48200,0,"openhat.wav",50
Sample,48200,0,"hat.wav",50
Sample,48600,0,"hat2.wav",50
Sample,48600,0,"hat.wav",50
Sample,48800,0,"openhat.wav",50
Sample,49000,0,"hat2.wav",50
Sample,49000,0,"hat.wav",50
Sample,49400,0,"openhat.wav",50
Sample,49400,0,"hat.wav",50
Sample,49400,0,"hat2.wav",50
Sample,49800,0,"hat2.wav",50
Sample,49800,0,"hat.wav",50
Sample,50200,0,"hat2.wav",50
Sample,50200,0,"hat.wav",50
Sample,50600,0,"hat.wav",50
Sample,50600,0,"hat2.wav",50
Sample,51000,0,"hat2.wav",50
Sample,51000,0,"hat.wav",50
Sample,51100,0,"hat.wav",50
Sample,51400,0,"hat.wav",50
Sample,51400,0,"openhat.wav",50
Sample,51400,0,"hat2.wav",50
Sample,51800,0,"hat.wav",50
Sample,51800,0,"hat2.wav",50
Sample,52000,0,"openhat.wav",50
Sample,52200,0,"hat.wav",50
Sample,52200,0,"hat2.wav",50
Sample,52600,0,"openhat.wav",50
Sample,52600,0,"hat2.wav",50
Sample,52600,0,"hat.wav",50
Sample,53000,0,"hat.wav",50
Sample,53000,0,"hat2.wav",50
Sample,53400,0,"hat2.wav",50
Sample,53400,0,"hat.wav",50
Sample,53800,0,"hat2.wav",50
Sample,53800,0,"hat.wav",50
Sample,54000,0,"openhat.wav",50
Sample,54200,0,"hat.wav",50
Sample,54200,0,"hat2.wav",50
Sample,54300,0,"hat.wav",50
Sample,54600,0,"hat2.wav",50
Sample,54600,0,"hat.wav",50
Sample,54600,0,"openhat.wav",50
Sample,54800,0,"kick.wav",50
Sample,54800,0,"snare.wav",50
Sample,55000,0,"hat2.wav",50
Sample,55000,0,"hat.wav",50
Sample,55200,0,"openhat.wav",50
Sample,55200,0,"kick.wav",50
Sample,55400,0,"hat2.wav",50
Sample,55400,0,"hat.wav",50
Sample,55600,0,"snare.wav",50
Sample,55600,0,"kick.wav",50
Sample,55800,0,"openhat.wav",50
Sample,55800,0,"hat2.wav",50
Sample,55800,0,"hat.wav",50
Sample,56000,0,"kick.wav",50
Sample,56200,0,"hat.wav",50
Sample,56200,0,"hat2.wav",50
Sample,56400,0,"kick.wav",50
Sample,56400,0,"snare.wav",50
Sample,56600,0,"hat2.wav",50
Sample,56600,0,"hat.wav",50
Sample,56800,0,"kick.wav",50
Sample,57000,0,"hat2.wav",50
Sample,57000,0,"hat.wav",50
Sample,57200,0,"kick.wav",50
Sample,57200,0,"snare.wav",50
Sample,57400,0,"hat2.wav",50
Sample,57400,0,"hat.wav",50
Sample,57500,0,"hat.wav",50
Sample,57500,0,"snare.wav",50
Sample,57600,0,"kick.wav",50
Sample,57800,0,"openhat.wav",50
Sample,57800,0,"hat.wav",50
Sample,57800,0,"hat2.wav",50
Sample,58000,0,"kick.wav",50
Sample,58000,0,"snare.wav",50
Sample,58200,0,"hat2.wav",50
Sample,58200,0,"hat.wav",50
Sample,58400,0,"kick.wav",50
Sample,58400,0,"openhat.wav",50
Sample,58600,0,"hat2.wav",50
Sample,58600,0,"hat.wav",50
Sample,58800,0,"kick.wav",50
Sample,58800,0,"snare.wav",50
Sample,59000,0,"hat.wav",50
Sample,59000,0,"hat2.wav",50
Sample,59000,0,"openhat.wav",50
Sample,59200,0,"kick.wav",50
Sample,59400,0,"hat.wav",50
Sample,59400,0,"hat2.wav",50
Sample,59600,0,"kick.wav",50
Sample,59600,0,"snare.wav",50
Sample,59800,0,"hat.wav",50
Sample,59800,0,"hat2.wav",50
Sample,60000,0,"kick.wav",50
Sample,60100,0,"snare.wav",50
Sample,60200,0,"hat.wav",50
Sample,60200,0,"hat2.wav",50
Sample,60400,0,"openhat.wav",50
Sample,60400,0,"snare.wav",50
Sample,60400,0,"kick.wav",50
Sample,60600,0,"hat.wav",50
Sample,60600,0,"hat2.wav",50
Sample,60700,0,"hat.wav",50
Sample,60800,0,"kick.wav",50
Sample,61000,0,"hat2.wav",50
Sample,61000,0,"hat.wav",50
Sample,61000,0,"openhat.wav",50
Sample,61200,0,"snare.wav",50
Sample,61200,0,"kick.wav",50
Sample,61400,0,"hat.wav",50
Sample,61400,0,"hat2.wav",50
Sample,61600,0,"openhat.wav",50
Sample,61600,0,"kick.wav",50
Sample,61800,0,"hat.wav",50
Sample,61800,0,"hat2.wav",50
Sample,62000,0,"snare.wav",50
Sample,62000,0,"kick.wav",50
Sample,62200,0,"openhat.wav",50
Sample,62200,0,"hat2.wav",50
Sample,62200,0,"hat.wav",50
Sample,62400,0,"kick.wav",50
Sample,62600,0,"hat2.wav",50
Sample,62600,0,"hat.wav",50
Sample,62800,0,"kick.wav",50
Sample,62800,0,"snare.wav",50
Sample,63000,0,"hat.wav",50
Sample,63000,0,"hat2.wav",50
Sample,63200,0,"kick.wav",50
Sample,63400,0,"hat2.wav",50
Sample,63400,0,"hat.wav",50
Sample,63600,0,"kick.wav",50
Sample,63600,0,"snare.wav",50
Sample,63800,0,"hat2.wav",50
Sample,63800,0,"hat.wav",50
Sample,63900,0,"snare.wav",50
Sample,64000,0,"kick.wav",50
Sample,64200,0,"hat2.wav",50
Sample,64200,0,"openhat.wav",50
Sample,64200,0,"hat.wav",50
Sample,64400,0,"kick.wav",50
Sample,64400,0,"snare.wav",50
Sample,64600,0,"hat.wav",50
Sample,64600,0,"hat2.wav",50
Sample,64800,0,"kick.wav",50
Sample,64800,0,"openhat.wav",50
Sample,65000,0,"hat.wav",50
Sample,65000,0,"hat2.wav",50
Sample,65200,0,"kick.wav",50
Sample,65200,0,"snare.wav",50
Sample,65400,0,"openhat.wav",50
Sample,65400,0,"hat2.wav",50
Sample,65400,0,"hat.wav",50
Sample,65600,0,"kick.wav",50
Sample,65800,0,"hat.wav",50
Sample,65800,0,"hat2.wav",50
Sample,66000,0,"snare.wav",50
Sample,66000,0,"kick.wav",50
Sample,66200,0,"hat.wav",50
Sample,66200,0,"hat2.wav",50
Sample,66400,0,"kick.wav",50
Sample,66500,0,"snare.wav",50
Sample,66600,0,"hat2.wav",50
Sample,66600,0,"hat.wav",50
Sample,66700,0,"kick.wav",50
Sample,66800,0,"snare.wav",50
Sample,66800,0,"openhat.wav",50
Sample,66800,0,"kick.wav",50
Sample,67000,0,"hat2.wav",50
Sample,67000,0,"hat.wav",50
Sample,67000,0,"kick.wav",50
Sample,67100,0,"snare.wav",50
Sample,67100,0,"hat.wav",50
Sample,67200,0,"msynth1.wav",50
Sample,67400,0,"hat2.wav",50
Sample,67400,0,"openhat.wav",50
Sample,67400,0,"hat.wav",50
Sample,67600,0,"msynth1.wav",50
Sample,67800,0,"hat2.wav",50
Sample,67800,0,"hat.wav",50
Sample,67900,0,"msynth1.wav",50
Sample,68000,0,"openhat.wav",50
Sample,68200,0,"hat.wav",50
Sample,68200,0,"msynth1.wav",50
Sample,68200,0,"hat2.wav",50
Sample,68500,0,"msynth1.wav",50
Sample,68600,0,"openhat.wav",50
Sample,68600,0,"hat.wav",50
Sample,68600,0,"hat2.wav",50
Sample,68800,0,"msynth1.wav",50
Sample,69000,0,"hat.wav",50
Sample,69000,0,"hat2.wav",50
Sample,69100,0,"msynth1.wav",50
Sample,69400,0,"hat2.wav",50
Sample,69400,0,"hat.wav",50
Sample,69400,0,"msynth1.wav",50
Sample,69700,0,"msynth1.wav",50
Sample,69800,0,"hat2.wav",50
Sample,69800,0,"hat.wav",50
Sample,70000,0,"msynth1.wav",50
Sample,70200,0,"hat2.wav",50
Sample,70200,0,"hat.wav",50
Sample,70300,0,"hat.wav",50
Sample,70400,0,"msynth10.wav",50
Sample,70600,0,"hat2.wav",50
Sample,70600,0,"openhat.wav",50
Sample,70600,0,"hat.wav",50
Sample,70800,0,"msynth10.wav",50
Sample,71000,0,"hat2.wav",50
Sample,71000,0,"hat.wav",50
Sample,71100,0,"msynth10.wav",50
Sample,71200,0,"openhat.wav",50
Sample,71400,0,"msynth10.wav",50
Sample,71400,0,"hat.wav",50
Sample,71400,0,"hat2.wav",50
Sample,71700,0,"msynth10.wav",50
Sample,71800,0,"hat.wav",50
Sample,71800,0,"openhat.wav",50
Sample,71800,0,"hat2.wav",50
Sample,72000,0,"msynth11.wav",50
Sample,72100,0,"msynth15.wav",50
Sample,72200,0,"hat.wav",50
Sample,72200,0,"hat2.wav",50
Sample,72400,0,"msynth11.wav",50
Sample,72600,0,"hat2.wav",50
Sample,72600,0,"hat.wav",50
Sample,72700,0,"msynth11.wav",50
Sample,73000,0,"msynth11.wav",50
Sample,73000,0,"hat2.wav",50
Sample,73000,0,"hat.wav",50
Sample,73200,0,"openhat.wav",50
Sample,73300,0,"msynth11.wav",50
Sample,73400,0,"hat2.wav",50
Sample,73400,0,"hat.wav",50
Sample,73600,0,"msynth1.wav",50
Sample,73800,0,"openhat.wav",50
Sample,73800,0,"hat.wav",50
Sample,73800,0,"hat2.wav",50
Sample,74000,0,"msynth1.wav",50
Sample,74200,0,"hat2.wav",50
Sample,74200,0,"hat.wav",50
Sample,74300,0,"msynth1.wav",50
Sample,74400,0,"openhat.wav",50
Sample,74600,0,"msynth1.wav",50
Sample,74600,0,"hat2.wav",50
Sample,74600,0,"hat.wav",50
Sample,74900,0,"msynth1.wav",50
Sample,75000,0,"hat2.wav",50
Sample,75000,0,"openhat.wav",50
Sample,75000,0,"hat.wav",50
Sample,75200,0,"msynth1.wav",50
Sample,75400,0,"hat2.wav",50
Sample,75400,0,"hat.wav",50
Sample,75500,0,"msynth1.wav",50
Sample,75800,0,"hat2.wav",50
Sample,75800,0,"msynth1.wav",50
Sample,75800,0,"hat.wav",50
Sample,76100,0,"msynth1.wav",50
Sample,76200,0,"hat2.wav",50
Sample,76200,0,"hat.wav",50
Sample,76600,0,"hat2.wav",50
Sample,76600,0,"hat.wav",50
Sample,76700,0,"msynth18.wav",50
Sample,76800,0,"msynth10.wav",50
Sample,77000,0,"hat2.wav",50
Sample,77000,0,"openhat.wav",50
Sample,77000,0,"hat.wav",50
Sample,77200,0,"msynth10.wav",50
Sample,77400,0,"hat2.wav",50
Sample,77400,0,"hat.wav",50
Sample,77500,0,"msynth10.wav",50
Sample,77600,0,"openhat.wav",50
Sample,77800,0,"msynth10.wav",50
Sample,77800,0,"hat2.wav",50
Sample,77800,0,"hat.wav",50
Sample,78100,0,"msynth10.wav",50
Sample,78200,0,"openhat.wav",50
Sample,78200,0,"hat2.wav",50
Sample,78200,0,"hat.wav",50
Sample,78400,0,"msynth11.wav",50
Sample,78500,0,"msynth15.wav",50
Sample,78600,0,"hat.wav",50
Sample,78600,0,"hat2.wav",50
Sample,78800,0,"msynth11.wav",50
Sample,79000,0,"hat.wav",50
Sample,79000,0,"hat2.wav",50
Sample,79100,0,"msynth11.wav",50
Sample,79400,0,"hat2.wav",50
Sample,79400,0,"hat.wav",50
Sample,79400,0,"msynth11.wav",50
Sample,79600,0,"msynth17.wav",50
Sample,79700,0,"msynth11.wav",50
Sample,79800,0,"hat2.wav",50
Sample,79800,0,"hat.wav",50
Sample,79900,0,"hat.wav",50
Sample,80200,0,"hat2.wav",50
Sample,80200,0,"openhat.wav",50
Sample,80400,0,"snare.wav",50
Sample,80600,0,"hat2.wav",50
Sample,80800,0,"openhat.wav",50
Sample,81000,0,"hat2.wav",50
Sample,81200,0,"snare.wav",50
Sample,81400,0,"openhat.wav",50
Sample,81400,0,"hat2.wav",50
Sample,81800,0,"hat2.wav",50
Sample,82000,0,"snare.wav",50
Sample,82200,0,"hat2.wav",50
Sample,82600,0,"hat2.wav",50
Sample,82800,0,"snare.wav",50
Sample,83000,0,"hat2.wav",50
Sample,83100,0,"snare.wav",50
Sample,83400,0,"openhat.wav",50
Sample,83400,0,"hat2.wav",50
Sample,83600,0,"snare.wav",50
Sample,83800,0,"hat2.wav",50
Sample,84000,0,"openhat.wav",50
Sample,84200,0,"hat2.wav",50
Sample,84400,0,"snare.wav",50
Sample,84600,0,"openhat.wav",50
Sample,84600,0,"hat2.wav",50
Sample,85000,0,"hat2.wav",50
Sample,85200,0,"snare.wav",50
Sample,85400,0,"hat2.wav",50
Sample,85700,0,"snare.wav",50
Sample,85800,0,"hat2.wav",50
Sample,86000,0,"snare.wav",50
Sample,86000,0,"openhat.wav",50
Sample,86200,0,"hat2.wav",50
Sample,86600,0,"openhat.wav",50
Sample,86600,0,"hat2.wav",50
Sample,86800,0,"snare.wav",50
Sample,87000,0,"hat2.wav",50
Sample,87200,0,"openhat.wav",50
Sample,87400,0,"hat2.wav",50
Sample,87600,0,"snare.wav",50
Sample,87800,0,"hat2.wav",50
Sample,87800,0,"openhat.wav",50
Sample,88200,0,"hat2.wav",50
Sample,88400,0,"snare.wav",50
Sample,88600,0,"hat2.wav",50
Sample,89000,0,"hat2.wav",50
Sample,89200,0,"snare.wav",50
Sample,89400,0,"hat2.wav",50
Sample,89500,0,"snare.wav",50
Sample,89800,0,"openhat.wav",50
Sample,89800,0,"hat2.wav",50
Sample,90000,0,"snare.wav",50
Sample,90200,0,"hat2.wav",50
Sample,90400,0,"openhat.wav",50
Sample,90600,0,"hat2.wav",50
Sample,90800,0,"snare.wav",50
Sample,91000,0,"openhat.wav",50
Sample,91000,0,"hat2.wav",50
Sample,91400,0,"hat2.wav",50
Sample,91600,0,"snare.wav",50
Sample,91800,0,"hat2.wav",50
Sample,92100,0,"snare.wav",50
Sample,92200,0,"hat2.wav",50
Sample,92400,0,"openhat.wav",50
Sample,92400,0,"snare.wav",50
Sample,92600,0,"hat2.wav",50
Sample,92700,0,"snare.wav",50
Sample,93000,0,"openhat.wav",50
Sample,93200,0,"snare.wav",50
Sample,93200,0,"kick.wav",50
Sample,93600,0,"openhat.wav",50
Sample,93600,0,"kick.wav",50
Sample,94000,0,"snare.wav",50
Sample,94000,0,"kick.wav",50
Sample,94200,0,"openhat.wav",50
Sample,94400,0,"kick.wav",50
Sample,94800,0,"kick.wav",50
Sample,94800,0,"snare.wav",50
Sample,95200,0,"kick.wav",50
Sample,95600,0,"snare.wav",50
Sample,95600,0,"kick.wav",50
Sample,95900,0,"snare.wav",50
Sample,95900,0,"hat.wav",50
Sample,96000,0,"kick.wav",50
Sample,96200,0,"openhat.wav",50
Sample,96400,0,"snare.wav",50
Sample,96400,0,"kick.wav",50
Sample,96800,0,"openhat.wav",50
Sample,96800,0,"kick.wav",50
Sample,97200,0,"kick.wav",50
Sample,97200,0,"snare.wav",50
Sample,97400,0,"openhat.wav",50
Sample,97600,0,"kick.wav",50
Sample,98000,0,"snare.wav",50
Sample,98000,0,"kick.wav",50
Sample,98400,0,"kick.wav",50
Sample,98500,0,"snare.wav",50
Sample,98800,0,"snare.wav",50
Sample,98800,0,"kick.wav",50
Sample,98800,0,"openhat.wav",50
Sample,99100,0,"hat.wav",50
Sample,99200,0,"kick.wav",50
Sample,99400,0,"openhat.wav",50
Sample,99600,0,"kick.wav",50
Sample,99600,0,"snare.wav",50
Sample,100000,0,"openhat.wav",50
Sample,100000,0,"kick.wav",50
Sample,100400,0,"snare.wav",50
Sample,100400,0,"kick.wav",50
Sample,100600,0,"openhat.wav",50
Sample,100800,0,"kick.wav",50
Sample,101200,0,"snare.wav",50
Sample,101200,0,"kick.wav",50
Sample,101600,0,"kick.wav",50
Sample,102000,0,"snare.wav",50
Sample,102000,0,"kick.wav",50
Sample,102300,0,"snare.wav",50
Sample,102300,0,"hat.wav",50
Sample,102400,0,"kick.wav",50
Sample,102600,0,"openhat.wav",50
Sample,102800,0,"kick.wav",50
Sample,102800,0,"snare.wav",50
Sample,103200,0,"kick.wav",50
Sample,103200,0,"openhat.wav",50
Sample,103600,0,"snare.wav",50
Sample,103600,0,"kick.wav",50
Sample,103800,0,"openhat.wav",50
Sample,104000,0,"kick.wav",50
Sample,104400,0,"snare.wav",50
Sample,104400,0,"kick.wav",50
Sample,104800,0,"kick.wav",50
Sample,104900,0,"snare.wav",50
Sample,105100,0,"kick.wav",50
Sample,105200,0,"kick.wav",50
Sample,105200,0,"openhat.wav",50
Sample,105200,0,"snare.wav",50
Sample,105400,0,"kick.wav",50
Sample,105500,0,"hat.wav",50
Sample,105500,0,"snare.wav",50
Sample,105800,0,"hat.wav",50
Sample,105800,0,"hat2.wav",50
Sample,105800,0,"openhat.wav",50
Sample,106000,0,"snare.wav",50
Sample,106200,0,"hat2.wav",50
Sample,106200,0,"hat.wav",50
Sample,106400,0,"openhat.wav",50
Sample,106600,0,"hat.wav",50
Sample,106600,0,"hat2.wav",50
Sample,106800,0,"snare.wav",50
Sample,107000,0,"openhat.wav",50
Sample,107000,0,"hat.wav",50
Sample,107000,0,"hat2.wav",50
Sample,107400,0,"hat2.wav",50
Sample,107400,0,"hat.wav",50
Sample,107600,0,"snare.wav",50
Sample,107800,0,"hat2.wav",50
Sample,107800,0,"hat.wav",50
Sample,108200,0,"hat2.wav",50
Sample,108200,0,"hat.wav",50
Sample,108400,0,"snare.wav",50
Sample,108600,0,"hat2.wav",50
Sample,108600,0,"hat.wav",50
Sample,108700,0,"hat.wav",50
Sample,108700,0,"snare.wav",50
Sample,109000,0,"hat.wav",50
Sample,109000,0,"openhat.wav",50
Sample,109000,0,"hat2.wav",50
Sample,109200,0,"snare.wav",50
Sample,109400,0,"hat.wav",50
Sample,109400,0,"hat2.wav",50
Sample,109600,0,"openhat.wav",50
Sample,109800,0,"hat2.wav",50
Sample,109800,0,"hat.wav",50
Sample,110000,0,"snare.wav",50
Sample,110200,0,"openhat.wav",50
Sample,110200,0,"hat2.wav",50
Sample,110200,0,"hat.wav",50
Sample,110600,0,"hat.wav",50
Sample,110600,0,"hat2.wav",50
Sample,110800,0,"snare.wav",50
Sample,111000,0,"hat2.wav",50
Sample,111000,0,"hat.wav",50
Sample,111300,0,"snare.wav",50
Sample,111400,0,"hat2.wav",50
Sample,111400,0,"hat.wav",50
Sample,111600,0,"openhat.wav",50
Sample,111600,0,"snare.wav",50
Sample,111800,0,"hat2.wav",50
Sample,111800,0,"hat.wav",50
Sample,111900,0,"hat.wav",50
Sample,112200,0,"hat.wav",50
Sample,112200,0,"openhat.wav",50
Sample,112200,0,"hat2.wav",50
Sample,112400,0,"snare.wav",50
Sample,112600,0,"hat2.wav",50
Sample,112600,0,"hat.wav",50
Sample,112800,0,"openhat.wav",50
Sample,113000,0,"hat2.wav",50
Sample,113000,0,"hat.wav",50
Sample,113200,0,"snare.wav",50
Sample,113400,0,"hat2.wav",50
Sample,113400,0,"openhat.wav",50
Sample,113400,0,"hat.wav",50
Sample,113800,0,"hat2.wav",50
Sample,113800,0,"hat.wav",50
Sample,114000,0,"snare.wav",50
Sample,114200,0,"hat2.wav",50
Sample,114200,0,"hat.wav",50
Sample,114600,0,"hat.wav",50
Sample,114600,0,"hat2.wav",50
Sample,114800,0,"snare.wav",50
Sample,115000,0,"hat.wav",50
Sample,115000,0,"hat2.wav",50
Sample,115100,0,"snare.wav",50
Sample,115400,0,"hat2.wav",50
Sample,115400,0,"hat.wav",50
Sample,115400,0,"openhat.wav",50
Sample,115600,0,"snare.wav",50
Sample,115800,0,"hat2.wav",50
Sample,115800,0,"hat.wav",50
Sample,116000,0,"openhat.wav",50
Sample,116200,0,"hat2.wav",50
Sample,116200,0,"hat.wav",50
Sample,116400,0,"snare.wav",50
Sample,116600,0,"openhat.wav",50
Sample,116600,0,"hat2.wav",50
Sample,116600,0,"hat.wav",50
Sample,117000,0,"hat.wav",50
Sample,117000,0,"hat2.wav",50
Sample,117200,0,"snare.wav",50
Sample,117400,0,"hat.wav",50
Sample,117400,0,"hat2.wav",50
Sample,117700,0,"snare.wav",50
Sample,117800,0,"hat2.wav",50
Sample,117800,0,"hat.wav",50
Sample,118000,0,"openhat.wav",50
Sample,118000,0,"snare.wav",50
Sample,118200,0,"hat2.wav",50
Sample,118200,0,"hat.wav",50
Sample,118300,0,"hat.wav",50
Sample,118300,0,"snare.wav",50
Sample,118400,0,"kick.wav",50
Sample,118400,0,"msynth1.wav",50
Sample,118600,0,"hat2.wav",50
Sample,118600,0,"openhat.wav",50
Sample,118800,0,"snare.wav",50
Sample,118800,0,"msynth1.wav",50
Sample,118800,0,"kick.wav",50
Sample,119000,0,"hat2.wav",50
Sample,119100,0,"msynth1.wav",50
Sample,119200,0,"kick.wav",50
Sample,119200,0,"openhat.wav",50
Sample,119400,0,"msynth1.wav",50
Sample,119400,0,"hat2.wav",50
Sample,119600,0,"snare.wav",50
Sample,119600,0,"kick.wav",50
Sample,119700,0,"msynth1.wav",50
Sample,119800,0,"openhat.wav",50
Sample,119800,0,"hat2.wav",50
Sample,120000,0,"kick.wav",50
Sample,120000,0,"msynth1.wav",50
Sample,120200,0,"hat2.wav",50
Sample,120300,0,"msynth1.wav",50
Sample,120400,0,"kick.wav",50
Sample,120400,0,"snare.wav",50
Sample,120600,0,"hat2.wav",50
Sample,120600,0,"msynth1.wav",50
Sample,120800,0,"kick.wav",50
Sample,120900,0,"msynth1.wav",50
Sample,121000,0,"hat2.wav",50
Sample,121200,0,"snare.wav",50
Sample,121200,0,"kick.wav",50
Sample,121200,0,"msynth1.wav",50
Sample,121400,0,"hat2.wav",50
Sample,121500,0,"snare.wav",50
Sample,121600,0,"kick.wav",50
Sample,121600,0,"msynth10.wav",50
Sample,121800,0,"hat2.wav",50
Sample,121800,0,"openhat.wav",50
Sample,122000,0,"kick.wav",50
Sample,122000,0,"msynth10.wav",50
Sample,122000,0,"snare.wav",50
Sample,122200,0,"hat2.wav",50
Sample,122300,0,"msynth10.wav",50
Sample,122400,0,"openhat.wav",50
Sample,122400,0,"kick.wav",50
Sample,122600,0,"msynth10.wav",50
Sample,122600,0,"hat2.wav",50
Sample,122800,0,"kick.wav",50
Sample,122800,0,"snare.wav",50
Sample,122900,0,"msynth10.wav",50
Sample,123000,0,"openhat.wav",50
Sample,123000,0,"hat2.wav",50
Sample,123200,0,"kick.wav",50
Sample,123200,0,"msynth11.wav",50
Sample,123300,0,"msynth15.wav",50
Sample,123400,0,"hat2.wav",50
Sample,123600,0,"msynth11.wav",50
Sample,123600,0,"snare.wav",50
Sample,123600,0,"kick.wav",50
Sample,123800,0,"hat2.wav",50
Sample,123900,0,"msynth11.wav",50
Sample,124000,0,"kick.wav",50
Sample,124100,0,"snare.wav",50
Sample,124200,0,"msynth11.wav",50
Sample,124200,0,"hat2.wav",50
Sample,124400,0,"kick.wav",50
Sample,124400,0,"openhat.wav",50
Sample,124400,0,"snare.wav",50
Sample,124500,0,"msynth11.wav",50
Sample,124600,0,"hat2.wav",50
Sample,124800,0,"kick.wav",50
Sample,124800,0,"msynth1.wav",50
Sample,125000,0,"hat2.wav",50
Sample,125000,0,"openhat.wav",50
Sample,125200,0,"msynth1.wav",50
Sample,125200,0,"kick.wav",50
Sample,125200,0,"snare.wav",50
Sample,125400,0,"hat2.wav",50
Sample,125500,0,"msynth1.wav",50
Sample,125600,0,"kick.wav",50
Sample,125600,0,"openhat.wav",50
Sample,125800,0,"msynth1.wav",50
Sample,125800,0,"hat2.wav",50
Sample,126000,0,"snare.wav",50
Sample,126000,0,"kick.wav",50
Sample,126100,0,"msynth1.wav",50
Sample,126200,0,"hat2.wav",50
Sample,126200,0,"openhat.wav",50
Sample,126400,0,"kick.wav",50
Sample,126400,0,"msynth1.wav",50
Sample,126600,0,"hat2.wav",50
Sample,126700,0,"msynth1.wav",50
Sample,126800,0,"kick.wav",50
Sample,126800,0,"snare.wav",50
Sample,127000,0,"msynth1.wav",50
Sample,127000,0,"hat2.wav",50
Sample,127200,0,"kick.wav",50
Sample,127300,0,"msynth1.wav",50
Sample,127400,0,"hat2.wav",50
Sample,127600,0,"snare.wav",50
Sample,127600,0,"kick.wav",50
Sample,127800,0,"hat2.wav",50
Sample,127900,0,"msynth18.wav",50
Sample,127900,0,"snare.wav",50
Sample,128000,0,"kick.wav",50
Sample,128000,0,"msynth10.wav",50
Sample,128200,0,"hat2.wav",50
Sample,128200,0,"openhat.wav",50
Sample,128400,0,"snare.wav",50
Sample,128400,0,"msynth10.wav",50
Sample,128400,0,"kick.wav",50
Sample,128600,0,"hat2.wav",50
Sample,128700,0,"msynth10.wav",50
Sample,128800,0,"openhat.wav",50
Sample,128800,0,"kick.wav",50
Sample,129000,0,"hat2.wav",50
Sample,129000,0,"msynth10.wav",50
Sample,129200,0,"snare.wav",50
Sample,129200,0,"kick.wav",50
Sample,129300,0,"msynth10.wav",50
Sample,129400,0,"hat2.wav",50
Sample,129400,0,"openhat.wav",50
Sample,129600,0,"kick.wav",50
Sample,129600,0,"msynth11.wav",50
Sample,129700,0,"msynth15.wav",50
Sample,129800,0,"hat2.wav",50
Sample,130000,0,"kick.wav",50
Sample,130000,0,"msynth11.wav",50
Sample,130000,0,"snare.wav",50
Sample,130200,0,"hat2.wav",50
Sample,130300,0,"msynth11.wav",50
Sample,130400,0,"kick.wav",50
Sample,130500,0,"snare.wav",50
Sample,130600,0,"msynth11.wav",50
Sample,130600,0,"hat2.wav",50
Sample,130700,0,"kick.wav",50
Sample,130800,0,"msynth17.wav",50
Sample,130800,0,"kick.wav",50
Sample,130800,0,"snare.wav",50
Sample,130800,0,"openhat.wav",50
Sample,130900,0,"msynth11.wav",50
Sample,131000,0,"hat2.wav",50
Sample,131000,0,"kick.wav",50
Sample,131100,0,"snare.wav",50
//Background Colour Transformations
3,100,163,162,255

[TimingPoints]
0,400,4,2,0,100,1,0
54400,-100,4,2,0,100,0,1
80000,-100,4,2,0,100,0,0
105600,-100,4,2,0,100,0,1
131200,-100,4,2,0,100,0,0

[HitObjects]
64,192,2800,5,0,0:0:0:100:piano-02.wav
192,192,2900,1,0,0:0:0:100:piano-09.wav
320,192,3000,1,0,0:0:0:100:piano-03.wav
448,192,3100,1,0,0:0:0:100:piano-04.wav
64,192,3200,1,0,0:0:0:100:piano-01.wav
320,192,3200,1,0,0:0:0:100:piano-15.wav
192,192,3400,1,0,0:0:0:100:piano-02.wav
320,192,3600,1,0,0:0:0:100:piano-03.wav
448,192,3800,1,0,0:0:0:100:piano-04.wav
64,192,4200,1,0,0:0:0:100:piano-15.wav
320,192,4400,1,0,0:0:0:100:piano-16.wav
192,192,4600,1,0,0:0:0:100:piano-17.wav
64,192,5000,1,0,0:0:0:100:piano-15.wav
64,192,5800,1,0,0:0:0:100:piano-15.wav
448,192,6000,1,0,0:0:0:100:piano-18.wav
64,192,6200,1,0,0:0:0:100:piano-15.wav
192,192,6400,1,0,0:0:0:100:piano-05.wav
320,192,6400,1,0,0:0:0:100:piano-18.wav
448,192,6450,1,0,0:0:0:100:piano-19.wav
64,192,6600,1,0,0:0:0:100:piano-06.wav
192,192,6800,1,0,0:0:0:100:piano-07.wav
64,192,7000,1,0,0:0:0:100:piano-20.wav
320,192,7000,1,0,0:0:0:100:piano-08.wav
192,192,7200,1,0,0:0:0:100:piano-19.wav
64,192,7400,1,0,0:0:0:100:piano-09.wav
448,192,7400,1,0,0:0:0:100:piano-21.wav
448,192,7800,1,0,0:0:0:100:piano-17.wav
64,192,8000,1,0,0:0:0:100:piano-10.wav
64,192,8200,1,0,0:0:0:100:piano-22.wav
192,192,8200,1,0,0:0:0:100:piano-11.wav
192,192,8400,1,0,0:0:0:100:piano-12.wav
320,192,8400,1,0,0:0:0:100:piano-18.wav
320,192,8600,1,0,0:0:0:100:piano-13.wav
448,192,8600,1,0,0:0:0:100:piano-16.wav
448,192,9000,1,0,0:0:0:100:piano-17.wav
320,192,9200,1,0,0:0:0:100:piano-18.wav
192,192,9400,1,0,0:0:0:100:piano-15.wav
64,192,9600,1,0,0:0:0:100:piano-01.wav
192,192,9800,1,0,0:0:0:100:piano-02.wav
320,192,10000,1,0,0:0:0:100:piano-03.wav
64,192,10200,1,0,0:0:0:100:piano-04.wav
448,192,10200,1,0,0:0:0:100:piano-23.wav
448,192,10600,1,0,0:0:0:100:piano-21.wav
64,192,10800,1,0,0:0:0:100:piano-17.wav
192,192,11000,1,0,0:0:0:100:piano-16.wav
64,192,11400,1,0,0:0:0:100:piano-15.wav
192,192,11600,1,0,0:0:0:100:piano-17.wav
320,192,11800,1,0,0:0:0:100:piano-16.wav
64,192,12200,1,0,0:0:0:100:piano-15.wav
320,192,12200,1,0,0:0:0:100:piano-23.wav
192,192,12400,1,0,0:0:0:100:piano-18.wav
448,192,12400,1,0,0:0:0:100:piano-24.wav
64,192,12600,1,0,0:0:0:100:piano-15.wav
320,192,12600,1,0,0:0:0:100:piano-23.wav
64,192,12800,1,0,0:0:0:100:piano-05.wav
192,192,12800,1,0,0:0:0:100:piano-19.wav
448,192,12800,1,0,0:0:0:100:piano-25.wav
320,192,13000,1,0,0:0:0:100:piano-06.wav
192,192,13200,1,0,0:0:0:100:piano-07.wav
64,192,13400,1,0,0:0:0:100:piano-08.wav
320,192,13400,1,0,0:0:0:100:piano-20.wav
448,192,13400,1,0,0:0:0:100:piano-26.wav
64,192,13800,1,0,0:0:0:100:piano-09.wav
192,192,13800,1,0,0:0:0:100:piano-23.wav
448,192,13800,1,0,0:0:0:100:piano-27.wav
192,192,14200,1,0,0:0:0:100:piano-29.wav
448,192,14200,1,0,0:0:0:100:piano-28.wav
64,192,14400,1,0,0:0:0:100:piano-10.wav
192,192,14600,1,0,0:0:0:100:piano-11.wav
320,192,14800,1,0,0:0:0:100:piano-12.wav
64,192,15000,1,0,0:0:0:100:piano-13.wav
192,192,15000,1,0,0:0:0:100:piano-24.wav
448,192,15000,1,0,0:0:0:100:piano-30.wav
320,192,15400,1,0,0:0:0:100:piano-16.wav
448,192,15400,1,0,0:0:0:100:piano-31.wav
192,192,15600,1,0,0:0:0:100:piano-17.wav
320,192,15600,1,0,0:0:0:100:piano-32.wav
64,192,15800,1,0,0:0:0:100:piano-25.wav
192,192,15800,1,0,0:0:0:100:piano-19.wav
64,192,16000,1,0,0:0:0:100:kick.wav
192,192,16000,1,0,0:0:0:100:shot-01.wav
320,192,16000,1,0,0:0:0:100:piano-01.wav
448,192,16000,1,0,0:0:0:100:piano-14.wav
192,192,16200,1,0,0:0:0:100:shot-02.wav
448,192,16200,1,0,0:0:0:100:hat.wav
64,192,16400,1,0,0:0:0:100:kick.wav
320,192,16400,1,0,0:0:0:100:shot-03.wav
320,192,16500,1,0,0:0:0:100:shot-02.wav
448,192,16600,1,0,0:0:0:100:hat.wav
192,192,16700,1,0,0:0:0:100:shot-04.wav
64,192,16800,1,0,0:0:0:100:kick.wav
320,192,16800,1,0,0:0:0:100:shot-05.wav
192,192,17000,1,0,0:0:0:100:shot-03.wav
448,192,17000,1,0,0:0:0:100:hat.wav
192,192,17100,1,0,0:0:0:100:shot-02.wav
64,192,17200,1,0,0:0:0:100:kick.wav
320,192,17300,1,0,0:0:0:100:shot-03.wav
192,192,17400,1,0,0:0:0:100:shot-06.wav
448,192,17400,1,0,0:0:0:100:hat.wav
64,192,17600,1,0,0:0:0:100:kick.wav
320,192,17600,1,0,0:0:0:100:shot-01.wav
192,192,17800,1,0,0:0:0:100:shot-05.wav
448,192,17800,1,0,0:0:0:100:hat.wav
64,192,18000,1,0,0:0:0:100:kick.wav
320,192,18000,1,0,0:0:0:100:shot-03.wav
320,192,18100,1,0,0:0:0:100:shot-02.wav
448,192,18200,1,0,0:0:0:100:hat.wav
192,192,18300,1,0,0:0:0:100:shot-05.wav
64,192,18400,1,0,0:0:0:100:kick.wav
192,192,18500,1,0,0:0:0:100:shot-03.wav
192,192,18600,1,0,0:0:0:100:shot-02.wav
448,192,18600,1,0,0:0:0:100:hat.wav
64,192,18800,1,0,0:0:0:100:kick.wav
192,192,18800,1,0,0:0:0:100:shot-03.wav
320,192,18900,1,0,0:0:0:100:shot-06.wav
448,192,19000,1,0,0:0:0:100:hat.wav
320,192,19100,1,0,0:0:0:100:shot-06.wav
448,192,19100,1,0,0:0:0:100:hat.wav
64,192,19200,1,0,0:0:0:100:kick.wav
192,192,19200,1,0,0:0:0:100:shot-01.wav
192,192,19400,1,0,0:0:0:100:shot-02.wav
448,192,19400,1,0,0:0:0:100:hat.wav
64,192,19600,1,0,0:0:0:100:kick.wav
320,192,19600,1,0,0:0:0:100:shot-03.wav
192,192,19700,1,0,0:0:0:100:shot-06.wav
448,192,19800,1,0,0:0:0:100:hat.wav
320,192,19900,1,0,0:0:0:100:shot-07.wav
64,192,20000,1,0,0:0:0:100:kick.wav
192,192,20000,1,0,0:0:0:100:shot-06.wav
320,192,20100,1,0,0:0:0:100:shot-08.wav
448,192,20200,1,0,0:0:0:100:hat.wav
192,192,20300,1,0,0:0:0:100:shot-04.wav
64,192,20400,1,0,0:0:0:100:kick.wav
320,192,20500,1,0,0:0:0:100:shot-03.wav
192,192,20600,1,0,0:0:0:100:shot-02.wav
448,192,20600,1,0,0:0:0:100:hat.wav
192,192,20700,1,0,0:0:0:100:shot-05.wav
64,192,20800,1,0,0:0:0:100:kick.wav
320,192,20800,1,0,0:0:0:100:shot-03.wav
192,192,20900,1,0,0:0:0:100:shot-02.wav
192,192,21000,1,0,0:0:0:100:shot-05.wav
448,192,21000,1,0,0:0:0:100:hat.wav
64,192,21200,1,0,0:0:0:100:kick.wav
320,192,21200,1,0,0:0:0:100:shot-02.wav
192,192,21300,1,0,0:0:0:100:shot-05.wav
448,192,21400,1,0,0:0:0:100:hat.wav
320,192,21500,1,0,0:0:0:100:shot-02.wav
64,192,21600,1,0,0:0:0:100:kick.wav
192,192,21600,1,0,0:0:0:100:shot-03.wav
320,192,21700,1,0,0:0:0:100:shot-02.wav
192,192,21800,1,0,0:0:0:100:shot-09.wav
448,192,21800,1,0,0:0:0:100:hat.wav
64,192,22000,1,0,0:0:0:100:kick.wav
192,192,22000,1,0,0:0:0:100:shot-03.wav
320,192,22100,1,0,0:0:0:100:shot-02.wav
192,192,22200,1,0,0:0:0:100:shot-03.wav
448,192,22200,1,0,0:0:0:100:hat.wav
320,192,22300,1,0,0:0:0:100:shot-06.wav
448,192,22300,1,0,0:0:0:100:hat.wav
64,192,22400,1,0,0:0:0:100:kick.wav
192,192,22400,1,0,0:0:0:100:shot-01.wav
192,192,22600,1,0,0:0:0:100:shot-02.wav
448,192,22600,1,0,0:0:0:100:hat.wav
64,192,22800,1,0,0:0:0:100:kick.wav
320,192,22800,1,0,0:0:0:100:shot-03.wav
320,192,22900,1,0,0:0:0:100:shot-02.wav
448,192,23000,1,0,0:0:0:100:hat.wav
320,192,23100,1,0,0:0:0:100:shot-04.wav
64,192,23200,1,0,0:0:0:100:kick.wav
192,192,23200,1,0,0:0:0:100:shot-05.wav
192,192,23400,1,0,0:0:0:100:shot-03.wav
448,192,23400,1,0,0:0:0:100:hat.wav
192,192,23500,1,0,0:0:0:100:shot-02.wav
64,192,23600,1,0,0:0:0:100:kick.wav
192,192,23700,1,0,0:0:0:100:shot-03.wav
320,192,23800,1,0,0:0:0:100:shot-06.wav
448,192,23800,1,0,0:0:0:100:hat.wav
64,192,24000,1,0,0:0:0:100:kick.wav
320,192,24000,1,0,0:0:0:100:shot-01.wav
192,192,24200,1,0,0:0:0:100:shot-05.wav
448,192,24200,1,0,0:0:0:100:hat.wav
64,192,24400,1,0,0:0:0:100:kick.wav
320,192,24400,1,0,0:0:0:100:shot-03.wav
320,192,24500,1,0,0:0:0:100:shot-02.wav
448,192,24600,1,0,0:0:0:100:hat.wav
320,192,24700,1,0,0:0:0:100:shot-05.wav
64,192,24800,1,0,0:0:0:100:kick.wav
192,192,24900,1,0,0:0:0:100:shot-03.wav
192,192,25000,1,0,0:0:0:100:shot-02.wav
448,192,25000,1,0,0:0:0:100:hat.wav
64,192,25200,1,0,0:0:0:100:kick.wav
192,192,25200,1,0,0:0:0:100:shot-03.wav
320,192,25300,1,0,0:0:0:100:shot-06.wav
448,192,25400,1,0,0:0:0:100:hat.wav
320,192,25500,1,0,0:0:0:100:shot-06.wav
448,192,25500,1,0,0:0:0:100:hat.wav
64,192,25600,1,0,0:0:0:100:kick.wav
192,192,25600,1,0,0:0:0:100:shot-01.wav
320,192,25800,1,0,0:0:0:100:shot-02.wav
448,192,25800,1,0,0:0:0:100:hat.wav
64,192,26000,1,0,0:0:0:100:kick.wav
192,192,26000,1,0,0:0:0:100:shot-03.wav
320,192,26100,1,0,0:0:0:100:shot-06.wav
448,192,26200,1,0,0:0:0:100:hat.wav
320,192,26300,1,0,0:0:0:100:shot-07.wav
64,192,26400,1,0,0:0:0:100:kick.wav
192,192,26400,1,0,0:0:0:100:shot-06.wav
320,192,26500,1,0,0:0:0:100:shot-08.wav
448,192,26600,1,0,0:0:0:100:hat.wav
192,192,26700,1,0,0:0:0:100:shot-04.wav
64,192,26800,1,0,0:0:0:100:kick.wav
320,192,26900,1,0,0:0:0:100:shot-03.wav
192,192,27000,1,0,0:0:0:100:shot-02.wav
448,192,27000,1,0,0:0:0:100:hat.wav
192,192,27100,1,0,0:0:0:100:shot-05.wav
64,192,27200,1,0,0:0:0:100:kick.wav
320,192,27200,1,0,0:0:0:100:shot-03.wav
192,192,27300,1,0,0:0:0:100:shot-02.wav
192,192,27400,1,0,0:0:0:100:shot-05.wav
448,192,27400,1,0,0:0:0:100:hat.wav
64,192,27600,1,0,0:0:0:100:kick.wav
320,192,27600,1,0,0:0:0:100:shot-02.wav
192,192,27700,1,0,0:0:0:100:shot-05.wav
448,192,27800,1,0,0:0:0:100:hat.wav
320,192,27900,1,0,0:0:0:100:shot-02.wav
64,192,28000,1,0,0:0:0:100:kick.wav
192,192,28000,1,0,0:0:0:100:shot-03.wav
320,192,28100,1,0,0:0:0:100:shot-02.wav
192,192,28200,1,0,0:0:0:100:shot-09.wav
448,192,28200,1,0,0:0:0:100:hat.wav
64,192,28300,1,0,0:0:0:100:kick.wav
64,192,28400,1,0,0:0:0:100:kick.wav
192,192,28400,1,0,0:0:0:100:shot-03.wav
320,192,28500,1,0,0:0:0:100:shot-02.wav
64,192,28600,1,0,0:0:0:100:kick.wav
192,192,28600,1,0,0:0:0:100:shot-03.wav
448,192,28600,1,0,0:0:0:100:hat.wav
320,192,28700,1,0,0:0:0:100:shot-06.wav
448,192,28700,1,0,0:0:0:100:hat.wav
64,192,28800,1,0,0:0:0:100:kick.wav
192,192,29000,1,0,0:0:0:100:hat.wav
320,192,29000,1,0,0:0:0:100:openhat.wav
448,192,29000,1,0,0:0:0:100:hat2.wav
64,192,29200,1,0,0:0:0:100:kick.wav
320,192,29200,1,0,0:0:0:100:snare.wav
192,192,29400,1,0,0:0:0:100:hat.wav
448,192,29400,1,0,0:0:0:100:hat2.wav
64,192,29600,1,0,0:0:0:100:kick.wav
320,192,29600,1,0,0:0:0:100:openhat.wav
192,192,29800,1,0,0:0:0:100:hat.wav
448,192,29800,1,0,0:0:0:100:hat2.wav
64,192,30000,1,0,0:0:0:100:kick.wav
320,192,30000,1,0,0:0:0:100:snare.wav
192,192,30200,1,0,0:0:0:100:hat.wav
320,192,30200,1,0,0:0:0:100:openhat.wav
448,192,30200,1,0,0:0:0:100:hat2.wav
64,192,30400,1,0,0:0:0:100:kick.wav
192,192,30600,1,0,0:0:0:100:hat.wav
448,192,30600,1,0,0:0:0:100:hat2.wav
64,192,30800,1,0,0:0:0:100:kick.wav
320,192,30800,1,0,0:0:0:100:snare.wav
192,192,31000,1,0,0:0:0:100:hat.wav
448,192,31000,1,0,0:0:0:100:hat2.wav
64,192,31200,1,0,0:0:0:100:kick.wav
192,192,31400,1,0,0:0:0:100:hat.wav
448,192,31400,1,0,0:0:0:100:hat2.wav
64,192,31600,1,0,0:0:0:100:kick.wav
320,192,31600,1,0,0:0:0:100:snare.wav
192,192,31800,1,0,0:0:0:100:hat.wav
448,192,31800,1,0,0:0:0:100:hat2.wav
192,192,31900,1,0,0:0:0:100:hat.wav
320,192,31900,1,0,0:0:0:100:snare.wav
64,192,32000,1,0,0:0:0:100:kick.wav
192,192,32200,1,0,0:0:0:100:hat.wav
320,192,32200,1,0,0:0:0:100:openhat.wav
448,192,32200,1,0,0:0:0:100:hat2.wav
64,192,32400,1,0,0:0:0:100:kick.wav
320,192,32400,1,0,0:0:0:100:snare.wav
192,192,32600,1,0,0:0:0:100:hat.wav
448,192,32600,1,0,0:0:0:100:hat2.wav
64,192,32800,1,0,0:0:0:100:kick.wav
320,192,32800,1,0,0:0:0:100:openhat.wav
192,192,33000,1,0,0:0:0:100:hat.wav
448,192,33000,1,0,0:0:0:100:hat2.wav
64,192,33200,1,0,0:0:0:100:kick.wav
320,192,33200,1,0,0:0:0:100:snare.wav
192,192,33400,1,0,0:0:0:100:hat.wav
320,192,33400,1,0,0:0:0:100:openhat.wav
448,192,33400,1,0,0:0:0:100:hat2.wav
64,192,33600,1,0,0:0:0:100:kick.wav
192,192,33800,1,0,0:0:0:100:hat.wav
448,192,33800,1,0,0:0:0:100:hat2.wav
64,192,34000,1,0,0:0:0:100:kick.wav
320,192,34000,1,0,0:0:0:100:snare.wav
192,192,34200,1,0,0:0:0:100:hat.wav
448,192,34200,1,0,0:0:0:100:hat2.wav
64,192,34400,1,0,0:0:0:100:kick.wav
320,192,34500,1,0,0:0:0:100:snare.wav
192,192,34600,1,0,0:0:0:100:hat.wav
448,192,34600,1,0,0:0:0:100:hat2.wav
64,192,34800,1,0,0:0:0:100:kick.wav
320,192,34800,1,0,0:0:0:100:snare.wav
448,192,34800,1,0,0:0:0:100:openhat.wav
192,192,35000,1,0,0:0:0:100:hat.wav
448,192,35000,1,0,0:0:0:100:hat2.wav
192,192,35100,1,0,0:0:0:100:hat.wav
64,192,35200,1,0,0:0:0:100:kick.wav
192,192,35400,1,0,0:0:0:100:hat.wav
320,192,35400,1,0,0:0:0:100:openhat.wav
448,192,35400,1,0,0:0:0:100:hat2.wav
64,192,35600,1,0,0:0:0:100:kick.wav
320,192,35600,1,0,0:0:0:100:snare.wav
192,192,35800,1,0,0:0:0:100:hat.wav
448,192,35800,1,0,0:0:0:100:hat2.wav
64,192,36000,1,0,0:0:0:100:kick.wav
320,192,36000,1,0,0:0:0:100:openhat.wav
192,192,36200,1,0,0:0:0:100:hat.wav
448,192,36200,1,0,0:0:0:100:hat2.wav
64,192,36400,1,0,0:0:0:100:kick.wav
320,192,36400,1,0,0:0:0:100:snare.wav
192,192,36600,1,0,0:0:0:100:hat.wav
320,192,36600,1,0,0:0:0:100:openhat.wav
448,192,36600,1,0,0:0:0:100:hat2.wav
64,192,36800,1,0,0:0:0:100:kick.wav
192,192,37000,1,0,0:0:0:100:hat.wav
448,192,37000,1,0,0:0:0:100:hat2.wav
64,192,37200,1,0,0:0:0:100:kick.wav
320,192,37200,1,0,0:0:0:100:snare.wav
192,192,37400,1,0,0:0:0:100:hat.wav
448,192,37400,1,0,0:0:0:100:hat2.wav
64,192,37600,1,0,0:0:0:100:kick.wav
192,192,37800,1,0,0:0:0:100:hat.wav
448,192,37800,1,0,0:0:0:100:hat2.wav
64,192,38000,1,0,0:0:0:100:kick.wav
320,192,38000,1,0,0:0:0:100:snare.wav
192,192,38200,1,0,0:0:0:100:hat.wav
448,192,38200,1,0,0:0:0:100:hat2.wav
192,192,38300,1,0,0:0:0:100:hat.wav
320,192,38300,1,0,0:0:0:100:snare.wav
64,192,38400,1,0,0:0:0:100:kick.wav
192,192,38600,1,0,0:0:0:100:hat.wav
320,192,38600,1,0,0:0:0:100:openhat.wav
448,192,38600,1,0,0:0:0:100:hat2.wav
64,192,38800,1,0,0:0:0:100:kick.wav
320,192,38800,1,0,0:0:0:100:snare.wav
192,192,39000,1,0,0:0:0:100:hat.wav
448,192,39000,1,0,0:0:0:100:hat2.wav
64,192,39200,1,0,0:0:0:100:kick.wav
320,192,39200,1,0,0:0:0:100:openhat.wav
192,192,39400,1,0,0:0:0:100:hat.wav
448,192,39400,1,0,0:0:0:100:hat2.wav
64,192,39600,1,0,0:0:0:100:kick.wav
320,192,39600,1,0,0:0:0:100:snare.wav
192,192,39800,1,0,0:0:0:100:hat.wav
320,192,39800,1,0,0:0:0:100:openhat.wav
448,192,39800,1,0,0:0:0:100:hat2.wav
64,192,40000,1,0,0:0:0:100:kick.wav
192,192,40200,1,0,0:0:0:100:hat.wav
448,192,40200,1,0,0:0:0:100:hat2.wav
64,192,40400,1,0,0:0:0:100:kick.wav
320,192,40400,1,0,0:0:0:100:snare.wav
192,192,40600,1,0,0:0:0:100:hat.wav
448,192,40600,1,0,0:0:0:100:hat2.wav
64,192,40800,1,0,0:0:0:100:kick.wav
320,192,40900,1,0,0:0:0:100:snare.wav
192,192,41000,1,0,0:0:0:100:hat.wav
448,192,41000,1,0,0:0:0:100:hat2.wav
64,192,41100,1,0,0:0:0:100:kick.wav
64,192,41200,1,0,0:0:0:100:kick.wav
320,192,41200,1,0,0:0:0:100:snare.wav
448,192,41200,1,0,0:0:0:100:openhat.wav
320,192,41300,1,0,0:0:0:100:snare.wav
64,192,41400,1,0,0:0:0:100:kick.wav
192,192,41400,1,0,0:0:0:100:hat.wav
448,192,41400,1,0,0:0:0:100:hat2.wav
192,192,41500,1,0,0:0:0:100:hat.wav
320,192,41500,1,0,0:0:0:100:snare.wav
64,192,41600,1,0,0:0:0:100:kick.wav
448,192,41600,1,0,0:0:0:100:mshot1.wav
448,192,41800,1,0,0:0:0:100:mshot2.wav
192,192,41900,1,0,0:0:0:100:mshot3.wav
64,192,42000,1,0,0:0:0:100:kick.wav
320,192,42000,1,0,0:0:0:100:mshot4.wav
192,192,42100,1,0,0:0:0:100:mshot5.wav
320,192,42200,1,0,0:0:0:100:mshot6.wav
192,192,42300,1,0,0:0:0:100:mshot4.wav
64,192,42400,1,0,0:0:0:100:kick.wav
448,192,42400,1,0,0:0:0:100:mshot2.wav
192,192,42500,1,0,0:0:0:100:mshot4.wav
320,192,42600,1,0,0:0:0:100:mshot3.wav
192,192,42700,1,0,0:0:0:100:mshot5.wav
64,192,42800,1,0,0:0:0:100:kick.wav
320,192,42800,1,0,0:0:0:100:mshot7.wav
192,192,42900,1,0,0:0:0:100:mshot8.wav
448,192,43000,1,0,0:0:0:100:mshot9.wav
192,192,43100,1,0,0:0:0:100:mshot8.wav
64,192,43200,1,0,0:0:0:100:kick.wav
448,192,43200,1,0,0:0:0:100:mshot7.wav
320,192,43300,1,0,0:0:0:100:mshot8.wav
192,192,43400,1,0,0:0:0:100:mshot9.wav
448,192,43500,1,0,0:0:0:100:mshot7.wav
64,192,43600,1,0,0:0:0:100:kick.wav
192,192,43600,1,0,0:0:0:100:mshot10.wav
320,192,43700,1,0,0:0:0:100:mshot11.wav
192,192,43800,1,0,0:0:0:100:mshot8.wav
320,192,43900,1,0,0:0:0:100:mshot7.wav
64,192,44000,1,0,0:0:0:100:kick.wav
448,192,44000,1,0,0:0:0:100:mshot8.wav
192,192,44100,1,0,0:0:0:100:mshot9.wav
320,192,44200,1,0,0:0:0:100:mshot10.wav
192,192,44300,1,0,0:0:0:100:mshot8.wav
64,192,44400,1,0,0:0:0:100:kick.wav
448,192,44400,1,0,0:0:0:100:mshot9.wav
320,192,44500,1,0,0:0:0:100:mshot10.wav
192,192,44600,1,0,0:0:0:100:mshot11.wav
448,192,44700,1,0,0:0:0:100:mshot4.wav
64,192,44800,1,0,0:0:0:100:kick.wav
192,192,44800,1,0,0:0:0:100:mshot12.wav
320,192,44900,1,0,0:0:0:100:mshot13.wav
192,192,45000,1,0,0:0:0:100:mshot9.wav
320,192,45100,1,0,0:0:0:100:mshot12.wav
64,192,45200,1,0,0:0:0:100:kick.wav
448,192,45200,1,0,0:0:0:100:mshot9.wav
192,192,45300,1,0,0:0:0:100:mshot8.wav
320,192,45400,1,0,0:0:0:100:mshot14.wav
192,192,45500,1,0,0:0:0:100:mshot9.wav
64,192,45600,1,0,0:0:0:100:kick.wav
448,192,45600,1,0,0:0:0:100:mshot12.wav
320,192,45700,1,0,0:0:0:100:mshot8.wav
192,192,45800,1,0,0:0:0:100:mshot14.wav
448,192,45900,1,0,0:0:0:100:mshot9.wav
64,192,46000,1,0,0:0:0:100:kick.wav
192,192,46000,1,0,0:0:0:100:mshot12.wav
448,192,46100,1,0,0:0:0:100:mshot14.wav
192,192,46300,1,0,0:0:0:100:mshot9.wav
64,192,46400,1,0,0:0:0:100:kick.wav
448,192,46400,1,0,0:0:0:100:mshot15.wav
192,192,46500,1,0,0:0:0:100:mshot11.wav
320,192,46600,1,0,0:0:0:100:mshot10.wav
448,192,46700,1,0,0:0:0:100:mshot15.wav
64,192,46800,1,0,0:0:0:100:kick.wav
192,192,46800,1,0,0:0:0:100:mshot16.wav
320,192,46900,1,0,0:0:0:100:mshot10.wav
448,192,47000,1,0,0:0:0:100:mshot15.wav
192,192,47100,1,0,0:0:0:100:mshot16.wav
64,192,47200,1,0,0:0:0:100:kick.wav
320,192,47200,1,0,0:0:0:100:mshot10.wav
448,192,47300,1,0,0:0:0:100:mshot15.wav
192,192,47400,1,0,0:0:0:100:mshot16.wav
320,192,47500,1,0,0:0:0:100:mshot17.wav
64,192,47600,1,0,0:0:0:100:kick.wav
448,192,47600,1,0,0:0:0:100:mshot15.wav
320,192,47700,1,0,0:0:0:100:mshot9.wav
192,192,47800,1,0,0:0:0:100:mshot10.wav
320,192,47900,1,0,0:0:0:100:mshot11.wav
64,192,48000,1,0,0:0:0:100:kick.wav
192,192,48000,1,0,0:0:0:100:mshot18.wav
320,192,48200,1,0,0:0:0:100:mshot9.wav
192,192,48300,1,0,0:0:0:100:mshot19.wav
64,192,48400,1,0,0:0:0:100:kick.wav
320,192,48400,1,0,0:0:0:100:mshot18.wav
448,192,48400,1,0,0:0:0:100:snare.wav
192,192,48500,1,0,0:0:0:100:mshot10.wav
448,192,48600,1,0,0:0:0:100:mshot20.wav
320,192,48700,1,0,0:0:0:100:mshot18.wav
64,192,48800,1,0,0:0:0:100:kick.wav
192,192,48800,1,0,0:0:0:100:mshot9.wav
448,192,48900,1,0,0:0:0:100:mshot18.wav
320,192,49000,1,0,0:0:0:100:mshot19.wav
192,192,49100,1,0,0:0:0:100:mshot10.wav
64,192,49200,1,0,0:0:0:100:kick.wav
320,192,49200,1,0,0:0:0:100:mshot18.wav
448,192,49200,1,0,0:0:0:100:snare.wav
192,192,49300,1,0,0:0:0:100:mshot19.wav
448,192,49400,1,0,0:0:0:100:mshot9.wav
320,192,49500,1,0,0:0:0:100:mshot19.wav
64,192,49600,1,0,0:0:0:100:kick.wav
192,192,49600,1,0,0:0:0:100:mshot18.wav
320,192,49700,1,0,0:0:0:100:mshot19.wav
192,192,49800,1,0,0:0:0:100:mshot9.wav
448,192,49900,1,0,0:0:0:100:mshot18.wav
64,192,50000,1,0,0:0:0:100:kick.wav
192,192,50000,1,0,0:0:0:100:mshot10.wav
320,192,50000,1,0,0:0:0:100:snare.wav
448,192,50100,1,0,0:0:0:100:mshot11.wav
192,192,50200,1,0,0:0:0:100:mshot19.wav
320,192,50300,1,0,0:0:0:100:mshot18.wav
64,192,50400,1,0,0:0:0:100:kick.wav
448,192,50400,1,0,0:0:0:100:mshot8.wav
320,192,50500,1,0,0:0:0:100:mshot9.wav
192,192,50600,1,0,0:0:0:100:mshot5.wav
448,192,50700,1,0,0:0:0:100:mshot8.wav
64,192,50800,1,0,0:0:0:100:kick.wav
192,192,50800,1,0,0:0:0:100:mshot2.wav
320,192,50800,1,0,0:0:0:100:snare.wav
448,192,50900,1,0,0:0:0:100:mshot5.wav
192,192,51000,1,0,0:0:0:100:mshot11.wav
320,192,51100,1,0,0:0:0:100:mshot18.wav
448,192,51100,1,0,0:0:0:100:snare.wav
64,192,51200,1,0,0:0:0:100:kick.wav
192,192,51200,1,0,0:0:0:100:mshot12.wav
320,192,51300,1,0,0:0:0:100:mshot13.wav
448,192,51400,1,0,0:0:0:100:mshot2.wav
192,192,51500,1,0,0:0:0:100:mshot12.wav
64,192,51600,1,0,0:0:0:100:kick.wav
320,192,51600,1,0,0:0:0:100:mshot2.wav
448,192,51600,1,0,0:0:0:100:snare.wav
192,192,51700,1,0,0:0:0:100:mshot3.wav
448,192,51800,1,0,0:0:0:100:mshot21.wav
320,192,51900,1,0,0:0:0:100:mshot2.wav
64,192,52000,1,0,0:0:0:100:kick.wav
448,192,52000,1,0,0:0:0:100:mshot12.wav
320,192,52100,1,0,0:0:0:100:mshot3.wav
192,192,52200,1,0,0:0:0:100:mshot21.wav
320,192,52300,1,0,0:0:0:100:mshot22.wav
64,192,52400,1,0,0:0:0:100:kick.wav
192,192,52400,1,0,0:0:0:100:mshot12.wav
448,192,52400,1,0,0:0:0:100:snare.wav
320,192,52500,1,0,0:0:0:100:mshot22.wav
192,192,52600,1,0,0:0:0:100:mshot23.wav
448,192,52700,1,0,0:0:0:100:mshot5.wav
64,192,52800,1,0,0:0:0:100:kick.wav
192,192,52800,1,0,0:0:0:100:mshot15.wav
320,192,52900,1,0,0:0:0:100:mshot11.wav
448,192,53000,1,0,0:0:0:100:mshot5.wav
192,192,53100,1,0,0:0:0:100:mshot15.wav
64,192,53200,1,0,0:0:0:100:kick.wav
320,192,53200,1,0,0:0:0:100:mshot16.wav
448,192,53200,1,0,0:0:0:100:snare.wav
192,192,53300,1,0,0:0:0:100:mshot5.wav
448,192,53400,1,0,0:0:0:100:mshot15.wav
320,192,53500,1,0,0:0:0:100:mshot16.wav
64,192,53600,1,0,0:0:0:100:kick.wav
192,192,53600,1,0,0:0:0:100:mshot5.wav
320,192,53700,1,0,0:0:0:100:mshot15.wav
448,192,53700,1,0,0:0:0:100:snare.wav
192,192,53800,1,0,0:0:0:100:mshot16.wav
64,192,53900,1,0,0:0:0:100:kick.wav
448,192,53900,1,0,0:0:0:100:mshot23.wav
64,192,54000,1,0,0:0:0:100:kick.wav
320,192,54000,1,0,0:0:0:100:mshot15.wav
448,192,54000,1,0,0:0:0:100:snare.wav
192,192,54100,1,0,0:0:0:100:mshot2.wav
64,192,54200,1,0,0:0:0:100:kick.wav
448,192,54200,1,0,0:0:0:100:mshot5.wav
192,192,54300,1,0,0:0:0:100:mshot11.wav
320,192,54300,1,0,0:0:0:100:snare.wav
64,192,54400,1,0,0:0:0:100:msynth1.wav
448,192,54400,1,0,0:0:0:100:kick.wav
320,192,54600,128,0,54900:0:0:0:100:msynth2.wav
64,192,54800,1,0,0:0:0:100:msynth1.wav
192,192,54900,128,0,55200:0:0:0:100:msynth3.wav
448,192,55100,1,0,0:0:0:100:msynth1.wav
64,192,55200,128,0,55500:0:0:0:100:msynth4.wav
320,192,55400,1,0,0:0:0:100:msynth1.wav
192,192,55500,128,0,55800:0:0:0:100:msynth3.wav
448,192,55700,1,0,0:0:0:100:msynth1.wav
320,192,55800,128,0,56100:0:0:0:100:msynth2.wav
64,192,56000,1,0,0:0:0:100:msynth1.wav
448,192,56100,128,0,56400:0:0:0:100:msynth5.wav
192,192,56300,1,0,0:0:0:100:msynth1.wav
320,192,56400,128,0,56700:0:0:0:100:msynth6.wav
64,192,56600,1,0,0:0:0:100:msynth1.wav
192,192,56700,128,0,57000:0:0:0:100:msynth4.wav
448,192,56900,1,0,0:0:0:100:msynth1.wav
64,192,57000,128,0,57300:0:0:0:100:msynth7.wav
448,192,57200,1,0,0:0:0:100:msynth1.wav
192,192,57300,128,0,57500:0:0:0:100:msynth8.wav
320,192,57500,128,0,57600:0:0:0:100:msynth9.wav
64,192,57600,1,0,0:0:0:100:msynth10.wav
320,192,57800,128,0,58100:0:0:0:100:msynth2.wav
64,192,58000,1,0,0:0:0:100:msynth10.wav
192,192,58100,128,0,58400:0:0:0:100:msynth3.wav
320,192,58300,1,0,0:0:0:100:msynth10.wav
64,192,58400,128,0,58700:0:0:0:100:msynth4.wav
448,192,58600,1,0,0:0:0:100:msynth10.wav
192,192,58700,128,0,59000:0:0:0:100:msynth3.wav
64,192,58900,1,0,0:0:0:100:msynth10.wav
320,192,59000,128,0,59400:0:0:0:100:msynth2.wav
64,192,59200,1,0,0:0:0:100:msynth11.wav
192,192,59300,1,0,0:0:0:100:msynth15.wav
448,192,59400,128,0,59700:0:0:0:100:msynth12.wav
64,192,59600,1,0,0:0:0:100:msynth11.wav
320,192,59700,128,0,60000:0:0:0:100:msynth13.wav
192,192,59900,1,0,0:0:0:100:msynth11.wav
448,192,60000,128,0,60300:0:0:0:100:msynth5.wav
64,192,60200,1,0,0:0:0:100:msynth11.wav
320,192,60300,128,0,60600:0:0:0:100:msynth6.wav
64,192,60500,1,0,0:0:0:100:msynth11.wav
192,192,60600,128,0,61000:0:0:0:100:msynth14.wav
448,192,60800,1,0,0:0:0:100:msynth1.wav
320,192,61000,128,0,61300:0:0:0:100:msynth2.wav
64,192,61200,1,0,0:0:0:100:msynth1.wav
192,192,61300,128,0,61600:0:0:0:100:msynth3.wav
448,192,61500,1,0,0:0:0:100:msynth1.wav
64,192,61600,128,0,61900:0:0:0:100:msynth4.wav
320,192,61800,1,0,0:0:0:100:msynth1.wav
192,192,61900,128,0,62200:0:0:0:100:msynth3.wav
448,192,62100,1,0,0:0:0:100:msynth1.wav
320,192,62200,128,0,62500:0:0:0:100:msynth2.wav
192,192,62400,1,0,0:0:0:100:msynth1.wav
448,192,62500,128,0,62800:0:0:0:100:msynth5.wav
64,192,62700,1,0,0:0:0:100:msynth1.wav
192,192,62800,128,0,63100:0:0:0:100:msynth6.wav
64,192,63000,1,0,0:0:0:100:msynth1.wav
448,192,63100,128,0,63400:0:0:0:100:msynth16.wav
192,192,63300,1,0,0:0:0:100:msynth1.wav
320,192,63400,128,0,63600:0:0:0:100:msynth5.wav
192,192,63600,128,0,63700:0:0:0:100:msynth17.wav
64,192,63700,128,0,64200:0:0:0:100:msynth13.wav
192,192,63900,1,0,0:0:0:100:msynth18.wav
448,192,64000,1,0,0:0:0:100:msynth10.wav
320,192,64200,128,0,64500:0:0:0:100:msynth2.wav
64,192,64400,1,0,0:0:0:100:msynth10.wav
192,192,64500,128,0,64800:0:0:0:100:msynth3.wav
448,192,64700,1,0,0:0:0:100:msynth10.wav
320,192,64800,128,0,65100:0:0:0:100:msynth2.wav
64,192,65000,1,0,0:0:0:100:msynth10.wav
192,192,65100,128,0,65400:0:0:0:100:msynth3.wav
320,192,65300,1,0,0:0:0:100:msynth10.wav
448,192,65400,128,0,65800:0:0:0:100:msynth5.wav
320,192,65600,1,0,0:0:0:100:msynth11.wav
192,192,65700,1,0,0:0:0:100:msynth15.wav
64,192,65800,128,0,66100:0:0:0:100:msynth16.wav
320,192,66000,1,0,0:0:0:100:msynth11.wav
192,192,66100,128,0,66400:0:0:0:100:msynth6.wav
448,192,66300,1,0,0:0:0:100:msynth11.wav
320,192,66400,128,0,66700:0:0:0:100:msynth13.wav
448,192,66600,1,0,0:0:0:100:msynth11.wav
64,192,66700,128,0,67000:0:0:0:100:msynth16.wav
192,192,66800,1,0,0:0:0:100:msynth17.wav
320,192,66900,1,0,0:0:0:100:msynth11.wav
448,192,67000,128,0,67400:0:0:0:100:msynth19.wav
64,192,67200,1,0,0:0:0:100:kick.wav
192,192,67400,128,0,67700:0:0:0:100:msynth2.wav
64,192,67600,1,0,0:0:0:100:kick.wav
448,192,67600,1,0,0:0:0:100:snare.wav
320,192,67700,128,0,68000:0:0:0:100:msynth3.wav
64,192,68000,1,0,0:0:0:100:kick.wav
448,192,68000,128,0,68300:0:0:0:100:msynth4.wav
320,192,68300,128,0,68600:0:0:0:100:msynth3.wav
64,192,68400,1,0,0:0:0:100:kick.wav
448,192,68400,1,0,0:0:0:100:snare.wav
192,192,68600,128,0,68900:0:0:0:100:msynth2.wav
64,192,68800,1,0,0:0:0:100:kick.wav
448,192,68900,128,0,69200:0:0:0:100:msynth5.wav
64,192,69200,1,0,0:0:0:100:kick.wav
192,192,69200,1,0,0:0:0:100:snare.wav
320,192,69200,128,0,69500:0:0:0:100:msynth6.wav
448,192,69500,128,0,69800:0:0:0:100:msynth4.wav
64,192,69600,1,0,0:0:0:100:kick.wav
192,192,69800,128,0,70100:0:0:0:100:msynth7.wav
64,192,70000,1,0,0:0:0:100:kick.wav
448,192,70000,1,0,0:0:0:100:snare.wav
320,192,70100,128,0,70300:0:0:0:100:msynth8.wav
192,192,70300,1,0,0:0:0:100:snare.wav
448,192,70300,128,0,70400:0:0:0:100:msynth9.wav
64,192,70400,1,0,0:0:0:100:kick.wav
448,192,70600,128,0,70900:0:0:0:100:msynth2.wav
64,192,70800,1,0,0:0:0:100:kick.wav
192,192,70800,1,0,0:0:0:100:snare.wav
320,192,70900,128,0,71200:0:0:0:100:msynth3.wav
64,192,71200,1,0,0:0:0:100:kick.wav
192,192,71200,128,0,71500:0:0:0:100:msynth4.wav
320,192,71500,128,0,71800:0:0:0:100:msynth3.wav
64,192,71600,1,0,0:0:0:100:kick.wav
192,192,71600,1,0,0:0:0:100:snare.wav
448,192,71800,128,0,72200:0:0:0:100:msynth2.wav
64,192,72000,1,0,0:0:0:100:kick.wav
320,192,72200,128,0,72500:0:0:0:100:msynth12.wav
64,192,72400,1,0,0:0:0:100:kick.wav
448,192,72400,1,0,0:0:0:100:snare.wav
192,192,72500,128,0,72800:0:0:0:100:msynth13.wav
64,192,72800,1,0,0:0:0:100:kick.wav
448,192,72800,128,0,73100:0:0:0:100:msynth5.wav
192,192,72900,1,0,0:0:0:100:snare.wav
320,192,73100,128,0,73400:0:0:0:100:msynth6.wav
64,192,73200,1,0,0:0:0:100:kick.wav
192,192,73200,1,0,0:0:0:100:snare.wav
192,192,73400,128,0,73800:0:0:0:100:msynth14.wav
64,192,73600,1,0,0:0:0:100:kick.wav
448,192,73800,128,0,74100:0:0:0:100:msynth2.wav
64,192,74000,1,0,0:0:0:100:kick.wav
192,192,74000,1,0,0:0:0:100:snare.wav
320,192,74100,128,0,74400:0:0:0:100:msynth3.wav
64,192,74400,1,0,0:0:0:100:kick.wav
192,192,74400,128,0,74700:0:0:0:100:msynth4.wav
320,192,74700,128,0,75000:0:0:0:100:msynth3.wav
64,192,74800,1,0,0:0:0:100:kick.wav
448,192,74800,1,0,0:0:0:100:snare.wav
448,192,75000,128,0,75300:0:0:0:100:msynth2.wav
64,192,75200,1,0,0:0:0:100:kick.wav
320,192,75300,128,0,75600:0:0:0:100:msynth5.wav
64,192,75600,1,0,0:0:0:100:kick.wav
192,192,75600,128,0,75900:0:0:0:100:msynth6.wav
448,192,75600,1,0,0:0:0:100:snare.wav
320,192,75900,128,0,76200:0:0:0:100:msynth16.wav
64,192,76000,1,0,0:0:0:100:kick.wav
192,192,76200,128,0,76400:0:0:0:100:msynth5.wav
64,192,76400,1,0,0:0:0:100:kick.wav
320,192,76400,128,0,76500:0:0:0:100:msynth17.wav
448,192,76400,1,0,0:0:0:100:snare.wav
192,192,76500,128,0,77000:0:0:0:100:msynth13.wav
448,192,76700,1,0,0:0:0:100:snare.wav
64,192,76800,1,0,0:0:0:100:kick.wav
448,192,77000,128,0,77300:0:0:0:100:msynth2.wav
64,192,77200,1,0,0:0:0:100:kick.wav
192,192,77200,1,0,0:0:0:100:snare.wav
320,192,77300,128,0,77600:0:0:0:100:msynth3.wav
64,192,77600,1,0,0:0:0:100:kick.wav
448,192,77600,128,0,77900:0:0:0:100:msynth2.wav
320,192,77900,128,0,78200:0:0:0:100:msynth3.wav
64,192,78000,1,0,0:0:0:100:kick.wav
192,192,78000,1,0,0:0:0:100:snare.wav
192,192,78200,128,0,78600:0:0:0:100:msynth5.wav
64,192,78400,1,0,0:0:0:100:kick.wav
448,192,78600,128,0,78900:0:0:0:100:msynth16.wav
64,192,78800,1,0,0:0:0:100:kick.wav
192,192,78800,1,0,0:0:0:100:snare.wav
320,192,78900,128,0,79200:0:0:0:100:msynth6.wav
64,192,79200,1,0,0:0:0:100:kick.wav
192,192,79200,128,0,79500:0:0:0:100:msynth13.wav
448,192,79300,1,0,0:0:0:100:snare.wav
64,192,79500,1,0,0:0:0:100:kick.wav
320,192,79500,128,0,79800:0:0:0:100:msynth16.wav
64,192,79600,1,0,0:0:0:100:kick.wav
448,192,79600,1,0,0:0:0:100:snare.wav
64,192,79800,1,0,0:0:0:100:kick.wav
448,192,79800,128,0,80200:0:0:0:100:msynth19.wav
192,192,79900,1,0,0:0:0:100:snare.wav
64,192,80000,1,0,0:0:0:100:kick.wav
320,192,80000,1,0,0:0:0:100:shot-01.wav
192,192,80200,1,0,0:0:0:100:shot-02.wav
320,192,80200,1,0,0:0:0:100:hat.wav
64,192,80400,1,0,0:0:0:100:kick.wav
448,192,80400,1,0,0:0:0:100:shot-03.wav
448,192,80500,1,0,0:0:0:100:shot-02.wav
320,192,80600,1,0,0:0:0:100:hat.wav
192,192,80700,1,0,0:0:0:100:shot-04.wav
64,192,80800,1,0,0:0:0:100:kick.wav
448,192,80800,1,0,0:0:0:100:shot-05.wav
320,192,81000,1,0,0:0:0:100:hat.wav
448,192,81000,1,0,0:0:0:100:shot-03.wav
448,192,81100,1,0,0:0:0:100:shot-02.wav
64,192,81200,1,0,0:0:0:100:kick.wav
192,192,81300,1,0,0:0:0:100:shot-03.wav
320,192,81400,1,0,0:0:0:100:hat.wav
448,192,81400,1,0,0:0:0:100:shot-06.wav
64,192,81600,1,0,0:0:0:100:kick.wav
448,192,81600,1,0,0:0:0:100:shot-01.wav
192,192,81800,1,0,0:0:0:100:shot-05.wav
320,192,81800,1,0,0:0:0:100:hat.wav
64,192,82000,1,0,0:0:0:100:kick.wav
448,192,82000,1,0,0:0:0:100:shot-03.wav
448,192,82100,1,0,0:0:0:100:shot-02.wav
320,192,82200,1,0,0:0:0:100:hat.wav
192,192,82300,1,0,0:0:0:100:shot-05.wav
64,192,82400,1,0,0:0:0:100:kick.wav
448,192,82500,1,0,0:0:0:100:shot-03.wav
192,192,82600,1,0,0:0:0:100:hat.wav
448,192,82600,1,0,0:0:0:100:shot-02.wav
64,192,82800,1,0,0:0:0:100:kick.wav
448,192,82800,1,0,0:0:0:100:shot-03.wav
192,192,82900,1,0,0:0:0:100:shot-06.wav
320,192,83000,1,0,0:0:0:100:hat.wav
320,192,83100,1,0,0:0:0:100:hat.wav
448,192,83100,1,0,0:0:0:100:shot-06.wav
64,192,83200,1,0,0:0:0:100:kick.wav
192,192,83200,1,0,0:0:0:100:shot-01.wav
320,192,83400,1,0,0:0:0:100:hat.wav
448,192,83400,1,0,0:0:0:100:shot-02.wav
64,192,83600,1,0,0:0:0:100:kick.wav
192,192,83600,1,0,0:0:0:100:shot-03.wav
448,192,83700,1,0,0:0:0:100:shot-06.wav
320,192,83800,1,0,0:0:0:100:hat.wav
192,192,83900,1,0,0:0:0:100:shot-07.wav
64,192,84000,1,0,0:0:0:100:kick.wav
448,192,84000,1,0,0:0:0:100:shot-06.wav
192,192,84100,1,0,0:0:0:100:shot-08.wav
320,192,84200,1,0,0:0:0:100:hat.wav
192,192,84300,1,0,0:0:0:100:shot-04.wav
64,192,84400,1,0,0:0:0:100:kick.wav
320,192,84500,1,0,0:0:0:100:shot-03.wav
192,192,84600,1,0,0:0:0:100:hat.wav
448,192,84600,1,0,0:0:0:100:shot-02.wav
448,192,84700,1,0,0:0:0:100:shot-05.wav
64,192,84800,1,0,0:0:0:100:kick.wav
192,192,84800,1,0,0:0:0:100:shot-03.wav
448,192,84900,1,0,0:0:0:100:shot-02.wav
192,192,85000,1,0,0:0:0:100:hat.wav
448,192,85000,1,0,0:0:0:100:shot-05.wav
64,192,85200,1,0,0:0:0:100:kick.wav
320,192,85200,1,0,0:0:0:100:shot-02.wav
448,192,85300,1,0,0:0:0:100:shot-05.wav
192,192,85400,1,0,0:0:0:100:hat.wav
448,192,85500,1,0,0:0:0:100:shot-02.wav
64,192,85600,1,0,0:0:0:100:kick.wav
192,192,85600,1,0,0:0:0:100:shot-03.wav
448,192,85700,1,0,0:0:0:100:shot-02.wav
192,192,85800,1,0,0:0:0:100:shot-09.wav
320,192,85800,1,0,0:0:0:100:hat.wav
64,192,86000,1,0,0:0:0:100:kick.wav
192,192,86000,1,0,0:0:0:100:shot-03.wav
448,192,86100,1,0,0:0:0:100:shot-02.wav
64,192,86200,1,0,0:0:0:100:kick.wav
192,192,86200,1,0,0:0:0:100:shot-03.wav
320,192,86300,1,0,0:0:0:100:hat.wav
448,192,86300,1,0,0:0:0:100:shot-06.wav
64,192,86400,1,0,0:0:0:100:kick.wav
192,192,86400,1,0,0:0:0:100:shot-01.wav
320,192,86600,1,0,0:0:0:100:hat.wav
448,192,86600,1,0,0:0:0:100:shot-02.wav
64,192,86800,1,0,0:0:0:100:kick.wav
448,192,86800,1,0,0:0:0:100:shot-03.wav
448,192,86900,1,0,0:0:0:100:shot-02.wav
320,192,87000,1,0,0:0:0:100:hat.wav
448,192,87100,1,0,0:0:0:100:shot-04.wav
64,192,87200,1,0,0:0:0:100:kick.wav
192,192,87200,1,0,0:0:0:100:shot-05.wav
192,192,87400,1,0,0:0:0:100:shot-03.wav
320,192,87400,1,0,0:0:0:100:hat.wav
192,192,87500,1,0,0:0:0:100:shot-02.wav
64,192,87600,1,0,0:0:0:100:kick.wav
448,192,87700,1,0,0:0:0:100:shot-03.wav
192,192,87800,1,0,0:0:0:100:shot-06.wav
320,192,87800,1,0,0:0:0:100:hat.wav
64,192,88000,1,0,0:0:0:100:kick.wav
448,192,88000,1,0,0:0:0:100:shot-01.wav
192,192,88200,1,0,0:0:0:100:shot-05.wav
320,192,88200,1,0,0:0:0:100:hat.wav
64,192,88400,1,0,0:0:0:100:kick.wav
448,192,88400,1,0,0:0:0:100:shot-03.wav
448,192,88500,1,0,0:0:0:100:shot-02.wav
320,192,88600,1,0,0:0:0:100:hat.wav
192,192,88700,1,0,0:0:0:100:shot-05.wav
64,192,88800,1,0,0:0:0:100:kick.wav
448,192,88900,1,0,0:0:0:100:shot-03.wav
192,192,89000,1,0,0:0:0:100:hat.wav
448,192,89000,1,0,0:0:0:100:shot-02.wav
64,192,89200,1,0,0:0:0:100:kick.wav
448,192,89200,1,0,0:0:0:100:shot-03.wav
192,192,89300,1,0,0:0:0:100:shot-06.wav
320,192,89400,1,0,0:0:0:100:hat.wav
192,192,89500,1,0,0:0:0:100:shot-06.wav
320,192,89500,1,0,0:0:0:100:hat.wav
64,192,89600,1,0,0:0:0:100:kick.wav
448,192,89600,1,0,0:0:0:100:shot-01.wav
192,192,89800,1,0,0:0:0:100:shot-02.wav
320,192,89800,1,0,0:0:0:100:hat.wav
64,192,90000,1,0,0:0:0:100:kick.wav
448,192,90000,1,0,0:0:0:100:shot-03.wav
192,192,90100,1,0,0:0:0:100:shot-06.wav
320,192,90200,1,0,0:0:0:100:hat.wav
448,192,90300,1,0,0:0:0:100:shot-07.wav
64,192,90400,1,0,0:0:0:100:kick.wav
192,192,90400,1,0,0:0:0:100:shot-06.wav
448,192,90500,1,0,0:0:0:100:shot-08.wav
320,192,90600,1,0,0:0:0:100:hat.wav
192,192,90700,1,0,0:0:0:100:shot-04.wav
64,192,90800,1,0,0:0:0:100:kick.wav
448,192,90900,1,0,0:0:0:100:shot-03.wav
64,192,91000,1,0,0:0:0:100:kick.wav
320,192,91000,1,0,0:0:0:100:hat.wav
448,192,91000,1,0,0:0:0:100:shot-02.wav
192,192,91100,1,0,0:0:0:100:shot-05.wav
64,192,91200,1,0,0:0:0:100:kick.wav
448,192,91200,1,0,0:0:0:100:shot-03.wav
448,192,91300,1,0,0:0:0:100:shot-02.wav
64,192,91400,1,0,0:0:0:100:kick.wav
192,192,91400,1,0,0:0:0:100:shot-05.wav
320,192,91400,1,0,0:0:0:100:hat.wav
64,192,91600,1,0,0:0:0:100:kick.wav
448,192,91600,1,0,0:0:0:100:shot-02.wav
192,192,91700,1,0,0:0:0:100:shot-05.wav
64,192,91800,1,0,0:0:0:100:kick.wav
320,192,91800,1,0,0:0:0:100:hat.wav
448,192,91900,1,0,0:0:0:100:shot-02.wav
64,192,92000,1,0,0:0:0:100:kick.wav
192,192,92000,1,0,0:0:0:100:shot-03.wav
448,192,92100,1,0,0:0:0:100:shot-02.wav
192,192,92200,1,0,0:0:0:100:shot-09.wav
320,192,92200,1,0,0:0:0:100:hat.wav
64,192,92300,1,0,0:0:0:100:kick.wav
64,192,92400,1,0,0:0:0:100:kick.wav
448,192,92400,1,0,0:0:0:100:shot-03.wav
192,192,92500,1,0,0:0:0:100:shot-02.wav
64,192,92600,1,0,0:0:0:100:kick.wav
448,192,92600,1,0,0:0:0:100:shot-03.wav
192,192,92700,1,0,0:0:0:100:shot-06.wav
320,192,92700,1,0,0:0:0:100:hat.wav
64,192,92800,1,0,0:0:0:100:kick.wav
448,192,92800,1,0,0:0:0:100:lsynth-01.wav
64,192,93000,1,0,0:0:0:100:hat2.wav
448,192,93000,1,0,0:0:0:100:hat.wav
192,192,93100,1,0,0:0:0:100:lsynth-02.wav
320,192,93300,1,0,0:0:0:100:lsynth-03.wav
64,192,93400,1,0,0:0:0:100:hat2.wav
448,192,93400,1,0,0:0:0:100:hat.wav
320,192,93500,1,0,0:0:0:100:lsynth-04.wav
192,192,93600,1,0,0:0:0:100:lsynth-01.wav
64,192,93800,1,0,0:0:0:100:hat2.wav
448,192,93800,1,0,0:0:0:100:hat.wav
192,192,93900,1,0,0:0:0:100:lsynth-02.wav
320,192,94100,1,0,0:0:0:100:lsynth-03.wav
64,192,94200,1,0,0:0:0:100:hat2.wav
448,192,94200,1,0,0:0:0:100:hat.wav
320,192,94300,1,0,0:0:0:100:lsynth-04.wav
192,192,94400,1,0,0:0:0:100:lsynth-01.wav
64,192,94600,1,0,0:0:0:100:hat2.wav
448,192,94600,1,0,0:0:0:100:hat.wav
192,192,94700,1,0,0:0:0:100:lsynth-02.wav
320,192,94900,1,0,0:0:0:100:lsynth-03.wav
64,192,95000,1,0,0:0:0:100:hat2.wav
448,192,95000,1,0,0:0:0:100:hat.wav
320,192,95100,1,0,0:0:0:100:lsynth-04.wav
192,192,95200,1,0,0:0:0:100:lsynth-01.wav
64,192,95400,1,0,0:0:0:100:hat2.wav
448,192,95400,1,0,0:0:0:100:hat.wav
192,192,95500,1,0,0:0:0:100:lsynth-02.wav
320,192,95700,1,0,0:0:0:100:lsynth-03.wav
64,192,95800,1,0,0:0:0:100:hat2.wav
448,192,95800,1,0,0:0:0:100:hat.wav
320,192,95900,1,0,0:0:0:100:lsynth-04.wav
192,192,96000,1,0,0:0:0:100:lsynth-05.wav
64,192,96200,1,0,0:0:0:100:hat2.wav
192,192,96200,1,0,0:0:0:100:lsynth-06.wav
448,192,96200,1,0,0:0:0:100:hat.wav
320,192,96300,1,0,0:0:0:100:lsynth-07.wav
320,192,96500,1,0,0:0:0:100:lsynth-08.wav
64,192,96600,1,0,0:0:0:100:hat2.wav
448,192,96600,1,0,0:0:0:100:hat.wav
320,192,96700,1,0,0:0:0:100:lsynth-09.wav
192,192,96800,1,0,0:0:0:100:lsynth-05.wav
64,192,97000,1,0,0:0:0:100:hat2.wav
192,192,97000,1,0,0:0:0:100:lsynth-06.wav
448,192,97000,1,0,0:0:0:100:hat.wav
320,192,97100,1,0,0:0:0:100:lsynth-07.wav
320,192,97300,1,0,0:0:0:100:lsynth-08.wav
64,192,97400,1,0,0:0:0:100:hat2.wav
448,192,97400,1,0,0:0:0:100:hat.wav
320,192,97500,1,0,0:0:0:100:lsynth-09.wav
192,192,97600,1,0,0:0:0:100:lsynth-05.wav
64,192,97800,1,0,0:0:0:100:hat2.wav
192,192,97800,1,0,0:0:0:100:lsynth-06.wav
448,192,97800,1,0,0:0:0:100:hat.wav
320,192,97900,1,0,0:0:0:100:lsynth-07.wav
320,192,98100,1,0,0:0:0:100:lsynth-08.wav
64,192,98200,1,0,0:0:0:100:hat2.wav
448,192,98200,1,0,0:0:0:100:hat.wav
320,192,98300,1,0,0:0:0:100:lsynth-09.wav
192,192,98400,1,0,0:0:0:100:lsynth-05.wav
64,192,98600,1,0,0:0:0:100:hat2.wav
192,192,98600,1,0,0:0:0:100:lsynth-06.wav
448,192,98600,1,0,0:0:0:100:hat.wav
320,192,98700,1,0,0:0:0:100:lsynth-07.wav
320,192,98900,1,0,0:0:0:100:lsynth-08.wav
64,192,99000,1,0,0:0:0:100:hat2.wav
448,192,99000,1,0,0:0:0:100:hat.wav
320,192,99100,1,0,0:0:0:100:lsynth-09.wav
192,192,99200,1,0,0:0:0:100:lsynth-01.wav
64,192,99400,1,0,0:0:0:100:hat2.wav
448,192,99400,1,0,0:0:0:100:hat.wav
320,192,99500,1,0,0:0:0:100:lsynth-02.wav
192,192,99700,1,0,0:0:0:100:lsynth-03.wav
64,192,99800,1,0,0:0:0:100:hat2.wav
448,192,99800,1,0,0:0:0:100:hat.wav
192,192,99900,1,0,0:0:0:100:lsynth-04.wav
320,192,100000,1,0,0:0:0:100:lsynth-01.wav
64,192,100200,1,0,0:0:0:100:hat2.wav
448,192,100200,1,0,0:0:0:100:hat.wav
320,192,100300,1,0,0:0:0:100:lsynth-02.wav
192,192,100500,1,0,0:0:0:100:lsynth-03.wav
64,192,100600,1,0,0:0:0:100:hat2.wav
448,192,100600,1,0,0:0:0:100:hat.wav
192,192,100700,1,0,0:0:0:100:lsynth-04.wav
320,192,100800,1,0,0:0:0:100:lsynth-01.wav
64,192,101000,1,0,0:0:0:100:hat2.wav
448,192,101000,1,0,0:0:0:100:hat.wav
320,192,101100,1,0,0:0:0:100:lsynth-02.wav
192,192,101300,1,0,0:0:0:100:lsynth-03.wav
64,192,101400,1,0,0:0:0:100:hat2.wav
448,192,101400,1,0,0:0:0:100:hat.wav
192,192,101500,1,0,0:0:0:100:lsynth-04.wav
320,192,101600,1,0,0:0:0:100:lsynth-01.wav
64,192,101800,1,0,0:0:0:100:hat2.wav
448,192,101800,1,0,0:0:0:100:hat.wav
320,192,101900,1,0,0:0:0:100:lsynth-02.wav
192,192,102100,1,0,0:0:0:100:lsynth-03.wav
64,192,102200,1,0,0:0:0:100:hat2.wav
448,192,102200,1,0,0:0:0:100:hat.wav
192,192,102300,1,0,0:0:0:100:lsynth-04.wav
320,192,102400,1,0,0:0:0:100:lsynth-05.wav
64,192,102600,1,0,0:0:0:100:hat2.wav
320,192,102600,1,0,0:0:0:100:lsynth-06.wav
448,192,102600,1,0,0:0:0:100:hat.wav
192,192,102700,1,0,0:0:0:100:lsynth-07.wav
192,192,102900,1,0,0:0:0:100:lsynth-08.wav
64,192,103000,1,0,0:0:0:100:hat2.wav
448,192,103000,1,0,0:0:0:100:hat.wav
192,192,103100,1,0,0:0:0:100:lsynth-09.wav
320,192,103200,1,0,0:0:0:100:lsynth-05.wav
64,192,103400,1,0,0:0:0:100:hat2.wav
320,192,103400,1,0,0:0:0:100:lsynth-06.wav
448,192,103400,1,0,0:0:0:100:hat.wav
192,192,103500,1,0,0:0:0:100:lsynth-07.wav
192,192,103700,1,0,0:0:0:100:lsynth-08.wav
64,192,103800,1,0,0:0:0:100:hat2.wav
448,192,103800,1,0,0:0:0:100:hat.wav
192,192,103900,1,0,0:0:0:100:lsynth-09.wav
320,192,104000,1,0,0:0:0:100:lsynth-05.wav
64,192,104200,1,0,0:0:0:100:hat2.wav
320,192,104200,1,0,0:0:0:100:lsynth-06.wav
448,192,104200,1,0,0:0:0:100:hat.wav
192,192,104300,1,0,0:0:0:100:lsynth-07.wav
192,192,104500,1,0,0:0:0:100:lsynth-08.wav
64,192,104600,1,0,0:0:0:100:hat2.wav
448,192,104600,1,0,0:0:0:100:hat.wav
192,192,104700,1,0,0:0:0:100:lsynth-09.wav
320,192,104800,1,0,0:0:0:100:lsynth-05.wav
64,192,105000,1,0,0:0:0:100:hat2.wav
320,192,105000,1,0,0:0:0:100:lsynth-06.wav
448,192,105000,1,0,0:0:0:100:hat.wav
192,192,105100,1,0,0:0:0:100:lsynth-07.wav
192,192,105300,1,0,0:0:0:100:lsynth-08.wav
64,192,105400,1,0,0:0:0:100:hat2.wav
448,192,105400,1,0,0:0:0:100:hat.wav
192,192,105500,1,0,0:0:0:100:lsynth-09.wav
64,192,105600,1,0,0:0:0:100:kick.wav
320,192,105600,1,0,0:0:0:100:msynth1.wav
448,192,105800,128,0,106100:0:0:0:100:msynth2.wav
64,192,106000,1,0,0:0:0:100:kick.wav
192,192,106000,1,0,0:0:0:100:msynth1.wav
320,192,106100,128,0,106400:0:0:0:100:msynth3.wav
448,192,106300,1,0,0:0:0:100:msynth1.wav
64,192,106400,1,0,0:0:0:100:kick.wav
192,192,106400,128,0,106700:0:0:0:100:msynth4.wav
448,192,106600,1,0,0:0:0:100:msynth1.wav
320,192,106700,128,0,107000:0:0:0:100:msynth3.wav
64,192,106800,1,0,0:0:0:100:kick.wav
192,192,106900,1,0,0:0:0:100:msynth1.wav
448,192,107000,128,0,107300:0:0:0:100:msynth2.wav
64,192,107200,1,0,0:0:0:100:kick.wav
320,192,107200,1,0,0:0:0:100:msynth1.wav
192,192,107300,128,0,107600:0:0:0:100:msynth5.wav
448,192,107500,1,0,0:0:0:100:msynth1.wav
64,192,107600,1,0,0:0:0:100:kick.wav
320,192,107600,128,0,107900:0:0:0:100:msynth6.wav
192,192,107800,1,0,0:0:0:100:msynth1.wav
448,192,107900,128,0,108200:0:0:0:100:msynth4.wav
64,192,108000,1,0,0:0:0:100:kick.wav
320,192,108100,1,0,0:0:0:100:msynth1.wav
192,192,108200,128,0,108500:0:0:0:100:msynth7.wav
64,192,108400,1,0,0:0:0:100:kick.wav
320,192,108400,1,0,0:0:0:100:msynth1.wav
448,192,108500,128,0,108700:0:0:0:100:msynth8.wav
192,192,108700,128,0,108800:0:0:0:100:msynth9.wav
64,192,108800,1,0,0:0:0:100:kick.wav
448,192,108800,1,0,0:0:0:100:msynth10.wav
448,192,109000,128,0,109300:0:0:0:100:msynth2.wav
64,192,109200,1,0,0:0:0:100:kick.wav
192,192,109200,1,0,0:0:0:100:msynth10.wav
320,192,109300,128,0,109600:0:0:0:100:msynth3.wav
448,192,109500,1,0,0:0:0:100:msynth10.wav
64,192,109600,1,0,0:0:0:100:kick.wav
192,192,109600,128,0,109900:0:0:0:100:msynth4.wav
448,192,109800,1,0,0:0:0:100:msynth10.wav
320,192,109900,128,0,110200:0:0:0:100:msynth3.wav
64,192,110000,1,0,0:0:0:100:kick.wav
192,192,110100,1,0,0:0:0:100:msynth10.wav
448,192,110200,128,0,110600:0:0:0:100:msynth2.wav
64,192,110400,1,0,0:0:0:100:kick.wav
320,192,110400,1,0,0:0:0:100:msynth11.wav
192,192,110500,1,0,0:0:0:100:msynth15.wav
320,192,110600,128,0,110900:0:0:0:100:msynth12.wav
64,192,110800,1,0,0:0:0:100:kick.wav
448,192,110800,1,0,0:0:0:100:msynth11.wav
192,192,110900,128,0,111200:0:0:0:100:msynth13.wav
320,192,111100,1,0,0:0:0:100:msynth11.wav
64,192,111200,1,0,0:0:0:100:kick.wav
448,192,111200,128,0,111500:0:0:0:100:msynth5.wav
192,192,111400,1,0,0:0:0:100:msynth11.wav
320,192,111500,128,0,111800:0:0:0:100:msynth6.wav
64,192,111600,1,0,0:0:0:100:kick.wav
448,192,111700,1,0,0:0:0:100:msynth11.wav
192,192,111800,128,0,112200:0:0:0:100:msynth14.wav
64,192,112000,1,0,0:0:0:100:kick.wav
448,192,112000,1,0,0:0:0:100:msynth1.wav
448,192,112200,128,0,112500:0:0:0:100:msynth2.wav
64,192,112400,1,0,0:0:0:100:kick.wav
192,192,112400,1,0,0:0:0:100:msynth1.wav
320,192,112500,128,0,112800:0:0:0:100:msynth3.wav
448,192,112700,1,0,0:0:0:100:msynth1.wav
64,192,112800,1,0,0:0:0:100:kick.wav
192,192,112800,128,0,113100:0:0:0:100:msynth4.wav
448,192,113000,1,0,0:0:0:100:msynth1.wav
320,192,113100,128,0,113400:0:0:0:100:msynth3.wav
64,192,113200,1,0,0:0:0:100:kick.wav
192,192,113300,1,0,0:0:0:100:msynth1.wav
448,192,113400,128,0,113700:0:0:0:100:msynth2.wav
64,192,113600,1,0,0:0:0:100:kick.wav
192,192,113600,1,0,0:0:0:100:msynth1.wav
320,192,113700,128,0,114000:0:0:0:100:msynth5.wav
192,192,113900,1,0,0:0:0:100:msynth1.wav
64,192,114000,1,0,0:0:0:100:kick.wav
448,192,114000,128,0,114300:0:0:0:100:msynth6.wav
320,192,114200,1,0,0:0:0:100:msynth1.wav
192,192,114300,128,0,114600:0:0:0:100:msynth16.wav
64,192,114400,1,0,0:0:0:100:kick.wav
448,192,114500,1,0,0:0:0:100:msynth1.wav
320,192,114600,128,0,114800:0:0:0:100:msynth5.wav
64,192,114800,1,0,0:0:0:100:kick.wav
448,192,114800,128,0,114900:0:0:0:100:msynth17.wav
320,192,114900,128,0,115400:0:0:0:100:msynth13.wav
448,192,115100,1,0,0:0:0:100:msynth18.wav
64,192,115200,1,0,0:0:0:100:kick.wav
192,192,115200,1,0,0:0:0:100:msynth10.wav
448,192,115400,128,0,115700:0:0:0:100:msynth2.wav
64,192,115600,1,0,0:0:0:100:kick.wav
192,192,115600,1,0,0:0:0:100:msynth10.wav
320,192,115700,128,0,116000:0:0:0:100:msynth3.wav
192,192,115900,1,0,0:0:0:100:msynth10.wav
64,192,116000,1,0,0:0:0:100:kick.wav
448,192,116000,128,0,116300:0:0:0:100:msynth2.wav
192,192,116200,1,0,0:0:0:100:msynth10.wav
320,192,116300,128,0,116600:0:0:0:100:msynth3.wav
64,192,116400,1,0,0:0:0:100:kick.wav
192,192,116500,1,0,0:0:0:100:msynth10.wav
448,192,116600,128,0,117000:0:0:0:100:msynth5.wav
64,192,116800,1,0,0:0:0:100:kick.wav
320,192,116800,1,0,0:0:0:100:msynth11.wav
192,192,116900,1,0,0:0:0:100:msynth15.wav
320,192,117000,128,0,117300:0:0:0:100:msynth16.wav
64,192,117200,1,0,0:0:0:100:kick.wav
448,192,117200,1,0,0:0:0:100:msynth11.wav
192,192,117300,128,0,117600:0:0:0:100:msynth6.wav
448,192,117500,1,0,0:0:0:100:msynth11.wav
64,192,117600,1,0,0:0:0:100:kick.wav
320,192,117600,128,0,117900:0:0:0:100:msynth13.wav
448,192,117800,1,0,0:0:0:100:msynth11.wav
64,192,117900,1,0,0:0:0:100:kick.wav
192,192,117900,128,0,118200:0:0:0:100:msynth16.wav
64,192,118000,1,0,0:0:0:100:kick.wav
320,192,118000,1,0,0:0:0:100:msynth17.wav
448,192,118100,1,0,0:0:0:100:msynth11.wav
64,192,118200,128,0,118600:0:0:0:100:msynth19.wav
320,192,118200,1,0,0:0:0:100:kick.wav
448,192,118400,1,0,0:0:0:100:mshot1.wav
320,192,118600,1,0,0:0:0:100:mshot2.wav
448,192,118600,128,0,118900:0:0:0:100:msynth2.wav
192,192,118700,1,0,0:0:0:100:mshot3.wav
64,192,118800,1,0,0:0:0:100:mshot4.wav
192,192,118900,1,0,0:0:0:100:mshot5.wav
320,192,118900,128,0,119200:0:0:0:100:msynth3.wav
64,192,119000,1,0,0:0:0:100:mshot6.wav
448,192,119100,1,0,0:0:0:100:mshot4.wav
64,192,119200,1,0,0:0:0:100:mshot2.wav
192,192,119200,128,0,119500:0:0:0:100:msynth4.wav
448,192,119300,1,0,0:0:0:100:mshot4.wav
64,192,119400,1,0,0:0:0:100:mshot3.wav
320,192,119500,128,0,119800:0:0:0:100:msynth3.wav
448,192,119500,1,0,0:0:0:100:mshot5.wav
64,192,119600,1,0,0:0:0:100:mshot7.wav
192,192,119700,1,0,0:0:0:100:mshot8.wav
64,192,119800,1,0,0:0:0:100:mshot9.wav
448,192,119800,128,0,120100:0:0:0:100:msynth2.wav
192,192,119900,1,0,0:0:0:100:mshot8.wav
64,192,120100,128,0,120400:0:0:0:100:msynth5.wav
320,192,120100,1,0,0:0:0:100:mshot8.wav
192,192,120200,1,0,0:0:0:100:mshot9.wav
320,192,120300,1,0,0:0:0:100:mshot7.wav
192,192,120400,128,0,120700:0:0:0:100:msynth6.wav
448,192,120400,1,0,0:0:0:100:mshot10.wav
320,192,120500,1,0,0:0:0:100:mshot11.wav
64,192,120600,1,0,0:0:0:100:mshot8.wav
320,192,120700,1,0,0:0:0:100:mshot7.wav
448,192,120700,128,0,121000:0:0:0:100:msynth4.wav
64,192,120800,1,0,0:0:0:100:mshot8.wav
192,192,120900,1,0,0:0:0:100:mshot9.wav
64,192,121000,128,0,121300:0:0:0:100:msynth7.wav
320,192,121000,1,0,0:0:0:100:mshot10.wav
192,192,121100,1,0,0:0:0:100:mshot8.wav
320,192,121200,1,0,0:0:0:100:mshot9.wav
192,192,121300,128,0,121500:0:0:0:100:msynth8.wav
448,192,121300,1,0,0:0:0:100:mshot10.wav
64,192,121400,1,0,0:0:0:100:mshot11.wav
320,192,121500,128,0,121600:0:0:0:100:msynth9.wav
448,192,121500,1,0,0:0:0:100:mshot4.wav
448,192,121700,1,0,0:0:0:100:mshot13.wav
64,192,121800,128,0,122100:0:0:0:100:msynth2.wav
320,192,121800,1,0,0:0:0:100:mshot9.wav
192,192,121900,1,0,0:0:0:100:mshot12.wav
320,192,122000,1,0,0:0:0:100:mshot9.wav
192,192,122100,128,0,122400:0:0:0:100:msynth3.wav
448,192,122100,1,0,0:0:0:100:mshot8.wav
320,192,122200,1,0,0:0:0:100:mshot14.wav
64,192,122300,1,0,0:0:0:100:mshot9.wav
320,192,122400,128,0,122700:0:0:0:100:msynth4.wav
448,192,122400,1,0,0:0:0:100:mshot12.wav
64,192,122500,1,0,0:0:0:100:mshot8.wav
448,192,122600,1,0,0:0:0:100:mshot14.wav
64,192,122700,1,0,0:0:0:100:mshot9.wav
192,192,122700,128,0,123000:0:0:0:100:msynth3.wav
448,192,122800,1,0,0:0:0:100:mshot12.wav
320,192,122900,1,0,0:0:0:100:mshot14.wav
64,192,123000,128,0,123400:0:0:0:100:msynth2.wav
448,192,123100,1,0,0:0:0:100:mshot9.wav
320,192,123200,1,0,0:0:0:100:mshot15.wav
192,192,123300,1,0,0:0:0:100:mshot11.wav
320,192,123400,1,0,0:0:0:100:mshot10.wav
448,192,123400,128,0,123700:0:0:0:100:msynth12.wav
192,192,123500,1,0,0:0:0:100:mshot15.wav
64,192,123600,1,0,0:0:0:100:mshot16.wav
192,192,123700,1,0,0:0:0:100:mshot10.wav
320,192,123700,128,0,124000:0:0:0:100:msynth13.wav
64,192,123800,1,0,0:0:0:100:mshot15.wav
192,192,123900,1,0,0:0:0:100:mshot16.wav
64,192,124000,128,0,124300:0:0:0:100:msynth5.wav
448,192,124000,1,0,0:0:0:100:mshot10.wav
192,192,124100,1,0,0:0:0:100:mshot15.wav
320,192,124200,1,0,0:0:0:100:mshot16.wav
192,192,124300,128,0,124600:0:0:0:100:msynth6.wav
448,192,124300,1,0,0:0:0:100:mshot17.wav
320,192,124400,1,0,0:0:0:100:mshot15.wav
64,192,124500,1,0,0:0:0:100:mshot9.wav
320,192,124600,1,0,0:0:0:100:mshot10.wav
448,192,124600,128,0,125000:0:0:0:100:msynth14.wav
64,192,124700,1,0,0:0:0:100:mshot11.wav
192,192,124800,1,0,0:0:0:100:mshot18.wav
192,192,125000,1,0,0:0:0:100:mshot9.wav
320,192,125000,128,0,125300:0:0:0:100:msynth2.wav
64,192,125100,1,0,0:0:0:100:mshot19.wav
448,192,125200,1,0,0:0:0:100:mshot18.wav
64,192,125300,1,0,0:0:0:100:mshot10.wav
192,192,125300,128,0,125600:0:0:0:100:msynth3.wav
448,192,125400,1,0,0:0:0:100:mshot20.wav
320,192,125500,1,0,0:0:0:100:mshot18.wav
64,192,125600,128,0,125900:0:0:0:100:msynth4.wav
448,192,125600,1,0,0:0:0:100:mshot9.wav
192,192,125700,1,0,0:0:0:100:mshot18.wav
448,192,125800,1,0,0:0:0:100:mshot19.wav
192,192,125900,128,0,126200:0:0:0:100:msynth3.wav
320,192,125900,1,0,0:0:0:100:mshot10.wav
448,192,126000,1,0,0:0:0:100:mshot18.wav
64,192,126100,1,0,0:0:0:100:mshot19.wav
320,192,126200,128,0,126500:0:0:0:100:msynth2.wav
448,192,126200,1,0,0:0:0:100:mshot9.wav
64,192,126300,1,0,0:0:0:100:mshot19.wav
192,192,126400,1,0,0:0:0:100:mshot18.wav
64,192,126500,1,0,0:0:0:100:mshot19.wav
448,192,126500,128,0,126800:0:0:0:100:msynth5.wav
320,192,126600,1,0,0:0:0:100:mshot9.wav
192,192,126700,1,0,0:0:0:100:mshot18.wav
64,192,126800,1,0,0:0:0:100:mshot10.wav
320,192,126800,128,0,127100:0:0:0:100:msynth6.wav
192,192,126900,1,0,0:0:0:100:mshot11.wav
448,192,127000,1,0,0:0:0:100:mshot19.wav
64,192,127100,128,0,127400:0:0:0:100:msynth16.wav
192,192,127100,1,0,0:0:0:100:mshot18.wav
448,192,127300,1,0,0:0:0:100:mshot9.wav
192,192,127400,128,0,127600:0:0:0:100:msynth5.wav
320,192,127400,1,0,0:0:0:100:mshot5.wav
448,192,127500,1,0,0:0:0:100:mshot8.wav
64,192,127600,1,0,0:0:0:100:mshot2.wav
320,192,127600,128,0,127700:0:0:0:100:msynth17.wav
192,192,127700,1,0,0:0:0:100:mshot5.wav
448,192,127700,128,0,128200:0:0:0:100:msynth13.wav
64,192,127800,1,0,0:0:0:100:mshot11.wav
320,192,127900,1,0,0:0:0:100:mshot18.wav
192,192,128100,1,0,0:0:0:100:mshot13.wav
64,192,128200,128,0,128500:0:0:0:100:msynth2.wav
320,192,128200,1,0,0:0:0:100:mshot2.wav
192,192,128300,1,0,0:0:0:100:mshot12.wav
320,192,128400,1,0,0:0:0:100:mshot2.wav
192,192,128500,128,0,128800:0:0:0:100:msynth3.wav
448,192,128500,1,0,0:0:0:100:mshot3.wav
64,192,128600,1,0,0:0:0:100:mshot21.wav
448,192,128700,1,0,0:0:0:100:mshot2.wav
64,192,128800,128,0,129100:0:0:0:100:msynth2.wav
320,192,128800,1,0,0:0:0:100:mshot12.wav
192,192,128900,1,0,0:0:0:100:mshot3.wav
448,192,129000,1,0,0:0:0:100:mshot21.wav
192,192,129100,128,0,129400:0:0:0:100:msynth3.wav
320,192,129100,1,0,0:0:0:100:mshot22.wav
64,192,129300,1,0,0:0:0:100:mshot22.wav
320,192,129400,128,0,129800:0:0:0:100:msynth5.wav
448,192,129400,1,0,0:0:0:100:mshot23.wav
64,192,129500,1,0,0:0:0:100:mshot5.wav
192,192,129700,1,0,0:0:0:100:mshot11.wav
64,192,129800,1,0,0:0:0:100:mshot5.wav
448,192,129800,128,0,130100:0:0:0:100:msynth16.wav
192,192,129900,1,0,0:0:0:100:mshot15.wav
320,192,130000,1,0,0:0:0:100:mshot16.wav
64,192,130100,1,0,0:0:0:100:mshot5.wav
192,192,130100,128,0,130400:0:0:0:100:msynth6.wav
320,192,130200,1,0,0:0:0:100:mshot15.wav
448,192,130300,1,0,0:0:0:100:mshot16.wav
64,192,130400,128,0,130700:0:0:0:100:msynth13.wav
320,192,130400,1,0,0:0:0:100:mshot5.wav
192,192,130500,1,0,0:0:0:100:mshot15.wav
448,192,130600,1,0,0:0:0:100:mshot16.wav
192,192,130700,1,0,0:0:0:100:mshot23.wav
320,192,130700,128,0,131000:0:0:0:100:msynth16.wav
64,192,130800,1,0,0:0:0:100:mshot15.wav
192,192,130900,1,0,0:0:0:100:mshot2.wav
64,192,131000,1,0,0:0:0:100:mshot5.wav
448,192,131000,128,0,131300:0:0:0:100:msynth19.wav
192,192,131100,1,0,0:0:0:100:mshot11.wav
320,192,131200,1,0,0:0:0:100:cymbal.wav
