osu file format v13

[General]
AudioFilename: Quo Vadis.mp3
AudioLeadIn: 0
PreviewTime: 55414
Countdown: 0
SampleSet: Soft
StackLeniency: 0.7
Mode: 0
LetterboxInBreaks: 0
WidescreenStoryboard: 0

[Editor]
DistanceSpacing: 1.2
BeatDivisor: 4
GridSize: 4
TimelineZoom: 2.1

[Metadata]
Title:Quo Vadis
TitleUnicode:君往何处
Artist:M2U
ArtistUnicode:M2U
Creator:buhei
Version:Insane
Source:Rhythm Master
Tags:ZZHBOY N_E_K_O 节奏大师
BeatmapID:414709
BeatmapSetID:171421

[Difficulty]
HPDrainRate:6
CircleSize:4.2
OverallDifficulty:7
ApproachRate:9
SliderMultiplier:1.4
SliderTickRate:1

[Events]
//Background and Video events
0,0,"bg.jpg",0,0
//Break Periods
//Storyboard Layer 0 (Background)
//Storyboard Layer 1 (Fail)
//Storyboard Layer 2 (Pass)
//Storyboard Layer 3 (Foreground)
//Storyboard Sound Samples
//Background Colour Transformations
3,100,0,0,0

[TimingPoints]
1508,375,4,2,1,40,1,0
6195,-100,4,2,1,30,0,0
6383,-100,4,2,1,40,0,0
6570,-100,4,1,1,20,0,0
6758,-71.4285714285714,4,1,1,30,0,0
7508,-71.4285714285714,4,2,1,70,0,0
7883,-83.3333333333333,4,2,1,70,0,0
9008,-71.4285714285714,4,2,1,70,0,0
9383,-83.3333333333333,4,2,1,70,0,0
10508,-71.4285714285714,4,2,1,70,0,0
11070,-83.3333333333333,4,2,1,70,0,0
12008,-100,4,2,1,70,0,0
12289,-83.3333333333333,4,2,1,70,0,0
13508,-71.4285714285714,4,2,1,70,0,0
18008,-71.4285714285714,4,2,1,80,0,0
18570,-71.4285714285714,4,2,1,50,0,0
18758,-71.4285714285714,4,2,1,80,0,0
19133,-100,4,2,1,80,0,0
19508,-83.3333333333333,4,2,1,70,0,0
36008,-71.4285714285714,4,2,1,80,0,0
36758,-83.3333333333333,4,2,1,70,0,0
42008,-71.4285714285714,4,2,1,80,0,0
43508,-83.3333333333333,4,2,2,60,0,0
48383,-71.4285714285714,4,2,2,60,0,0
48758,-83.3333333333333,4,2,2,60,0,0
54008,-71.4285714285714,4,2,2,70,0,0
55508,-71.4285714285714,4,2,1,60,0,0
60008,-71.4285714285714,4,2,2,90,0,0
61508,-71.4285714285714,4,2,1,80,0,0
72008,-71.4285714285714,4,2,2,90,0,0
73508,-71.4285714285714,4,2,1,80,0,0
79508,-71.4285714285714,4,2,1,60,0,0
79883,-125,4,2,1,40,0,0
84570,-71.4285714285714,4,2,1,30,0,0
84758,-71.4285714285714,4,2,1,40,0,0
85508,-71.4285714285714,4,2,1,70,0,0
85883,-83.3333333333333,4,2,1,70,0,0
87008,-71.4285714285714,4,2,1,70,0,0
87383,-83.3333333333333,4,2,1,70,0,0
88508,-71.4285714285714,4,2,1,70,0,0
89070,-83.3333333333333,4,2,1,70,0,0
90008,-100,4,2,1,70,0,0
90289,-83.3333333333333,4,2,1,70,0,0
91508,-100,4,2,1,40,0,0
96570,-83.3333333333333,4,2,1,60,0,0
97601,-83.3333333333333,4,2,1,30,0,0
97883,-83.3333333333333,4,2,1,60,0,0
97976,-83.3333333333333,4,2,1,30,0,0
98633,-83.3333333333333,4,2,1,60,0,0
98726,-83.3333333333333,4,2,1,30,0,0
99383,-83.3333333333333,4,2,1,60,0,0
99476,-83.3333333333333,4,2,1,30,0,0
100133,-83.3333333333333,4,2,1,60,0,0
100226,-83.3333333333333,4,2,1,30,0,0
100508,-71.4285714285714,4,2,1,40,0,0
101633,-83.3333333333333,4,2,1,40,0,0
102008,-83.3333333333333,4,2,1,60,0,0
103508,-100,4,2,1,60,0,0
104258,-83.3333333333333,4,2,1,60,0,0
105195,-100,4,2,1,60,0,0
105758,-83.3333333333333,4,2,1,60,0,0
106695,-100,4,2,1,60,0,0
107258,-83.3333333333333,4,2,1,60,0,0
108195,-100,4,2,1,60,0,0
108758,-83.3333333333333,4,2,1,60,0,0
109695,-100,4,2,1,60,0,0
110258,-83.3333333333333,4,2,1,60,0,0
111195,-100,4,2,1,60,0,0
111758,-83.3333333333333,4,2,1,60,0,0
112695,-100,4,2,1,60,0,0
113258,-83.3333333333333,4,2,1,60,0,0
114383,-125,4,2,1,80,0,0
115133,-83.3333333333333,4,2,1,70,0,0
115508,-71.4285714285714,4,2,1,80,0,1
120008,-71.4285714285714,4,2,2,90,0,1
121508,-71.4285714285714,4,2,1,80,0,1
132008,-71.4285714285714,4,2,2,90,0,1
133508,-71.4285714285714,4,2,1,80,0,1
142133,-71.4285714285714,4,2,1,100,0,0

[Colours]
Combo1 : 128,128,128
Combo2 : 248,152,219
Combo3 : 148,201,159
Combo4 : 186,152,248
Combo5 : 255,190,119
Combo6 : 255,0,0

[HitObjects]
168,196,1133,5,2,0:0:0:0:
96,300,1320,1,2,0:0:0:0:
108,320,1414,1,0,0:0:0:0:
124,336,1508,6,0,P|184:344|260:324,1,140,4|8,0:0|0:0,0:0:0:0:
412,244,2070,2,0,P|345:224|276:232,1,140,2|0,0:0|0:0,0:0:0:0:
444,336,2633,1,8,0:0:0:0:
436,228,2820,1,0,0:0:0:0:
372,136,3008,6,0,L|376:60,1,70,2|0,0:0|0:0,0:0:0:0:
356,28,3289,1,0,0:0:0:0:
332,36,3383,1,8,0:0:0:0:
220,160,3570,1,2,0:0:0:0:
220,160,3664,2,0,P|241:152|259:142,1,35
252,44,3945,1,2,0:0:0:0:
144,28,4133,1,8,0:0:0:0:
92,140,4320,1,0,0:0:0:0:
108,160,4414,1,0,0:0:0:0:
116,184,4508,6,0,B|88:244|88:244|32:292,1,140,2|8,0:0|0:0,0:0:0:0:
264,272,5070,2,0,B|292:212|292:212|348:164,1,140,2|0,0:0|0:0,0:0:0:0:
192,344,5633,1,8,0:0:0:0:
284,288,5820,1,0,0:0:0:0:
172,188,6008,37,2,0:0:0:0:
328,96,6195,1,0,1:0:0:0:
328,96,6289,2,0,L|288:92,1,35,0|8,1:0|0:0,0:0:0:0:
180,208,6570,53,2,0:2:0:0:
184,228,6633,1,0,0:0:0:0:
180,248,6695,1,0,0:0:0:0:
172,267,6758,2,0,L|124:273,1,48.9999985046387
68,372,6945,2,0,L|116:366,1,48.9999985046387,8|0,0:0|0:0,0:0:0:0:
236,348,7133,1,8,0:0:0:0:
284,236,7508,38,0,L|432:240,1,146.999995513916,4|0,0:0|0:0,0:0:0:0:
456,64,7883,2,0,L|464:148,1,83.9999974365235,8|2,0:0|0:0,0:0:0:0:
488,180,8164,1,0,0:0:0:0:
488,180,8258,1,2,0:0:0:0:
336,52,8445,1,2,0:0:0:0:
256,112,8633,2,0,P|212:112|172:96,1,83.9999974365235,8|0,0:0|0:0,0:0:0:0:
152,64,8914,1,0,0:0:0:0:
144,24,9008,6,0,L|0:76,1,146.999995513916,2|0,0:0|0:0,0:0:0:0:
0,172,9383,2,0,P|12:212|36:248,1,83.9999974365235,8|2,0:0|0:0,0:0:0:0:
76,264,9664,1,0,0:0:0:0:
76,264,9758,1,2,0:0:0:0:
200,224,9945,1,2,0:0:0:0:
56,348,10133,1,8,0:0:0:0:
220,264,10320,1,0,0:0:0:0:
100,340,10508,6,0,L|200:352,1,97.9999970092774,4|0,0:1|0:0,0:0:0:0:
288,324,10789,2,0,L|308:280,1,48.9999985046387,0|8,0:0|0:0,0:0:0:0:
420,112,11070,1,2,0:0:0:0:
420,132,11164,2,0,L|400:180,1,41.9999987182618,0|2,0:0|0:0,0:0:0:0:
300,236,11445,1,2,0:0:0:0:
428,204,11633,1,8,0:0:0:0:
276,196,11820,1,0,0:0:0:0:
232,184,11914,1,0,0:0:0:0:
192,160,12008,38,0,P|160:136|144:112,1,70,2|0,0:0|0:0,0:0:0:0:
108,84,12289,1,0,0:0:0:0:
57,84,12383,1,8,0:0:0:0:
35,129,12476,1,0,0:0:0:0:
66,168,12570,1,2,0:0:0:0:
87,213,12664,1,0,0:0:0:0:
78,262,12758,1,2,0:0:0:0:
97,307,12851,1,0,0:0:0:0:
142,328,12945,1,2,0:0:0:0:
190,313,13039,1,0,0:0:0:0:
239,323,13133,2,0,L|328:328,1,83.9999974365235,8|0,0:0|0:0,0:0:0:0:
476,176,13508,6,0,P|448:216|356:248,1,146.999995513916,4|0,1:0|0:0,0:0:0:0:
292,188,13883,1,8,0:0:0:0:
300,148,13976,1,0,0:0:0:0:
308,108,14070,1,2,0:0:0:0:
316,68,14164,1,0,0:0:0:0:
308,28,14258,2,0,B|248:24|248:24|208:32|208:32|208:32,1,97.9999970092774,4|2,1:0|0:0,0:0:0:0:
20,72,14633,2,0,P|52:108|100:128,1,97.9999970092774,8|0,0:0|0:0,0:0:0:0:
140,128,14914,1,0,0:0:0:0:
168,96,15008,6,0,L|184:196,1,97.9999970092774,4|0,1:0|0:0,0:0:0:0:
160,272,15289,1,0,0:0:0:0:
160,272,15383,2,0,L|112:268,1,48.9999985046387,4|0,1:0|0:0,0:0:0:0:
240,304,15570,2,0,L|288:308,1,48.9999985046387,2|0,0:0|0:0,0:0:0:0:
372,248,15758,1,4,1:0:0:0:
391,225,15851,1,0,0:0:0:0:
401,197,15945,1,2,0:0:0:0:
404,167,16039,1,0,0:0:0:0:
399,137,16133,1,8,0:0:0:0:
385,111,16226,1,0,0:0:0:0:
367,87,16320,1,2,0:0:0:0:
342,71,16414,1,0,0:0:0:0:
313,63,16508,6,0,B|276:68|276:68|248:48|216:40,1,97.9999970092774,4|0,1:0|0:0,0:0:0:0:
221,41,16789,1,0,0:0:0:0:
221,41,16883,2,0,L|168:48,1,48.9999985046387,8|0,0:0|0:0,0:0:0:0:
72,52,17070,2,0,L|88:100,1,48.9999985046387,2|0,0:0|0:0,0:0:0:0:
152,160,17258,1,4,1:0:0:0:
185,158,17351,1,0,0:0:0:0:
217,170,17445,1,2,0:0:0:0:
243,191,17539,1,0,0:0:0:0:
257,222,17633,2,0,L|220:256,1,48.9999985046387,8|0,0:0|0:0,0:0:0:0:
264,328,17820,2,0,L|320:312,1,48.9999985046387,2|0,0:0|0:0,0:0:0:0:
392,256,18008,37,6,0:0:0:0:
428,92,18195,1,2,0:0:0:0:
440,180,18383,1,10,0:0:0:0:
356,32,18570,54,0,L|320:36,3,32.6666656697591,0|0|0|0,1:0|1:0|1:0|1:0,0:0:0:0:
428,92,18945,5,8,1:0:0:0:
224,72,19133,2,0,L|152:68,1,70,12|0,0:0|0:0,0:0:0:0:
44,88,19508,22,0,P|40:132|48:172,1,83.9999974365235,4|0,0:0|0:0,0:0:0:0:
116,316,19883,2,0,L|124:232,1,83.9999974365235,8|0,0:0|0:0,0:0:0:0:
200,128,20258,2,0,P|272:168|316:240,1,167.999994873047,2|8,0:0|0:0,0:0:0:0:
323,271,20726,1,0,0:0:0:0:
323,303,20820,1,2,0:0:0:0:
307,331,20914,1,0,0:0:0:0:
279,347,21008,6,0,L|367:339,1,83.9999974365235,2|0,0:0|0:0,0:0:0:0:
492,192,21383,2,0,L|404:184,1,83.9999974365235,8|0,0:0|0:0,0:0:0:0:
256,52,21758,2,0,B|312:60|340:116|340:116|364:92|400:88,1,167.999994873047,2|8,0:0|0:0,0:0:0:0:
176,140,22320,1,0,0:0:0:0:
148,128,22414,1,0,0:0:0:0:
128,104,22508,6,0,P|124:60|136:20,1,83.9999974365235,2|0,0:0|0:0,0:0:0:0:
228,228,22883,2,0,L|144:228,1,83.9999974365235,8|0,0:0|0:0,0:0:0:0:
296,140,23258,2,0,L|380:140,1,83.9999974365235,2|0,0:0|0:0,0:0:0:0:
476,212,23633,2,0,P|480:253|469:293,1,83.9999974365235,8|0,0:0|0:0,0:0:0:0:
284,312,24008,38,0,B|348:256|348:256|388:248,1,125.999996154785,2|0,0:0|0:0,0:0:0:0:
388,200,24383,1,0,1:0:0:0:
347,208,24476,1,0,0:0:0:0:
315,236,24570,1,0,1:0:0:0:
283,264,24664,1,0,0:0:0:0:
252,291,24758,1,0,1:0:0:0:
44,72,25133,2,0,L|168:96,1,125.999996154785,8|0,0:0|0:0,0:0:0:0:
264,52,25508,6,0,P|304:48|348:60,1,83.9999974365235,4|0,0:0|0:0,0:0:0:0:
184,132,25883,2,0,L|92:112,1,83.9999974365235,8|0,0:0|0:0,0:0:0:0:
124,252,26258,2,0,B|168:264|208:248|208:248|208:248|208:248|248:256|288:232,1,167.999994873047,2|8,0:0|0:0,0:0:0:0:
312,212,26726,1,0,0:0:0:0:
306,245,26820,1,2,0:0:0:0:
311,278,26914,1,0,0:0:0:0:
328,307,27008,6,0,L|408:278,1,83.9999974365235,2|0,0:0|0:0,0:0:0:0:
456,116,27383,2,0,L|377:144,1,83.9999974365235,8|0,0:0|0:0,0:0:0:0:
204,88,27758,2,0,B|276:60|276:60|300:64|300:64|364:40,1,167.999994873047,2|8,0:0|0:0,0:0:0:0:
192,188,28320,1,0,0:0:0:0:
160,184,28414,1,0,0:0:0:0:
132,168,28508,6,0,P|104:136|92:92,1,83.9999974365235,2|0,0:0|0:0,0:0:0:0:
176,284,28883,2,0,P|163:323|136:355,1,83.9999974365235,8|0,0:0|0:0,0:0:0:0:
296,240,29258,2,0,L|380:240,1,83.9999974365235,2|0,0:0|0:0,0:0:0:0:
512,320,29633,2,0,L|428:320,1,83.9999974365235,8|0,0:0|0:0,0:0:0:0:
264,324,30008,37,2,0:0:0:0:
176,348,30195,1,8,0:0:0:0:
84,332,30383,1,2,0:0:0:0:
20,268,30570,1,0,1:0:0:0:
20,268,30664,1,0,1:0:0:0:
20,268,30758,1,8,0:0:0:0:
0,180,30945,1,0,0:0:0:0:
0,180,31039,1,0,0:0:0:0:
0,180,31133,2,0,P|52:184|104:232,1,125.999996154785,8|0,0:0|0:0,0:0:0:0:
144,252,31508,6,0,L|156:164,1,83.9999974365235,4|0,0:0|0:0,0:0:0:0:
232,28,31883,2,0,P|248:64|248:112,1,83.9999974365235,8|0,0:0|0:0,0:0:0:0:
240,224,32258,2,0,B|276:228|276:228|324:212|340:160|340:160|376:156,1,167.999994873047,2|8,0:0|0:0,0:0:0:0:
400,176,32726,1,0,0:0:0:0:
404,144,32820,1,2,0:0:0:0:
408,112,32914,1,0,0:0:0:0:
424,84,33008,6,0,L|344:60,1,83.9999974365235,2|0,0:0|0:0,0:0:0:0:
348,280,33383,2,0,L|428:256,1,83.9999974365235,8|0,0:0|0:0,0:0:0:0:
200,252,33758,2,0,B|168:252|144:232|144:232|104:240|84:276|88:316,1,167.999994873047,2|8,0:0|0:0,0:0:0:0:
296,208,34320,1,0,0:0:0:0:
296,208,34414,1,0,0:0:0:0:
296,208,34508,6,0,P|264:168|232:152,1,83.9999974365235,2|0,0:0|0:0,0:0:0:0:
64,64,34883,2,0,P|45:111|47:147,1,83.9999974365235,8|0,0:0|0:0,0:0:0:0:
56,336,35258,2,0,P|106:328|136:308,1,83.9999974365235,2|0,0:0|0:0,0:0:0:0:
148,144,35633,2,0,P|167:180|170:222,1,83.9999974365235,8|0,0:0|0:0,0:0:0:0:
256,324,36008,38,0,P|304:328|356:304,1,97.9999970092774,2|0,0:0|0:0,0:0:0:0:
384,220,36289,1,0,0:0:0:0:
384,220,36383,2,0,L|348:188,1,48.9999985046387,0|0,1:0|0:0,0:0:0:0:
476,212,36570,2,0,L|476:260,1,48.9999985046387,0|0,1:0|0:0,0:0:0:0:
476,356,36758,1,0,1:0:0:0:
388,72,37133,2,0,B|336:84|296:60|296:60|264:56,1,125.999996154785,8|0,0:0|0:0,0:0:0:0:
160,32,37508,6,0,P|120:32|80:48,1,83.9999974365235,4|0,0:0|0:0,0:0:0:0:
268,160,37883,2,0,L|356:152,1,83.9999974365235,8|0,0:0|0:0,0:0:0:0:
196,108,38258,2,0,B|128:96|72:136|72:136|56:172,1,167.999994873047,2|8,0:0|0:0,0:0:0:0:
61,202,38726,1,0,0:0:0:0:
81,229,38820,1,2,0:0:0:0:
112,241,38914,1,0,0:0:0:0:
145,242,39008,6,0,P|186:233|221:208,1,83.9999974365235,2|0,0:0|0:0,0:0:0:0:
296,40,39383,2,0,P|283:80|287:122,1,83.9999974365235,8|0,0:0|0:0,0:0:0:0:
427,347,39758,2,0,P|398:270|330:223,1,167.999994873047,2|8,0:0|0:0,0:0:0:0:
252,364,40320,1,0,0:0:0:0:
252,364,40414,1,0,0:0:0:0:
252,364,40508,6,0,P|296:352|328:328,1,83.9999974365235,2|0,0:0|0:0,0:0:0:0:
112,276,40883,2,0,P|68:264|36:240,1,83.9999974365235,8|0,0:0|0:0,0:0:0:0:
164,372,41258,2,0,P|183:330|185:290,1,83.9999974365235,2|0,0:0|0:0,0:0:0:0:
224,100,41633,2,0,P|243:141|245:181,1,83.9999974365235,8|2,0:0|0:0,0:0:0:0:
257,205,41914,1,0,0:0:0:0:
280,228,42008,6,0,P|328:256|424:252,1,146.999995513916,4|0,0:0|0:0,0:0:0:0:
496,308,42383,2,0,P|456:340|404:348,1,97.9999970092774,0|0,1:0|1:0,0:0:0:0:
368,344,42664,1,0,0:0:0:0:
328,328,42758,22,0,P|280:320|224:336,1,97.9999970092774,0|2,1:0|0:0,0:0:0:0:
80,300,43133,1,8,0:0:0:0:
210,365,43320,1,2,0:0:0:0:
64,264,43508,6,0,L|76:176,1,83.9999974365235,4|2,0:0|0:0,0:0:0:0:
112,64,43883,1,8,0:0:0:0:
188,128,44070,2,0,L|200:186,1,55.9999982910157,2|0,0:0|0:0,0:0:0:0:
236,220,44258,2,0,L|320:228,1,83.9999974365235,0|2,0:0|0:0,0:0:0:0:
456,64,44633,2,0,L|372:72,1,83.9999974365235,8|2,0:0|0:0,0:0:0:0:
292,120,44914,1,0,0:0:0:0:
316,152,45008,6,0,P|356:160|388:188,1,83.9999974365235,0|2,0:0|0:0,0:0:0:0:
416,218,45289,1,0,0:0:0:0:
456,227,45383,1,8,0:0:0:0:
484,257,45476,1,0,0:0:0:0:
490,298,45570,1,2,0:0:0:0:
464,332,45664,2,0,L|444:344,2,20.9999993591309,0|0|0,0:0|0:0|0:0,0:0:0:0:
256,248,45945,2,0,L|244:292,1,41.9999987182618,2|0,0:0|0:0,0:0:0:0:
128,320,46133,2,0,L|168:300,1,41.9999987182618,8|0,0:0|0:0,0:0:0:0:
120,228,46320,2,0,L|80:212,1,41.9999987182618,2|0,0:0|0:0,0:0:0:0:
64,108,46508,6,0,L|140:144,1,83.9999974365235,0|2,0:0|0:0,0:0:0:0:
320,184,46883,1,8,0:0:0:0:
364,207,46976,1,0,0:0:0:0:
413,196,47070,1,2,0:0:0:0:
438,152,47164,1,0,0:0:0:0:
430,102,47258,2,0,L|348:82,1,83.9999974365235,0|2,0:0|0:0,0:0:0:0:
304,57,47539,1,0,0:0:0:0:
272,96,47633,2,0,L|231:104,1,41.9999987182618,8|0,0:0|0:0,0:0:0:0:
156,60,47820,2,0,L|175:20,1,41.9999987182618,2|0,0:0|0:0,0:0:0:0:
64,68,48008,38,0,P|72:104|64:152,1,83.9999974365235,0|2,0:0|0:0,0:0:0:0:
32,288,48383,2,0,L|81:304,1,48.9999985046387,8|0,0:0|0:0,0:0:0:0:
172,260,48570,2,0,L|220:275,1,48.9999985046387,2|0,0:0|0:0,0:0:0:0:
272,356,48758,1,0,0:0:0:0:
336,256,48945,1,2,0:0:0:0:
348,280,49039,2,0,L|336:304,1,20.9999993591309
366,293,49133,2,0,P|408:300|448:292,1,83.9999974365235,8|2,0:0|0:0,0:0:0:0:
512,244,49414,1,0,0:0:0:0:
480,212,49508,6,0,L|464:128,1,83.9999974365235,4|2,0:0|0:0,0:0:0:0:
365,57,49883,1,8,0:0:0:0:
352,96,49976,1,0,0:0:0:0:
321,124,50070,1,2,0:0:0:0:
280,135,50164,1,0,0:0:0:0:
238,128,50258,2,0,L|154:130,1,83.9999974365235,0|2,0:0|0:0,0:0:0:0:
52,240,50633,2,0,P|92:236|140:248,1,83.9999974365235,8|2,0:0|0:0,0:0:0:0:
204,284,50914,1,0,0:0:0:0:
232,320,51008,6,0,L|304:276,1,83.9999974365235,0|2,0:0|0:0,0:0:0:0:
344,267,51289,1,0,0:0:0:0:
355,226,51383,1,8,0:0:0:0:
389,203,51476,1,0,0:0:0:0:
430,197,51570,1,2,0:0:0:0:
468,216,51664,2,0,L|476:240,2,20.9999993591309,0|0|0,0:0|0:0|0:0,0:0:0:0:
324,112,51945,2,0,L|332:68,1,41.9999987182618,2|0,0:0|0:0,0:0:0:0:
224,64,52133,2,0,L|244:104,1,41.9999987182618,8|0,0:0|0:0,0:0:0:0:
208,176,52320,2,0,L|172:156,1,41.9999987182618,2|0,0:0|0:0,0:0:0:0:
76,204,52508,6,0,L|156:244,1,83.9999974365235,0|2,0:0|0:0,0:0:0:0:
182,280,52789,1,0,0:0:0:0:
231,271,52883,2,0,L|268:252,1,41.9999987182618,8|0,0:0|0:0,0:0:0:0:
348,276,53070,2,0,L|352:320,1,41.9999987182618,2|0,0:0|0:0,0:0:0:0:
368,196,53258,2,0,P|388:160|424:136,1,83.9999974365235,0|2,0:0|0:0,0:0:0:0:
472,128,53539,1,0,0:0:0:0:
472,128,53633,2,0,L|452:84,1,41.9999987182618,8|0,0:0|0:0,0:0:0:0:
392,28,53820,2,0,L|352:44,1,41.9999987182618,2|0,0:0|0:0,0:0:0:0:
272,80,54008,6,0,P|228:88|176:72,1,97.9999970092774,4|2,0:0|0:0,0:0:0:0:
88,32,54289,1,0,0:0:0:0:
88,32,54383,2,0,L|40:40,1,48.9999985046387,0|0,1:0|0:0,0:0:0:0:
92,168,54570,2,0,L|104:120,1,48.9999985046387,2|0,1:2|0:0,0:0:0:0:
0,164,54758,22,0,L|20:264,1,97.9999970092774,0|2,1:0|0:0,0:0:0:0:
252,336,55133,2,0,L|152:356,1,97.9999970092774,0|0,1:0|0:0,0:0:0:0:
296,252,55508,5,4,0:0:0:0:
400,224,55695,1,0,0:0:0:0:
344,132,55883,2,0,P|336:84|352:36,1,97.9999970092774,0|0,1:0|0:0,0:0:0:0:
464,112,56258,1,2,0:0:0:0:
464,148,56351,1,0,0:0:0:0:
472,184,56445,2,0,P|480:232|464:280,1,97.9999970092774,2|0,0:0|1:0,0:0:0:0:
216,272,56820,1,0,0:0:0:0:
208,280,56914,1,0,0:0:0:0:
200,288,57008,6,0,L|104:308,1,97.9999970092774,2|0,0:0|0:0,0:0:0:0:
12,216,57383,2,0,P|4:164|12:120,1,97.9999970092774,0|0,1:0|0:0,0:0:0:0:
112,40,57758,1,2,0:0:0:0:
120,48,57852,1,0,0:0:0:0:
128,56,57946,2,0,L|224:76,1,97.9999970092774,2|0,0:0|1:0,0:0:0:0:
424,152,58320,1,0,0:0:0:0:
464,128,58414,1,0,0:0:0:0:
488,88,58508,6,0,P|456:52|408:36,1,97.9999970092774,2|0,0:0|0:0,0:0:0:0:
260,52,58883,2,0,P|218:75|192:119,1,97.9999970092774,0|2,1:0|0:0,0:0:0:0:
232,204,59164,1,0,0:0:0:0:
272,228,59258,2,0,P|284:181|272:132,1,97.9999970092774,2|0,0:0|0:0,0:0:0:0:
112,320,59633,2,0,L|212:316,1,97.9999970092774,0|0,1:0|0:0,0:0:0:0:
448,344,60008,37,2,1:2:0:0:
268,48,60383,1,0,1:0:0:0:
376,120,60570,1,0,1:0:0:0:
204,164,60758,53,2,1:2:0:0:
252,180,60852,1,0,0:0:0:0:
300,176,60945,1,0,0:0:0:0:
344,156,61040,1,0,0:0:0:0:
376,120,61133,1,2,1:2:0:0:
160,268,61508,38,0,L|56:260,1,97.9999970092774,4|0,0:0|0:0,0:0:0:0:
288,344,61883,2,0,L|385:336,1,97.9999970092774,0|0,1:0|0:0,0:0:0:0:
252,248,62258,1,2,0:0:0:0:
224,224,62351,1,0,0:0:0:0:
204,192,62445,2,0,B|200:152|200:152|192:136|192:136|188:96,1,97.9999970092774,2|0,0:0|1:0,0:0:0:0:
56,96,62820,1,0,0:0:0:0:
60,108,62914,1,0,0:0:0:0:
64,120,63008,6,0,P|56:168|68:216,1,97.9999970092774,2|0,0:0|0:0,0:0:0:0:
208,320,63383,2,0,P|256:328|304:316,1,97.9999970092774,0|0,1:0|0:0,0:0:0:0:
412,104,63758,1,2,0:0:0:0:
420,116,63851,1,0,0:0:0:0:
428,128,63945,2,0,B|432:168|432:168|440:184|440:184|444:224,1,97.9999970092774,2|0,0:0|1:0,0:0:0:0:
252,120,64320,1,0,0:0:0:0:
224,84,64414,1,0,0:0:0:0:
236,40,64508,6,0,L|332:24,1,97.9999970092774,2|0,0:0|0:0,0:0:0:0:
156,256,64883,2,0,P|108:260|60:244,1,97.9999970092774,0|2,1:0|0:0,0:0:0:0:
48,132,65164,1,0,0:0:0:0:
72,92,65258,2,0,P|102:129|117:177,1,97.9999970092774,2|0,0:0|0:0,0:0:0:0:
264,352,65633,2,0,L|272:252,1,97.9999970092774,0|0,1:0|0:0,0:0:0:0:
328,92,66008,37,2,0:0:0:0:
482,165,66195,1,0,0:0:0:0:
368,192,66383,1,0,1:0:0:0:
476,56,66570,1,0,1:0:0:0:
288,168,66758,2,0,P|236:160|196:136,1,97.9999970092774,2|2,1:2|0:0,0:0:0:0:
164,68,67039,1,0,0:0:0:0:
164,68,67133,2,0,L|112:76,1,48.9999985046387,2|0,1:2|0:0,0:0:0:0:
52,144,67320,2,0,L|72:188,1,48.9999985046387,2|0,0:0|0:0,0:0:0:0:
92,268,67508,5,4,0:0:0:0:
228,240,67695,1,0,0:0:0:0:
320,344,67883,2,0,P|368:344|416:324,1,97.9999970092774,0|0,1:0|0:0,0:0:0:0:
492,204,68258,1,2,0:0:0:0:
456,196,68351,1,0,0:0:0:0:
432,168,68445,2,0,B|424:120|424:120|432:72,1,97.9999970092774,2|0,0:0|1:0,0:0:0:0:
272,44,68820,1,0,0:0:0:0:
264,56,68914,1,0,0:0:0:0:
256,68,69008,6,0,P|212:80|160:72,1,97.9999970092774,2|0,0:0|0:0,0:0:0:0:
52,200,69383,2,0,P|64:244|56:296,1,97.9999970092774,0|0,1:0|0:0,0:0:0:0:
184,180,69758,1,2,0:0:0:0:
192,168,69852,1,0,0:0:0:0:
200,156,69946,2,0,P|244:144|296:152,1,97.9999970092774,2|0,0:0|1:0,0:0:0:0:
452,296,70320,1,0,0:0:0:0:
428,336,70414,1,0,0:0:0:0:
384,352,70508,6,0,P|344:340|308:296,1,97.9999970092774,2|0,0:0|0:0,0:0:0:0:
296,152,70883,2,0,P|306:111|349:74,1,97.9999970092774,0|2,1:0|0:0,0:0:0:0:
444,140,71164,1,0,0:0:0:0:
460,184,71258,2,0,P|418:182|372:148,1,97.9999970092774,2|0,0:0|0:0,0:0:0:0:
220,76,71633,2,0,L|120:88,1,97.9999970092774,0|0,1:0|0:0,0:0:0:0:
28,188,72008,37,2,1:2:0:0:
340,320,72383,1,0,1:0:0:0:
264,224,72570,1,0,1:0:0:0:
442,254,72758,53,2,1:2:0:0:
404,223,72851,1,0,0:0:0:0:
358,207,72945,1,0,0:0:0:0:
309,207,73039,1,0,0:0:0:0:
264,223,73133,1,2,1:2:0:0:
112,336,73508,38,0,L|124:236,1,97.9999970092774,4|0,0:0|0:0,0:0:0:0:
72,48,73883,2,0,L|60:145,1,97.9999970092774,0|0,1:0|0:0,0:0:0:0:
216,312,74258,1,2,0:0:0:0:
248,328,74351,1,0,0:0:0:0:
284,336,74445,2,0,P|332:336|372:308,1,97.9999970092774,2|0,0:0|1:0,0:0:0:0:
440,176,74820,1,0,0:0:0:0:
428,168,74914,1,0,0:0:0:0:
416,160,75008,6,0,B|400:112|400:112|404:64,1,97.9999970092774,2|0,0:0|0:0,0:0:0:0:
224,120,75383,2,0,L|124:120,1,97.9999970092774,0|0,1:0|0:0,0:0:0:0:
288,36,75758,1,2,0:0:0:0:
292,48,75851,1,0,0:0:0:0:
296,60,75945,2,0,B|312:108|312:108|308:156,1,97.9999970092774,2|0,0:0|1:0,0:0:0:0:
208,304,76320,1,0,0:0:0:0:
168,328,76414,1,0,0:0:0:0:
124,312,76508,6,0,P|100:276|100:220,1,97.9999970092774,2|0,0:0|0:0,0:0:0:0:
296,60,76883,2,0,P|339:64|381:100,1,97.9999970092774,0|2,1:0|0:0,0:0:0:0:
380,188,77164,1,0,0:0:0:0:
348,224,77258,2,0,P|317:186|312:138,1,97.9999970092774,2|0,0:0|0:0,0:0:0:0:
452,320,77633,2,0,B|412:316|412:316|392:320|392:320|352:316,1,97.9999970092774,0|2,1:0|1:2,0:0:0:0:
308,332,77914,1,0,0:0:0:0:
308,332,78008,5,4,1:0:0:0:
212,316,78195,1,2,1:2:0:0:
128,264,78383,1,8,0:0:0:0:
72,184,78570,1,0,1:0:0:0:
52,88,78758,1,0,1:0:0:0:
308,332,79133,1,8,0:0:0:0:
52,88,79508,21,4,0:0:0:0:
256,72,79883,5,2,0:0:0:0:
256,72,80070,2,0,L|368:96,1,112,0|0,0:0|0:0,0:0:0:0:
400,188,80633,2,0,L|512:212,1,112,2|0,0:0|0:0,0:0:0:0:
192,232,81383,5,2,0:0:0:0:
192,232,81570,2,0,P|168:272|104:300,1,112,0|0,0:0|0:0,0:0:0:0:
24,224,82133,2,0,L|44:112,1,112,2|0,0:0|0:0,0:0:0:0:
216,48,82883,5,2,0:0:0:0:
216,48,83070,2,0,P|164:68|108:64,1,112
308,32,83633,2,0,L|420:48,1,112,2|0,0:0|0:0,0:0:0:0:
396,72,84383,37,8,0:0:0:0:
320,192,84570,53,2,1:2:0:0:
324,208,84633,1,0,1:0:0:0:
328,224,84695,1,0,1:0:0:0:
332,240,84758,2,0,L|312:284,1,48.9999985046387,0|0,1:0|1:0,0:0:0:0:
424,188,84945,2,0,L|444:144,1,48.9999985046387,8|0,1:0|1:0,0:0:0:0:
420,308,85133,1,8,1:0:0:0:
216,292,85508,38,0,L|68:276,1,146.999995513916,4|0,0:0|0:0,0:0:0:0:
28,84,85883,2,0,L|20:168,1,83.9999974365235,8|2,0:0|0:0,0:0:0:0:
36,204,86164,1,0,0:0:0:0:
36,204,86258,1,2,0:0:0:0:
156,48,86445,1,2,0:0:0:0:
252,168,86633,2,0,L|244:84,1,83.9999974365235,8|0,0:0|0:0,0:0:0:0:
396,44,87008,6,0,L|412:192,1,146.999995513916,2|0,0:0|0:0,0:0:0:0:
384,288,87383,2,0,P|356:324|320:344,1,83.9999974365235,8|2,0:0|0:0,0:0:0:0:
276,348,87664,1,0,0:0:0:0:
276,348,87758,1,2,0:0:0:0:
128,220,87945,1,2,0:0:0:0:
232,336,88133,1,8,0:0:0:0:
156,184,88320,1,0,0:0:0:0:
200,304,88508,6,0,L|92:312,1,97.9999970092774,4|0,0:1|0:0,0:0:0:0:
28,252,88789,2,0,L|36:204,1,48.9999985046387,0|8,0:0|0:0,0:0:0:0:
200,56,89070,1,2,0:0:0:0:
212,72,89164,2,0,L|220:116,1,41.9999987182618,0|4,0:0|0:1,0:0:0:0:
296,232,89445,1,2,0:0:0:0:
184,144,89633,1,8,0:0:0:0:
320,188,89820,1,0,0:0:0:0:
148,148,90008,38,0,P|112:148|80:160,1,70,4|0,0:1|0:0,0:0:0:0:
47,198,90289,1,0,0:0:0:0:
52,248,90383,1,8,0:0:0:0:
92,277,90476,1,0,0:0:0:0:
142,275,90570,1,2,0:0:0:0:
185,299,90664,1,0,0:0:0:0:
219,336,90758,1,2,0:0:0:0:
268,340,90851,1,0,0:0:0:0:
314,320,90945,1,2,0:0:0:0:
336,274,91039,1,0,0:0:0:0:
328,224,91133,2,0,L|346:142,1,83.9999974365235,8|0,0:0|0:0,0:0:0:0:
372,12,91508,5,4,0:0:0:0:
488,192,91883,1,2,0:0:0:0:
328,104,92164,1,0,0:0:0:0:
280,88,92258,2,0,P|212:92|148:124,1,140,0|2,0:0|0:0,0:0:0:0:
104,240,92820,1,0,0:0:0:0:
208,312,93008,6,0,P|256:320|312:312,1,105
388,276,93383,2,0,P|424:272|456:280,1,70,2|0,0:0|0:0,0:0:0:0:
464,132,93758,2,0,L|356:144,1,105,0|0,0:0|0:0,0:0:0:0:
284,172,94133,2,0,P|232:152|184:80,1,140,2|0,0:0|0:0,0:0:0:0:
200,228,94883,5,2,0:0:0:0:
84,84,95164,1,0,0:0:0:0:
68,132,95258,2,0,L|80:276,1,140,0|2,0:0|0:0,0:0:0:0:
196,344,95820,1,0,0:0:0:0:
324,296,96008,38,0,P|356:296|400:312,1,70
436,332,96289,1,0,0:0:0:0:
436,332,96383,1,2,0:0:0:0:
440,200,96570,2,0,L|472:188,2,27.9999991455078,2|0|0,0:0|0:0|0:0,0:0:0:0:
392,184,96758,2,0,L|380:140,1,41.9999987182618,2|0,0:0|0:0,0:0:0:0:
320,100,96945,2,0,L|288:128,1,41.9999987182618,2|0,0:0|0:0,0:0:0:0:
220,156,97133,1,2,0:0:0:0:
76,80,97320,1,0,0:0:0:0:
76,80,97414,1,0,0:0:0:0:
76,80,97508,5,4,0:0:0:0:
81,100,97601,1,0,0:0:0:0:
84,120,97695,1,0,0:0:0:0:
86,141,97789,1,0,0:0:0:0:
85,162,97883,1,2,0:0:0:0:
83,183,97976,1,0,0:0:0:0:
79,204,98070,1,0,0:0:0:0:
74,224,98164,1,0,0:0:0:0:
68,244,98258,5,0,0:0:0:0:
82,263,98351,1,0,0:0:0:0:
93,284,98445,1,0,0:0:0:0:
99,307,98539,1,0,0:0:0:0:
120,316,98633,1,2,0:0:0:0:
144,312,98726,1,0,0:0:0:0:
168,308,98820,1,0,0:0:0:0:
192,308,98914,1,0,0:0:0:0:
216,312,99008,6,0,L|258:307,3,41.9999987182618,0|0|0|0,0:0|0:0|0:0|0:0,0:0:0:0:
296,320,99383,2,0,L|338:315,3,41.9999987182618,2|0|0|0,0:0|0:0|0:0|0:0,0:0:0:0:
368,288,99758,2,0,L|410:283,3,41.9999987182618
444,304,100133,2,0,L|440:348,3,41.9999987182618,2|0|0|0,0:0|0:0|0:0|0:0,0:0:0:0:
472,224,100508,38,0,L|460:120,1,97.9999970092774,4|0,0:0|0:0,0:0:0:0:
96,160,101258,2,0,L|84:56,1,97.9999970092774,4|0,0:0|0:0,0:0:0:0:
164,220,101633,1,2,0:0:0:0:
32,316,101820,1,0,0:0:0:0:
224,280,102008,6,0,P|240:244|240:192,1,83.9999974365235,0|2,0:0|0:2,0:0:0:0:
204,132,102289,2,0,L|208:88,1,41.9999987182618,0|0,0:0|1:0,0:0:0:0:
320,184,102570,1,2,1:2:0:0:
320,184,102664,1,0,0:0:0:0:
320,184,102758,1,0,1:0:0:0:
228,52,102945,1,8,0:0:0:0:
424,108,103133,1,8,0:0:0:0:
456,124,103508,5,4,0:0:0:0:
428,264,103695,2,0,L|328:316,1,105,8|0,0:0|0:0,0:0:0:0:
292,320,104070,1,0,1:0:0:0:
152,236,104258,2,0,P|189:237|232:260,1,83.9999974365235,8|2,0:0|0:0,0:0:0:0:
92,136,104539,1,0,0:0:0:0:
88,168,104633,2,0,P|51:188|9:190,1,83.9999974365235,0|2,1:0|0:0,0:0:0:0:
176,148,104914,1,0,0:0:0:0:
200,132,105008,5,0,1:0:0:0:
264,48,105195,2,0,L|368:72,1,105,8|0,0:0|0:0,0:0:0:0:
408,60,105570,1,0,1:0:0:0:
500,164,105758,2,0,P|444:172|388:216,1,125.999996154785,8|0,0:0|0:0,0:0:0:0:
308,268,106133,2,0,P|344:276|380:304,1,83.9999974365235,0|2,1:0|0:0,0:0:0:0:
220,284,106414,1,0,0:0:0:0:
192,276,106508,37,0,1:0:0:0:
108,192,106695,2,0,P|108:140|128:92,1,105,8|0,0:0|0:0,0:0:0:0:
164,64,107070,1,0,1:0:0:0:
384,120,107258,2,0,L|300:112,1,83.9999974365235,8|2,0:0|0:0,0:0:0:0:
280,140,107539,1,0,0:0:0:0:
280,140,107633,6,0,L|304:176,1,41.9999987182618,0|0,1:0|0:0,0:0:0:0:
376,204,107820,2,0,L|420:200,1,41.9999987182618,2|0,0:0|0:0,0:0:0:0:
480,144,108008,5,0,1:0:0:0:
308,40,108195,2,0,L|188:48,1,105,8|0,0:0|0:0,0:0:0:0:
164,64,108570,1,0,1:0:0:0:
72,188,108758,2,0,P|104:160|144:148,1,83.9999974365235,8|2,0:0|0:0,0:0:0:0:
244,268,109039,1,0,0:0:0:0:
216,276,109133,2,0,P|176:263|144:236,1,83.9999974365235,0|0,1:0|0:0,0:0:0:0:
328,252,109414,1,0,0:0:0:0:
332,280,109508,5,4,1:0:0:0:
328,168,109695,2,0,L|356:64,1,105,8|0,0:0|0:0,0:0:0:0:
380,92,110070,1,0,1:0:0:0:
440,240,110258,2,0,P|396:240|356:260,1,83.9999974365235,8|2,0:0|0:0,0:0:0:0:
252,316,110539,1,0,0:0:0:0:
224,324,110633,2,0,P|180:324|140:304,1,83.9999974365235,0|2,1:0|0:0,0:0:0:0:
228,184,110914,1,0,0:0:0:0:
244,208,111008,37,0,1:0:0:0:
112,180,111195,2,0,P|108:132|124:76,1,105,8|0,0:0|0:0,0:0:0:0:
152,44,111570,1,0,1:0:0:0:
340,104,111758,2,0,L|464:136,1,125.999996154785,8|0,0:0|0:0,0:0:0:0:
512,224,112133,2,0,L|424:236,1,83.9999974365235,0|2,1:0|0:0,0:0:0:0:
344,304,112414,1,0,0:0:0:0:
372,316,112508,5,0,1:0:0:0:
228,260,112695,2,0,P|176:260|128:284,1,105,8|0,0:0|0:0,0:0:0:0:
108,320,113070,1,0,1:0:0:0:
160,152,113258,2,0,L|172:68,1,83.9999974365235,8|2,0:0|0:0,0:0:0:0:
204,52,113539,1,0,0:0:0:0:
204,52,113633,6,0,L|248:44,1,41.9999987182618,0|0,1:0|0:0,0:0:0:0:
328,68,113820,2,0,L|364:100,1,41.9999987182618,2|0,0:0|0:0,0:0:0:0:
404,172,114008,5,8,1:2:0:0:
404,172,114383,22,0,B|392:288|392:288|368:336,1,168,4|2,0:0|0:0,0:0:0:0:
184,328,115133,2,0,P|228:324|268:340,1,83.9999974365235
176,228,115508,5,4,0:0:0:0:
60,280,115695,1,0,0:0:0:0:
0,152,115883,2,0,P|44:140|96:152,1,97.9999970092774,0|0,1:0|0:0,0:0:0:0:
212,40,116258,1,2,0:0:0:0:
224,72,116351,1,0,0:0:0:0:
252,96,116445,2,0,P|296:108|348:96,1,97.9999970092774,2|0,0:0|1:0,0:0:0:0:
480,232,116820,1,0,0:0:0:0:
468,224,116914,1,0,0:0:0:0:
456,216,117008,6,0,B|408:208|408:208|360:216,1,97.9999970092774,2|0,0:0|0:0,0:0:0:0:
208,320,117383,2,0,B|256:328|256:328|304:320,1,97.9999970092774,0|0,1:0|0:0,0:0:0:0:
104,144,117758,1,2,0:0:0:0:
108,156,117851,1,0,0:0:0:0:
112,168,117945,2,0,L|120:268,1,97.9999970092774,2|0,0:0|1:0,0:0:0:0:
240,152,118320,1,0,0:0:0:0:
212,116,118414,1,0,0:0:0:0:
228,72,118508,6,0,P|260:40|316:32,1,97.9999970092774,2|0,0:0|0:0,0:0:0:0:
400,196,118883,2,0,P|352:188|317:154,1,97.9999970092774,0|2,1:0|0:0,0:0:0:0:
448,132,119164,1,0,0:0:0:0:
476,168,119258,2,0,L|464:276,1,97.9999970092774,2|0,0:0|0:0,0:0:0:0:
304,360,119633,2,0,L|293:262,1,97.9999970092774,0|0,1:0|0:0,0:0:0:0:
228,72,120008,5,2,1:2:0:0:
72,336,120383,1,0,1:0:0:0:
204,236,120570,1,0,1:0:0:0:
48,172,120758,5,2,1:2:0:0:
68,216,120851,1,0,0:0:0:0:
108,244,120945,1,0,0:0:0:0:
156,252,121039,1,0,0:0:0:0:
204,236,121133,1,2,1:2:0:0:
344,68,121508,22,0,L|444:80,1,97.9999970092774,4|0,0:0|0:0,0:0:0:0:
496,232,121883,2,0,P|452:248|400:244,1,97.9999970092774,0|0,1:0|0:0,0:0:0:0:
164,332,122258,1,2,0:0:0:0:
196,352,122351,1,0,0:0:0:0:
232,348,122445,2,0,L|329:336,1,97.9999970092774,2|0,0:0|1:0,0:0:0:0:
212,196,122820,1,0,0:0:0:0:
200,204,122914,1,0,0:0:0:0:
188,212,123008,6,0,B|152:208|152:208|128:200|128:200|92:196,1,97.9999970092774,2|0,0:0|0:0,0:0:0:0:
252,44,123383,2,0,P|300:40|346:56,1,97.9999970092774,0|0,1:0|0:0,0:0:0:0:
424,240,123758,1,2,0:0:0:0:
428,228,123851,1,0,0:0:0:0:
432,216,123945,2,0,L|424:116,1,97.9999970092774,2|0,0:0|1:0,0:0:0:0:
96,68,124320,1,0,0:0:0:0:
52,84,124414,1,0,0:0:0:0:
28,124,124508,6,0,P|32:172|60:212,1,97.9999970092774,2|0,0:0|0:0,0:0:0:0:
216,296,124883,2,0,P|264:292|304:264,1,97.9999970092774,0|2,1:0|0:0,0:0:0:0:
200,220,125164,1,0,0:0:0:0:
156,236,125258,2,0,P|136:280|140:328,1,97.9999970092774,2|0,0:0|0:0,0:0:0:0:
280,144,125633,2,0,L|268:44,1,97.9999970092774,0|0,1:0|0:0,0:0:0:0:
424,132,126008,5,2,0:0:0:0:
396,296,126195,1,0,0:0:0:0:
508,176,126383,1,0,1:0:0:0:
340,216,126570,1,0,1:0:0:0:
168,176,126758,2,0,P|120:180|80:212,1,97.9999970092774,0|2,1:0|0:0,0:0:0:0:
64,304,127039,1,0,0:0:0:0:
64,304,127133,2,0,L|112:316,1,48.9999985046387,0|0,1:0|0:0,0:0:0:0:
224,344,127320,2,0,L|228:292,1,48.9999985046387,2|0,0:0|0:0,0:0:0:0:
260,176,127508,37,4,0:0:0:0:
208,60,127695,1,0,0:0:0:0:
100,112,127883,2,0,P|52:108|8:128,1,97.9999970092774,0|0,1:0|0:0,0:0:0:0:
320,28,128258,1,2,0:0:0:0:
312,64,128351,1,0,0:0:0:0:
336,92,128445,2,0,P|380:112|428:108,1,97.9999970092774,2|0,0:0|1:0,0:0:0:0:
500,240,128820,1,0,0:0:0:0:
488,248,128914,1,0,0:0:0:0:
476,256,129008,6,0,L|376:264,1,97.9999970092774,2|0,0:0|0:0,0:0:0:0:
224,336,129383,2,0,P|224:284|200:244,1,97.9999970092774,0|0,1:0|0:0,0:0:0:0:
64,180,129758,1,2,0:0:0:0:
72,168,129851,1,0,0:0:0:0:
80,156,129945,2,0,L|88:56,1,97.9999970092774,2|0,0:0|1:0,0:0:0:0:
332,108,130320,1,0,0:0:0:0:
316,152,130414,1,0,0:0:0:0:
272,168,130508,6,0,P|220:164|184:132,1,97.9999970092774,2|0,0:0|0:0,0:0:0:0:
416,24,130883,2,0,P|446:61|448:109,1,97.9999970092774,0|2,1:0|0:0,0:0:0:0:
400,192,131164,1,0,0:0:0:0:
412,228,131258,2,0,L|516:240,1,97.9999970092774,2|0,0:0|0:0,0:0:0:0:
352,336,131633,2,0,L|248:348,1,97.9999970092774,0|0,1:0|0:0,0:0:0:0:
84,320,132008,5,2,1:2:0:0:
180,68,132383,1,0,1:0:0:0:
324,140,132570,1,0,1:0:0:0:
168,228,132758,5,2,1:2:0:0:
192,184,132852,1,0,0:0:0:0:
228,152,132946,1,0,0:0:0:0:
276,140,133040,1,0,0:0:0:0:
324,140,133133,1,2,1:2:0:0:
476,324,133508,22,0,L|376:312,1,97.9999970092774,4|0,0:0|0:0,0:0:0:0:
262,265,133883,2,0,L|164:276,1,97.9999970092774,0|0,1:0|0:0,0:0:0:0:
12,128,134258,1,2,0:0:0:0:
48,120,134351,1,0,0:0:0:0:
84,132,134445,2,0,P|132:120|164:80,1,97.9999970092774,2|0,0:0|1:0,0:0:0:0:
248,40,134820,1,0,0:0:0:0:
260,44,134914,1,0,0:0:0:0:
272,48,135008,6,0,B|320:64|320:64|368:56,1,97.9999970092774,2|0,0:0|0:0,0:0:0:0:
460,164,135383,2,0,P|472:212|456:260,1,97.9999970092774,0|0,1:0|0:0,0:0:0:0:
352,332,135758,1,2,0:0:0:0:
340,328,135852,1,0,0:0:0:0:
328,324,135946,2,0,B|280:308|280:308|232:316,1,97.9999970092774,2|0,0:0|1:0,0:0:0:0:
116,336,136320,1,0,0:0:0:0:
72,352,136414,1,0,0:0:0:0:
32,328,136508,6,0,L|16:228,1,97.9999970092774,2|0,0:0|0:0,0:0:0:0:
128,32,136883,2,0,L|112:132,1,97.9999970092774,0|2,1:0|0:0,0:0:0:0:
156,212,137164,1,0,0:0:0:0:
192,240,137258,2,0,P|216:200|212:148,1,97.9999970092774,2|0,0:0|0:0,0:0:0:0:
340,56,137633,2,0,B|388:52|388:52|444:60,1,97.9999970092774,0|0,1:0|0:0,0:0:0:0:
448,316,138008,6,0,B|400:320|400:320|344:312,1,97.9999970092774,4|2,0:0|0:0,0:0:0:0:
312,284,138289,1,0,0:0:0:0:
292,240,138383,1,4,0:0:0:0:
304,192,138476,1,0,0:0:0:0:
336,156,138570,1,2,0:0:0:0:
384,144,138664,1,0,0:0:0:0:
432,156,138758,2,0,P|372:128|340:56,1,146.999995513916,4|0,0:0|0:0,0:0:0:0:
236,28,139133,2,0,P|204:60|152:72,1,97.9999970092774,0|2,1:0|0:0,0:0:0:0:
64,124,139414,1,0,0:0:0:0:
36,160,139508,38,0,L|136:172,1,97.9999970092774,4|0,0:0|0:0,0:0:0:0:
332,272,139883,2,0,P|280:288|256:324,1,97.9999970092774,0|2,1:0|0:0,0:0:0:0:
400,324,140164,1,0,0:0:0:0:
412,280,140258,6,0,B|408:240|408:240|400:224|400:224|396:184,1,97.9999970092774,4|2,0:0|0:0,0:0:0:0:
412,92,140539,1,0,0:0:0:0:
364,80,140633,2,0,P|320:84|272:64,1,97.9999970092774,0|2,1:0|1:2,0:0:0:0:
236,28,140914,1,0,0:0:0:0:
236,28,141008,37,4,1:0:0:0:
140,56,141195,1,2,1:2:0:0:
64,116,141383,1,8,0:0:0:0:
24,204,141570,1,0,1:0:0:0:
16,304,141758,1,0,1:0:0:0:
236,28,142133,1,12,0:0:0:0:
