osu file format v12

[General]
AudioFilename: Quo Vadis.mp3
AudioLeadIn: 0
PreviewTime: 55414
Countdown: 0
SampleSet: Normal
StackLeniency: 0.7
Mode: 1
LetterboxInBreaks: 0
WidescreenStoryboard: 0

[Editor]
DistanceSpacing: 0.2
BeatDivisor: 1
GridSize: 32

[Metadata]
Title:Quo Vadis
TitleUnicode:Quo Vadis
Artist:M2U
ArtistUnicode:M2U
Creator:TKSalt
Version:Kantan
Source:Rhythm Master
Tags:
BeatmapID:340549
BeatmapSetID:135324

[Difficulty]
HPDrainRate:4
CircleSize:2
OverallDifficulty:4
ApproachRate:5
SliderMultiplier:1.2
SliderTickRate:1

[Events]
//Background and Video events
0,0,"bg.jpg",0,70
//Break Periods
//Storyboard Layer 0 (Background)
//Storyboard Layer 1 (Fail)
//Storyboard Layer 2 (Pass)
//Storyboard Layer 3 (Foreground)
//Storyboard Sound Samples
//Background Colour Transformations
3,100,0,0,0

[TimingPoints]
8,375,4,1,0,70,1,0
7508,-100,4,1,0,90,0,0
55508,-100,4,1,0,90,0,1
79508,-100,4,1,0,70,0,0
85508,-100,4,1,0,90,0,0
91508,-100,4,1,0,70,0,0
97508,-100,4,1,0,80,0,0
102008,-100,4,1,0,90,0,0
115508,-100,4,1,0,90,0,1
142133,-100,4,1,0,90,0,0

[Colours]
Combo1 : 74,197,255
Combo2 : 255,128,128

[HitObjects]
256,192,1508,1,8,0:0:0:0:
256,192,3008,1,8,0:0:0:0:
256,192,4508,1,8,0:0:0:0:
256,192,6008,1,8,0:0:0:0:
256,192,6383,1,8,0:0:0:0:
256,192,6758,1,8,0:0:0:0:
256,192,7508,1,4,0:0:0:0:
256,192,8258,1,8,0:0:0:0:
256,192,9008,1,0,0:0:0:0:
256,192,9758,1,8,0:0:0:0:
256,192,10508,1,0,0:0:0:0:
256,192,11258,1,8,0:0:0:0:
256,192,12008,1,0,0:0:0:0:
256,192,12383,1,0,0:0:0:0:
256,192,12758,1,8,0:0:0:0:
256,192,13508,1,4,0:0:0:0:
256,192,14258,1,4,0:0:0:0:
256,192,15008,1,4,0:0:0:0:
256,192,15758,1,4,0:0:0:0:
256,192,16508,1,8,0:0:0:0:
256,192,17258,1,8,0:0:0:0:
256,192,18008,1,0,0:0:0:0:
256,192,19133,1,12,0:0:0:0:
256,192,19508,1,0,0:0:0:0:
256,192,20258,1,0,0:0:0:0:
256,192,21008,1,0,0:0:0:0:
256,192,21383,1,0,0:0:0:0:
256,192,21758,1,0,0:0:0:0:
256,192,22508,1,0,0:0:0:0:
256,192,23258,1,0,0:0:0:0:
256,192,24008,1,0,0:0:0:0:
256,192,24383,1,0,0:0:0:0:
256,192,24758,1,8,0:0:0:0:
256,192,25508,1,0,0:0:0:0:
256,192,26258,1,0,0:0:0:0:
256,192,27008,1,0,0:0:0:0:
256,192,27383,1,0,0:0:0:0:
256,192,27758,1,0,0:0:0:0:
256,192,28508,1,0,0:0:0:0:
256,192,29258,1,0,0:0:0:0:
256,192,29633,1,8,0:0:0:0:
256,192,30008,1,0,0:0:0:0:
256,192,31133,1,12,0:0:0:0:
256,192,31508,1,0,0:0:0:0:
256,192,32258,1,0,0:0:0:0:
256,192,33008,1,8,0:0:0:0:
256,192,33383,1,8,0:0:0:0:
256,192,33758,1,8,0:0:0:0:
256,192,34508,1,0,0:0:0:0:
256,192,35258,1,0,0:0:0:0:
256,192,36008,1,0,0:0:0:0:
256,192,36383,1,0,0:0:0:0:
256,192,36758,1,8,0:0:0:0:
256,192,37508,1,0,0:0:0:0:
256,192,38258,1,0,0:0:0:0:
256,192,39008,1,8,0:0:0:0:
256,192,39383,1,8,0:0:0:0:
256,192,39758,1,8,0:0:0:0:
256,192,40508,1,0,0:0:0:0:
256,192,41258,1,0,0:0:0:0:
256,192,41633,1,8,0:0:0:0:
256,192,42008,1,4,0:0:0:0:
256,192,43508,1,4,0:0:0:0:
256,192,44258,1,0,0:0:0:0:
256,192,45008,1,0,0:0:0:0:
256,192,45758,1,8,0:0:0:0:
256,192,46133,1,8,0:0:0:0:
256,192,46508,1,0,0:0:0:0:
256,192,47258,1,0,0:0:0:0:
256,192,48008,1,0,0:0:0:0:
256,192,48758,1,0,0:0:0:0:
256,192,49133,1,8,0:0:0:0:
256,192,49508,1,4,0:0:0:0:
256,192,50258,1,0,0:0:0:0:
256,192,51008,1,0,0:0:0:0:
256,192,51758,1,8,0:0:0:0:
256,192,52133,1,8,0:0:0:0:
256,192,52508,1,0,0:0:0:0:
256,192,53258,1,0,0:0:0:0:
256,192,54008,1,4,0:0:0:0:
256,192,54758,1,8,0:0:0:0:
256,192,55508,1,4,0:0:0:0:
256,192,56258,1,0,0:0:0:0:
256,192,56633,1,0,0:0:0:0:
256,192,57008,1,8,0:0:0:0:
256,192,57758,1,8,0:0:0:0:
256,192,58133,1,8,0:0:0:0:
256,192,58508,1,0,0:0:0:0:
256,192,59258,1,8,0:0:0:0:
256,192,60008,1,0,0:0:0:0:
256,192,60758,1,8,0:0:0:0:
256,192,61133,1,8,0:0:0:0:
256,192,61508,1,4,0:0:0:0:
256,192,62258,1,8,0:0:0:0:
256,192,62633,1,0,0:0:0:0:
256,192,63008,1,8,0:0:0:0:
256,192,63758,1,0,0:0:0:0:
256,192,64133,1,8,0:0:0:0:
256,192,64508,1,0,0:0:0:0:
256,192,65258,1,8,0:0:0:0:
256,192,66008,1,0,0:0:0:0:
256,192,66383,1,0,0:0:0:0:
256,192,66758,1,8,0:0:0:0:
256,192,67508,1,4,0:0:0:0:
256,192,68258,1,0,0:0:0:0:
256,192,68633,1,0,0:0:0:0:
256,192,69008,1,8,0:0:0:0:
256,192,69758,1,8,0:0:0:0:
256,192,70133,1,8,0:0:0:0:
256,192,70508,1,0,0:0:0:0:
256,192,71258,1,8,0:0:0:0:
256,192,72008,1,4,0:0:0:0:
256,192,72758,1,8,0:0:0:0:
256,192,73133,1,8,0:0:0:0:
256,192,73508,1,4,0:0:0:0:
256,192,74258,1,8,0:0:0:0:
256,192,74633,1,0,0:0:0:0:
256,192,75008,1,8,0:0:0:0:
256,192,75758,1,0,0:0:0:0:
256,192,76133,1,8,0:0:0:0:
256,192,76508,1,0,0:0:0:0:
256,192,77258,1,8,0:0:0:0:
256,192,78008,1,4,0:0:0:0:
256,192,79133,1,12,0:0:0:0:
256,192,79508,1,0,0:0:0:0:
256,192,81008,1,0,0:0:0:0:
256,192,82508,1,0,0:0:0:0:
256,192,84008,1,0,0:0:0:0:
256,192,84758,1,0,0:0:0:0:
256,192,85133,1,12,0:0:0:0:
256,192,85508,1,0,0:0:0:0:
256,192,86258,1,8,0:0:0:0:
256,192,87008,1,0,0:0:0:0:
256,192,87758,1,8,0:0:0:0:
256,192,88508,1,4,0:0:0:0:
256,192,89258,1,4,0:0:0:0:
256,192,90008,1,0,0:0:0:0:
256,192,90383,1,8,0:0:0:0:
256,192,90758,1,0,0:0:0:0:
256,192,91508,1,4,0:0:0:0:
256,192,91883,1,8,0:0:0:0:
256,192,92633,1,8,0:0:0:0:
256,192,93383,1,8,0:0:0:0:
256,192,94133,1,8,0:0:0:0:
256,192,94883,1,8,0:0:0:0:
256,192,95633,1,8,0:0:0:0:
256,192,96383,1,8,0:0:0:0:
256,192,96758,1,8,0:0:0:0:
256,192,97133,1,8,0:0:0:0:
256,192,97508,1,4,0:0:0:0:
256,192,98258,1,0,0:0:0:0:
256,192,99008,1,8,0:0:0:0:
256,192,99383,1,8,0:0:0:0:
256,192,99758,1,8,0:0:0:0:
256,192,100508,1,0,0:0:0:0:
256,192,101258,1,0,0:0:0:0:
256,192,102008,1,0,0:0:0:0:
256,192,102758,1,0,0:0:0:0:
256,192,103133,1,12,0:0:0:0:
256,192,103508,1,0,0:0:0:0:
256,192,104258,1,0,0:0:0:0:
256,192,105008,1,0,0:0:0:0:
256,192,105383,1,0,0:0:0:0:
256,192,105758,1,0,0:0:0:0:
256,192,106508,1,8,0:0:0:0:
256,192,107258,1,8,0:0:0:0:
256,192,108008,1,8,0:0:0:0:
256,192,108383,1,8,0:0:0:0:
256,192,108758,1,8,0:0:0:0:
256,192,109508,1,4,0:0:0:0:
256,192,110258,1,8,0:0:0:0:
256,192,111008,1,0,0:0:0:0:
256,192,111758,1,8,0:0:0:0:
256,192,112508,1,0,0:0:0:0:
256,192,113258,1,8,0:0:0:0:
256,192,114008,12,0,115133,0:0:0:0:
256,192,115508,5,4,0:0:0:0:
256,192,116258,1,0,0:0:0:0:
256,192,116633,1,0,0:0:0:0:
256,192,117008,1,8,0:0:0:0:
256,192,117758,1,8,0:0:0:0:
256,192,118133,1,8,0:0:0:0:
256,192,118508,1,0,0:0:0:0:
256,192,119258,1,8,0:0:0:0:
256,192,120008,1,0,0:0:0:0:
256,192,120758,1,8,0:0:0:0:
256,192,121133,1,8,0:0:0:0:
256,192,121508,1,4,0:0:0:0:
256,192,122258,1,8,0:0:0:0:
256,192,122633,1,0,0:0:0:0:
256,192,123008,1,8,0:0:0:0:
256,192,123758,1,0,0:0:0:0:
256,192,124133,1,8,0:0:0:0:
256,192,124508,1,0,0:0:0:0:
256,192,125258,1,8,0:0:0:0:
256,192,126008,1,0,0:0:0:0:
256,192,126383,1,0,0:0:0:0:
256,192,126758,1,8,0:0:0:0:
256,192,127508,1,4,0:0:0:0:
256,192,128258,1,0,0:0:0:0:
256,192,128633,1,0,0:0:0:0:
256,192,129008,1,8,0:0:0:0:
256,192,129758,1,8,0:0:0:0:
256,192,130133,1,8,0:0:0:0:
256,192,130508,1,0,0:0:0:0:
256,192,131258,1,8,0:0:0:0:
256,192,132008,1,4,0:0:0:0:
256,192,132758,1,8,0:0:0:0:
256,192,133133,1,8,0:0:0:0:
256,192,133508,1,4,0:0:0:0:
256,192,134258,1,8,0:0:0:0:
256,192,134633,1,0,0:0:0:0:
256,192,135008,1,8,0:0:0:0:
256,192,135758,1,0,0:0:0:0:
256,192,136133,1,8,0:0:0:0:
256,192,136508,1,0,0:0:0:0:
256,192,137258,1,8,0:0:0:0:
256,192,138008,1,0,0:0:0:0:
256,192,138383,1,0,0:0:0:0:
256,192,138758,1,8,0:0:0:0:
256,192,139508,1,0,0:0:0:0:
256,192,140258,1,8,0:0:0:0:
256,192,141008,1,0,0:0:0:0:
256,192,141383,1,0,0:0:0:0:
256,192,141758,1,0,0:0:0:0:
256,192,142133,1,12,0:0:0:0:
