osu file format v13

[General]
AudioFilename: M2U-Quo Vadis.mp3
AudioLeadIn: 0
PreviewTime: -1
Countdown: 0
SampleSet: None
StackLeniency: 0.7
Mode: 0
LetterboxInBreaks: 1
WidescreenStoryboard: 0

[Editor]
DistanceSpacing: 0.6
BeatDivisor: 4
GridSize: 8
TimelineZoom: 1

[Metadata]
Title:Quo Vadis
TitleUnicode:Quo Vadis
Artist:M2U
ArtistUnicode:M2U
Creator:Lgndzr
Version:Insane
Source:
Tags:
BeatmapID:475931
BeatmapSetID:200895

[Difficulty]
HPDrainRate:8
CircleSize:4.5
OverallDifficulty:9
ApproachRate:9
SliderMultiplier:1.4
SliderTickRate:1

[Events]
//Background and Video events
//Break Periods
//Storyboard Layer 0 (Background)
//Storyboard Layer 1 (Fail)
//Storyboard Layer 2 (Pass)
//Storyboard Layer 3 (Foreground)
//Storyboard Sound Samples
//Background Colour Transformations
3,100,163,162,255

[TimingPoints]
1508,375,4,1,0,100,1,0
7491,-83.3333333333333,4,1,0,100,0,0

[HitObjects]
88,160,1508,6,0,L|184:136,1,70
167,150,1789,1,0,0:0:0:0:
179,157,1883,2,0,L|272:136,1,70,0|0,0:0|0:0,0:0:0:0:
363,251,2258,2,0,L|343:185,1,70
189,165,2633,2,0,L|282:144,2,70,0|0|0,0:0|0:0|0:0,0:0:0:0:
88,195,3195,5,0,0:0:0:0:
79,221,3289,1,0,0:0:0:0:
91,246,3383,2,0,P|154:274|176:267,1,70
298,191,3758,2,0,P|269:210|259:243,1,70
270,268,4039,1,0,0:0:0:0:
253,290,4133,2,0,P|204:306|171:287,1,70
180,195,4508,6,0,P|144:127|146:121,1,70
151,114,4789,1,0,0:0:0:0:
175,99,4883,1,0,0:0:0:0:
285,84,5070,1,0,0:0:0:0:
422,194,5258,2,0,P|406:164|376:148,1,70
347,148,5539,1,0,0:0:0:0:
332,171,5633,2,0,P|293:210|275:206,1,70
146,308,6008,6,0,P|178:302|197:254,1,70
202,243,6289,1,0,0:0:0:0:
190,217,6383,1,0,0:0:0:0:
106,142,6570,2,0,L|79:131,3,17.5,0|0|0|0,0:0|0:0|0:0|0:0,0:0:0:0:
103,139,6758,1,0,0:0:0:0:
130,134,6851,1,0,0:0:0:0:
149,113,6945,1,0,0:0:0:0:
173,99,7039,1,0,0:0:0:0:
201,98,7133,1,0,0:0:0:0:
302,144,7320,1,0,0:0:0:0:
302,144,7414,1,0,0:0:0:0:
302,144,7508,5,0,0:0:0:0:
434,126,7695,1,0,0:0:0:0:
462,257,7883,1,0,0:0:0:0:
334,298,8070,1,0,0:0:0:0:
302,144,8258,2,0,L|282:37,1,83.9999974365235,0|0,0:0|0:0,0:0:0:0:
334,298,8633,2,0,L|314:191,1,83.9999974365235,0|0,0:0|0:0,0:0:0:0:
266,91,9008,6,0,P|289:136|258:188,1,83.9999974365235
254,186,9289,1,0,0:0:0:0:
220,186,9383,2,0,L|138:232,1,83.9999974365235
109,356,9758,2,0,L|182:314,1,83.9999974365235
246,65,10133,2,0,L|172:106,1,83.9999974365235,0|0,0:0|0:0,0:0:0:0:
55,171,10508,6,0,P|56:218|113:252,1,83.9999974365235
112,250,10789,1,0,0:0:0:0:
142,236,10883,1,0,0:0:0:0:
183,108,11070,1,0,0:0:0:0:
340,153,11258,1,0,0:0:0:0:
269,310,11445,1,0,0:0:0:0:
328,156,11633,2,0,L|292:248,1,83.9999974365235,0|0,0:0|0:0,0:0:0:0:
314,159,12008,6,0,P|328:114|302:76,1,83.9999974365235
283,64,12289,1,0,0:0:0:0:
249,58,12383,1,0,0:0:0:0:
217,67,12476,1,0,0:0:0:0:
193,90,12570,1,0,0:0:0:0:
194,123,12664,1,0,0:0:0:0:
160,122,12758,1,0,0:0:0:0:
129,136,12851,1,0,0:0:0:0:
108,162,12945,1,0,0:0:0:0:
101,195,13039,1,0,0:0:0:0:
113,226,13133,1,0,0:0:0:0:
113,226,13320,1,0,0:0:0:0:
220,306,13508,5,0,0:0:0:0:
220,306,13695,1,0,0:0:0:0:
348,266,13883,1,0,0:0:0:0:
332,236,13976,1,0,0:0:0:0:
346,205,14070,1,0,0:0:0:0:
374,186,14164,1,0,0:0:0:0:
382,153,14258,1,0,0:0:0:0:
382,153,14445,1,0,0:0:0:0:
376,286,14633,1,0,0:0:0:0:
365,125,14820,1,0,0:0:0:0:
331,124,14914,1,0,0:0:0:0:
304,103,15008,5,0,0:0:0:0:
185,39,15195,1,0,0:0:0:0:
306,130,15383,1,0,0:0:0:0:
273,123,15476,1,0,0:0:0:0:
239,129,15570,1,0,0:0:0:0:
216,153,15664,1,0,0:0:0:0:
186,170,15758,1,0,0:0:0:0:
221,205,15851,1,0,0:0:0:0:
242,250,15945,1,0,0:0:0:0:
230,299,16039,1,0,0:0:0:0:
189,328,16133,1,0,0:0:0:0:
139,334,16226,1,0,0:0:0:0:
96,306,16320,1,0,0:0:0:0:
115,259,16414,1,0,0:0:0:0:
88,216,16508,6,0,P|58:171|82:114,1,83.9999974365235
76,113,16789,1,0,0:0:0:0:
101,90,16883,1,0,0:0:0:0:
132,79,16976,1,0,0:0:0:0:
165,79,17070,1,0,0:0:0:0:
191,99,17164,1,0,0:0:0:0:
212,72,17258,1,0,0:0:0:0:
243,59,17351,1,0,0:0:0:0:
276,61,17445,1,0,0:0:0:0:
303,80,17539,1,0,0:0:0:0:
307,113,17633,1,0,0:0:0:0:
280,133,17726,1,0,0:0:0:0:
277,99,17820,1,0,0:0:0:0:
303,119,17914,1,0,0:0:0:0:
269,118,18008,5,0,0:0:0:0:
112,168,18195,1,0,0:0:0:0:
48,352,18383,1,0,0:0:0:0:
264,192,18570,1,0,0:0:0:0:
328,352,18758,1,0,0:0:0:0:
112,168,19133,2,0,L|99:205,7,20.9999993591309,0|0|0|0|0|0|0|0,0:0|0:0|0:0|0:0|0:0|0:0|0:0|0:0,0:0:0:0:
112,168,19508,5,0,0:0:0:0:
236,119,19695,1,0,0:0:0:0:
372,216,19883,1,0,0:0:0:0:
225,109,20070,1,0,0:0:0:0:
382,226,20258,2,0,P|386:277|286:318,1,167.999994873047
263,305,20726,1,0,0:0:0:0:
240,279,20820,1,0,0:0:0:0:
225,248,20914,1,0,0:0:0:0:
221,214,21008,5,0,0:0:0:0:
110,323,21195,1,0,0:0:0:0:
231,184,21383,1,0,0:0:0:0:
135,89,21570,1,0,0:0:0:0:
249,160,21758,2,0,P|318:136|385:203,1,167.999994873047
379,227,22226,1,0,0:0:0:0:
359,254,22320,1,0,0:0:0:0:
329,270,22414,1,0,0:0:0:0:
295,272,22508,1,0,0:0:0:0:
217,162,22695,1,0,0:0:0:0:
65,320,22883,2,0,L|123:259,1,83.9999974365235
217,162,23258,2,0,L|180:206,1,41.9999987182618,0|0,0:0|0:0,0:0:0:0:
123,206,23445,2,0,L|68:159,1,41.9999987182618
92,110,23633,2,0,L|150:40,1,83.9999974365235,0|0,0:0|0:0,0:0:0:0:
145,45,24008,5,0,0:0:0:0:
145,45,24383,2,0,L|205:66,1,41.9999987182618
247,85,24570,2,0,L|306:105,1,41.9999987182618
349,124,24758,2,0,L|408:144,1,41.9999987182618
349,124,25133,6,0,P|355:200|277:244,1,167.999994873047
161,190,25695,1,0,0:0:0:0:
43,305,25883,1,0,0:0:0:0:
234,361,26070,1,0,0:0:0:0:
57,295,26258,2,0,P|8:215|42:152,1,167.999994873047
64,134,26726,1,0,0:0:0:0:
95,122,26820,1,0,0:0:0:0:
128,118,26914,1,0,0:0:0:0:
161,123,27008,5,0,0:0:0:0:
224,231,27195,1,0,0:0:0:0:
304,72,27383,1,0,0:0:0:0:
217,214,27570,1,0,0:0:0:0:
282,364,27758,2,0,P|372:322|375:250,1,167.999994873047
364,232,28226,1,0,0:0:0:0:
337,210,28320,1,0,0:0:0:0:
304,200,28414,1,0,0:0:0:0:
271,207,28508,1,0,0:0:0:0:
194,317,28695,1,0,0:0:0:0:
69,189,28883,1,0,0:0:0:0:
213,45,29070,1,0,0:0:0:0:
181,306,29258,2,0,L|149:275,1,41.9999987182618
184,218,29445,2,0,L|152:187,1,41.9999987182618
190,131,29633,2,0,L|127:66,2,83.9999974365235,0|0|0,0:0|0:0|0:0,0:0:0:0:
290,219,30195,5,0,0:0:0:0:
465,234,30570,1,0,0:0:0:0:
298,94,30758,1,0,0:0:0:0:
80,248,31508,6,0,L|152:168,1,83.9999974365235
222,82,31883,1,0,0:0:0:0:
147,193,32070,1,0,0:0:0:0:
241,335,32258,2,0,P|292:354|378:280,1,167.999994873047
373,257,32726,1,0,0:0:0:0:
360,225,32820,1,0,0:0:0:0:
337,199,32914,1,0,0:0:0:0:
307,183,33008,5,0,0:0:0:0:
160,201,33195,1,0,0:0:0:0:
242,48,33383,2,0,L|193:140,1,83.9999974365235
370,291,33758,2,0,P|366:235|268:180,1,167.999994873047
246,190,34226,1,0,0:0:0:0:
221,212,34320,1,0,0:0:0:0:
203,240,34414,1,0,0:0:0:0:
196,273,34508,1,0,0:0:0:0:
196,273,34695,1,0,0:0:0:0:
53,167,34883,1,0,0:0:0:0:
204,306,35070,1,0,0:0:0:0:
53,167,35258,2,0,P|67:114|111:97,1,83.9999974365235
216,55,35633,1,0,0:0:0:0:
342,99,35820,1,0,0:0:0:0:
402,219,36008,6,0,P|383:286|350:299,1,83.9999974365235
349,306,36289,1,0,0:0:0:0:
319,311,36383,1,0,0:0:0:0:
291,301,36476,1,0,0:0:0:0:
273,277,36570,1,0,0:0:0:0:
255,253,36664,1,0,0:0:0:0:
230,237,36758,2,0,P|156:233|126:281,1,125.999996154785
150,289,37133,2,0,L|101:116,1,167.999994873047
220,60,37695,5,0,0:0:0:0:
85,141,37883,2,0,P|130:163|182:135,1,83.9999974365235
229,43,38258,2,0,P|300:58|344:159,1,167.999994873047
341,169,38726,1,0,0:0:0:0:
323,197,38820,1,0,0:0:0:0:
293,213,38914,1,0,0:0:0:0:
259,214,39008,1,0,0:0:0:0:
218,81,39195,1,0,0:0:0:0:
233,195,39383,2,0,L|246:306,1,83.9999974365235,0|0,0:0|0:0,0:0:0:0:
221,164,39758,2,0,P|201:118|78:111,1,167.999994873047
71,123,40226,1,0,0:0:0:0:
64,155,40320,1,0,0:0:0:0:
69,188,40414,1,0,0:0:0:0:
82,218,40508,5,0,0:0:0:0:
198,284,40695,1,0,0:0:0:0:
323,236,40883,1,0,0:0:0:0:
350,104,41070,1,0,0:0:0:0:
82,218,41258,1,0,0:0:0:0:
224,305,41445,1,0,0:0:0:0:
389,275,41633,1,0,0:0:0:0:
494,144,41820,1,0,0:0:0:0:
370,29,42008,5,0,0:0:0:0:
82,218,42195,1,0,0:0:0:0:
471,290,42383,2,0,L|389:275,1,83.9999974365235
84,61,42758,2,0,L|150:74,1,41.9999987182618
147,150,42945,2,0,L|198:114,1,41.9999987182618
253,179,43133,2,0,L|278:84,2,83.9999974365235,0|0|0,0:0|0:0|0:0,0:0:0:0:
213,307,43695,5,0,0:0:0:0:
296,88,43883,2,0,L|271:182,1,83.9999974365235
235,298,44258,1,0,0:0:0:0:
279,167,44445,1,0,0:0:0:0:
261,287,44633,2,0,L|354:249,1,83.9999974365235
362,246,44914,1,0,0:0:0:0:
385,238,45008,6,0,P|413:189|397:154,1,83.9999974365235
388,147,45289,1,0,0:0:0:0:
364,139,45383,1,0,0:0:0:0:
340,163,45476,1,0,0:0:0:0:
336,129,45570,1,0,0:0:0:0:
315,102,45664,1,0,0:0:0:0:
288,81,45758,2,0,P|234:70|194:83,1,83.9999974365235
177,93,46039,1,0,0:0:0:0:
155,118,46133,1,0,0:0:0:0:
146,145,46226,1,0,0:0:0:0:
149,170,46320,1,0,0:0:0:0:
158,188,46414,1,0,0:0:0:0:
170,200,46508,2,0,P|222:229|223:274,1,83.9999974365235
128,340,46883,1,0,0:0:0:0:
156,323,46976,1,0,0:0:0:0:
189,319,47070,1,0,0:0:0:0:
221,326,47164,1,0,0:0:0:0:
247,346,47258,2,0,P|302:358|330:333,1,83.9999974365235
337,314,47539,1,0,0:0:0:0:
331,280,47633,1,0,0:0:0:0:
312,252,47726,1,0,0:0:0:0:
280,239,47820,1,0,0:0:0:0:
309,222,47914,1,0,0:0:0:0:
328,194,48008,2,0,P|343:140|319:103,1,83.9999974365235
160,47,48383,5,0,0:0:0:0:
127,55,48476,1,0,0:0:0:0:
100,76,48570,1,0,0:0:0:0:
85,106,48664,1,0,0:0:0:0:
89,139,48758,1,0,0:0:0:0:
191,272,48945,1,0,0:0:0:0:
113,163,49133,2,0,P|162:182|218:157,1,83.9999974365235
202,144,49414,1,0,0:0:0:0:
232,128,49508,5,0,0:0:0:0:
364,144,49695,1,0,0:0:0:0:
408,271,49883,1,0,0:0:0:0:
401,303,49976,1,0,0:0:0:0:
376,326,50070,1,0,0:0:0:0:
343,334,50164,1,0,0:0:0:0:
312,320,50258,2,0,L|273:279,1,41.9999987182618
291,222,50445,2,0,L|219:237,1,41.9999987182618
198,185,50633,2,0,L|158:270,1,83.9999974365235
144,278,50914,1,0,0:0:0:0:
119,273,51008,2,0,P|72:235|79:185,1,83.9999974365235
75,190,51289,1,0,0:0:0:0:
106,178,51383,1,0,0:0:0:0:
76,163,51476,1,0,0:0:0:0:
56,135,51570,1,0,0:0:0:0:
48,102,51664,1,0,0:0:0:0:
56,69,51758,2,0,P|118:36|159:49,1,83.9999974365235
160,47,52039,1,0,0:0:0:0:
180,73,52133,1,0,0:0:0:0:
183,106,52226,1,0,0:0:0:0:
209,85,52320,1,0,0:0:0:0:
242,85,52414,1,0,0:0:0:0:
272,99,52508,1,0,0:0:0:0:
291,125,52601,1,0,0:0:0:0:
291,158,52695,1,0,0:0:0:0:
273,186,52789,1,0,0:0:0:0:
240,195,52883,1,0,0:0:0:0:
207,185,52976,1,0,0:0:0:0:
182,208,53070,1,0,0:0:0:0:
203,233,53164,1,0,0:0:0:0:
217,263,53258,2,0,P|218:322|181:345,1,83.9999974365235
178,343,53539,1,0,0:0:0:0:
152,342,53633,1,0,0:0:0:0:
126,327,53726,1,0,0:0:0:0:
107,304,53820,1,0,0:0:0:0:
95,276,53914,1,0,0:0:0:0:
96,242,54008,2,0,P|35:199|42:159,1,83.9999974365235
39,172,54289,1,0,0:0:0:0:
