osu file format v14

[General]
AudioFilename: Placebo Dying - M2U.mp3
AudioLeadIn: 0
PreviewTime: 12676
Countdown: 0
SampleSet: Soft
StackLeniency: 0.7
Mode: 0
LetterboxInBreaks: 0
WidescreenStoryboard: 0

[Editor]
Bookmarks: 22751,37909,50541,65383,75804,85909,99804,109909,117488
DistanceSpacing: 0.6
BeatDivisor: 2
GridSize: 8
TimelineZoom: 3.699999

[Metadata]
Title:Placebo Dying (Speed Up Ver.)
TitleUnicode:Placebo Dying (Speed Up Ver.)
Artist:M2U
ArtistUnicode:M2U
Creator:D e s
Version:Normal
Source:O2JAM ANALOG
Tags:dnb drum n bass trance opera
BeatmapID:717224
BeatmapSetID:322610

[Difficulty]
HPDrainRate:4
CircleSize:3.5
OverallDifficulty:5
ApproachRate:5.5
SliderMultiplier:1.1
SliderTickRate:2

[Events]
//Background and Video events
0,0,"artt.jpg",0,0
//Break Periods
2,28034,36814
2,63402,64603
2,86139,98709
//Storyboard Layer 0 (Background)
//Storyboard Layer 1 (Fail)
//Storyboard Layer 2 (Pass)
//Storyboard Layer 3 (Foreground)
//Storyboard Sound Samples

[TimingPoints]
2571,315.789473684211,4,2,1,55,1,0
5097,-100,4,2,1,30,0,0
12676,-100,4,2,1,40,0,1
27834,-100,4,2,1,40,0,0
37939,-100,4,1,1,40,0,0
50571,-100,4,2,1,30,0,0
99834,-100,4,2,1,40,0,1
117518,-100,4,2,1,40,0,0

[HitObjects]
192,56,2571,6,0,P|152:104|152:168,1,110
192,192,3202,2,0,P|232:240|232:304,1,110
184,328,3834,5,0,0:0:0:0:
128,288,4149,1,0,0:0:0:0:
80,240,4465,2,0,B|64:184|64:184|64:120,1,110
72,64,5097,1,0,0:0:0:0:
168,160,5728,6,0,L|224:160,2,55
168,224,6360,2,0,P|192:288|248:296,1,110
288,280,6992,5,0,0:0:0:0:
320,224,7307,1,0,0:0:0:0:
352,168,7623,2,0,P|384:152|464:176,1,110
456,232,8255,6,0,P|400:256|376:312,1,110
328,336,8886,2,0,L|280:224,1,110
256,176,9518,1,0,0:0:0:0:
256,112,9834,1,0,0:0:0:0:
256,192,10149,12,0,11413,0:0:0:0:
120,80,11728,5,0,0:0:0:0:
176,104,12044,2,0,L|288:104,2,110
128,152,12992,1,8,0:0:0:0:
96,208,13307,6,0,P|128:256|184:256,1,110,0|8,0:0|0:0,0:0:0:0:
200,240,13781,1,0,0:0:0:0:
224,224,13939,2,0,P|276:229|304:275,1,110,0|8,0:0|0:0,0:0:0:0:
304,312,14413,1,0,0:0:0:0:
304,344,14571,2,0,L|432:344,1,110,0|8,0:0|0:0,0:0:0:0:
440,320,15044,5,0,0:0:0:0:
464,296,15202,2,0,P|456:232|408:192,1,110,0|8,0:0|0:0,0:0:0:0:
400,184,15676,5,0,0:0:0:0:
368,176,15834,2,0,P|320:136|336:80,1,110,0|8,0:0|0:0,0:0:0:0:
336,64,16307,1,0,0:0:0:0:
304,48,16465,2,0,P|240:32|192:56,2,110,0|8|0,0:0|0:0|0:0,0:0:0:0:
272,104,17413,1,8,0:0:0:0:
248,168,17728,6,0,L|248:280,2,110,0|8|0,0:0|0:0|0:0,0:0:0:0:
192,128,18676,1,8,0:0:0:0:
136,160,18992,2,0,P|112:216|136:280,1,110,0|8,0:0|0:0,0:0:0:0:
160,312,19623,2,0,P|96:336|56:320,2,110,0|8|0,0:0|0:0|0:0,0:0:0:0:
176,280,20413,1,0,0:0:0:0:
192,248,20571,2,0,P|232:216|288:232,1,110,8|0,0:0|0:0,0:0:0:0:
344,264,21202,6,0,P|392:224|392:168,1,110,8|0,0:0|0:0,0:0:0:0:
368,120,21834,1,8,0:0:0:0:
328,72,22149,2,0,P|280:48|208:48,1,110,0|8,0:0|0:0,0:0:0:0:
184,96,22781,5,0,0:0:0:0:
256,192,23255,12,0,25307,0:0:0:0:
256,192,25781,12,4,27834,0:0:0:0:
120,64,37939,6,0,L|120:192,1,110
120,240,38571,1,8,0:0:0:0:
168,288,39202,6,0,P|224:240|224:200,1,110
216,144,39834,1,8,0:0:0:0:
272,104,40149,1,0,0:0:0:0:
328,144,40465,2,0,L|328:256,2,110,0|0|8,0:0|0:0|0:0,0:0:0:0:
368,96,41413,5,0,0:0:0:0:
432,120,41728,2,0,P|464:168|456:232,1,110
416,272,42360,5,8,0:0:0:0:
360,232,42676,1,0,0:0:0:0:
304,192,42992,2,0,L|184:192,2,110,0|0|8,0:0|0:0|0:0,0:0:0:0:
352,144,43939,5,0,0:0:0:0:
400,96,44255,2,0,P|344:56|296:64,1,110
256,104,44886,2,0,P|200:144|152:136,1,110,8|0,0:0|0:0,0:0:0:0:
104,112,45518,1,0,0:0:0:0:
88,232,46149,6,0,P|136:272|192:256,1,110,8|0,0:0|0:0,0:0:0:0:
232,224,46781,1,0,0:0:0:0:
288,192,47097,2,0,P|312:240|304:312,2,110,0|8|0,0:0|0:0|0:0,0:0:0:0:
232,160,48044,2,8,L|112:160,1,110,0|0,0:0|0:0,0:0:0:0:
80,104,48676,5,8,0:0:0:0:
144,80,48992,1,0,0:0:0:0:
208,72,49307,2,0,L|320:72,2,110,0|0|8,0:0|0:0|0:0,0:0:0:0:
208,136,50255,1,0,0:0:0:0:
208,200,50571,5,0,0:0:0:0:
256,192,51202,12,0,53097,0:0:0:0:
256,192,53728,5,0,0:0:0:0:
256,192,54360,12,0,56255,0:0:0:0:
256,192,56886,5,0,0:0:0:0:
256,192,57518,12,0,59413,0:0:0:0:
256,192,60044,5,0,0:0:0:0:
256,192,60676,12,0,62571,0:0:0:0:
256,184,63202,5,0,0:0:0:0:
112,120,65728,6,0,P|160:168|160:216,1,110
152,272,66360,1,0,0:0:0:0:
248,184,66992,6,0,P|296:136|344:136,1,110
400,144,67623,1,0,0:0:0:0:
400,272,68255,6,0,L|280:304,1,110
240,264,68886,2,0,P|208:200|224:144,1,110
232,104,69518,6,0,P|193:66|139:69,1,110
104,128,70149,2,0,L|56:232,1,110
88,288,70781,2,0,L|192:184,1,110
232,208,71413,2,0,L|232:328,1,110
296,336,72044,6,0,P|344:296|368:224,1,110
384,192,72676,2,0,P|336:152|312:96,1,110
264,72,73307,2,0,P|192:96|176:136,1,110
160,184,73939,2,0,P|232:208|248:248,1,110
256,192,74571,12,0,75518,0:0:0:0:
400,224,75834,5,0,0:0:0:0:
400,224,76149,1,8,0:0:0:0:
336,224,76465,2,0,L|224:224,1,110,0|8,0:0|0:0,0:0:0:0:
160,216,77097,6,0,P|144:264|168:320,2,110,0|8|0,0:0|0:0|0:0,0:0:0:0:
192,160,78044,1,8,0:0:0:0:
232,104,78360,6,0,P|288:96|352:128,2,110,0|8|0,0:0|0:0|0:0,0:0:0:0:
168,96,79307,1,8,0:0:0:0:
112,128,79623,2,8,P|80:208|88:240,1,110,0|8,0:0|0:0,0:0:0:0:
128,272,80255,2,0,P|160:224|208:208,1,110,0|8,0:0|0:0,0:0:0:0:
272,232,80886,6,0,L|304:344,1,110,0|8,0:0|0:0,0:0:0:0:
368,336,81518,2,0,L|400:224,1,110,0|8,0:0|0:0,0:0:0:0:
416,168,82149,2,0,P|360:152|304:160,1,110,0|8,0:0|0:0,0:0:0:0:
256,192,82781,2,0,P|200:208|144:200,1,110,0|8,0:0|0:0,0:0:0:0:
256,192,83413,12,0,85939,0:0:0:0:
304,128,99834,6,0,P|344:80|400:64,2,110,0|8|0,0:0|0:0|0:0,0:0:0:0:
304,192,100781,2,0,P|344:240|400:256,2,110,8|0|8,0:0|0:0|0:0,0:0:0:0:
256,144,101728,1,0,0:0:0:0:
200,104,102044,1,8,0:0:0:0:
136,88,102360,6,0,P|72:128|72:176,1,110,0|8,0:0|0:0,0:0:0:0:
88,224,102992,2,0,L|136:336,1,110,0|8,0:0|0:0,0:0:0:0:
192,312,103623,6,0,B|224:256|224:256|224:192,1,110,0|8,0:0|0:0,0:0:0:0:
216,144,104255,2,0,B|272:112|272:112|336:112,1,110,0|8,0:0|0:0,0:0:0:0:
384,128,104886,2,0,P|400:200|392:256,1,110,0|8,0:0|0:0,0:0:0:0:
376,296,105518,2,0,P|320:328|272:320,1,110,0|8,0:0|0:0,0:0:0:0:
224,288,106149,6,0,P|264:224|264:184,1,110,0|8,0:0|0:0,0:0:0:0:
232,136,106781,2,0,P|168:96|128:96,1,110,0|8,0:0|0:0,0:0:0:0:
104,152,107413,6,0,L|104:272,2,110,0|8|0,0:0|0:0|0:0,0:0:0:0:
64,96,108360,1,8,0:0:0:0:
120,64,108676,2,0,L|248:64,3,110,0|8|0|8,0:0|0:0|0:0|0:0,0:0:0:0:
296,72,109939,6,0,P|344:128|344:168,1,110,0|8,0:0|0:0,0:0:0:0:
344,224,110571,1,0,0:0:0:0:
344,224,110886,1,8,0:0:0:0:
280,216,111202,6,0,B|224:200|224:200|176:160,1,110,0|8,0:0|0:0,0:0:0:0:
144,112,111834,2,0,B|183:78|183:78|239:62,1,110,0|8,0:0|0:0,0:0:0:0:
304,64,112465,2,0,P|368:104|368:160,1,110,0|8,0:0|0:0,0:0:0:0:
344,192,113097,5,0,0:0:0:0:
304,248,113413,1,8,0:0:0:0:
256,296,113728,2,0,P|296:336|368:336,2,110,0|8|0,0:0|0:0|0:0,0:0:0:0:
232,232,114676,1,8,0:0:0:0:
232,168,114992,6,0,L|120:168,2,110,0|8|0,0:0|0:0|0:0,0:0:0:0:
296,168,115939,1,8,0:0:0:0:
360,168,116255,2,0,P|376:224|352:280,2,110,0|8|0,0:0|0:0|0:0,0:0:0:0:
328,112,117202,1,8,0:0:0:0:
272,72,117518,5,0,0:0:0:0:
208,56,117834,2,0,P|144:96|136:136,2,110,8|0|8,0:0|0:0|0:0,0:0:0:0:
224,120,118781,5,0,0:0:0:0:
248,184,119097,1,8,0:0:0:0:
248,248,119413,2,0,P|195:243|160:200,1,110,0|8,0:0|0:0,0:0:0:0:
152,168,119886,5,0,0:0:0:0:
152,136,120044,2,0,P|112:96|64:112,1,110,0|8,0:0|0:0,0:0:0:0:
64,176,120676,6,0,L|64:296,1,110,0|8,0:0|0:0,0:0:0:0:
128,296,121307,2,0,P|176:232|184:176,1,110,0|8,0:0|0:0,0:0:0:0:
200,144,121939,2,0,P|264:128|312:152,1,110,0|8,0:0|0:0,0:0:0:0:
344,200,122571,2,0,L|344:320,1,110,0|8,0:0|0:0,0:0:0:0:
280,312,123202,6,0,P|208:304|168:320,1,110,0|8,0:0|0:0,0:0:0:0:
112,312,123834,2,0,P|126:259|116:205,1,110,0|8,0:0|0:0,0:0:0:0:
93,148,124465,2,0,P|165:156|205:140,1,110,0|8,0:0|0:0,0:0:0:0:
224,120,124939,5,0,0:0:0:0:
248,96,125097,2,0,P|312:72|360:80,1,110,0|8,0:0|0:0,0:0:0:0:
400,120,125728,6,0,P|384:176|400:232,1,110,0|8,0:0|0:0,0:0:0:0:
416,288,126360,2,0,P|360:304|304:288,1,110,0|8,0:0|0:0,0:0:0:0:
256,256,126992,2,0,L|152:176,1,110,0|8,0:0|0:0,0:0:0:0:
256,192,127465,12,4,128255,0:0:0:0:
