osu file format v14

[General]
AudioFilename: Placebo Dying - M2U.mp3
AudioLeadIn: 0
PreviewTime: 12676
Countdown: 0
SampleSet: Soft
StackLeniency: 0.7
Mode: 0
LetterboxInBreaks: 0
WidescreenStoryboard: 0

[Editor]
Bookmarks: 22751,37909,50541,65383,75804,85909,99804,109909,117488
DistanceSpacing: 1.4
BeatDivisor: 6
GridSize: 8
TimelineZoom: 3.699999

[Metadata]
Title:Placebo Dying (Speed Up Ver.)
TitleUnicode:Placebo Dying (Speed Up Ver.)
Artist:M2U
ArtistUnicode:M2U
Creator:D e s
Version:Insane
Source:O2JAM ANALOG
Tags:dnb drum n bass trance opera
BeatmapID:717221
BeatmapSetID:322610

[Difficulty]
HPDrainRate:6
CircleSize:4
OverallDifficulty:8
ApproachRate:9
SliderMultiplier:1.9
SliderTickRate:1

[Events]
//Background and Video events
0,0,"artt.jpg",0,0
//Break Periods
2,28034,37339
//Storyboard Layer 0 (Background)
//Storyboard Layer 1 (Fail)
//Storyboard Layer 2 (Pass)
//Storyboard Layer 3 (Foreground)
//Storyboard Sound Samples

[TimingPoints]
2571,315.789473684211,4,2,1,30,1,0
2886,-133.333333333333,4,2,1,30,0,0
4781,-133.333333333333,4,2,1,30,0,0
5097,-133.333333333333,4,2,1,30,0,0
5728,-133.333333333333,4,2,1,30,0,0
6360,-133.333333333333,4,2,1,30,0,0
6992,-133.333333333333,4,2,1,30,0,0
7623,-133.333333333333,4,2,1,30,0,0
8255,-133.333333333333,4,2,1,30,0,0
8886,-133.333333333333,4,2,1,30,0,0
9834,-133.333333333333,4,2,1,30,0,0
10149,-133.333333333333,4,2,1,30,0,0
10781,-133.333333333333,4,2,1,30,0,0
11413,-133.333333333333,4,2,1,30,0,0
12044,-133.333333333333,4,2,1,30,0,0
12676,-100,4,2,1,40,0,1
23097,-100,4,1,1,40,0,1
23255,-100,4,2,1,40,0,1
23728,-100,4,1,1,40,0,1
23886,-100,4,2,1,40,0,1
24360,-100,4,1,1,40,0,1
24518,-100,4,2,1,40,0,1
24992,-100,4,1,1,40,0,1
25149,-100,4,2,1,40,0,1
25623,-100,4,1,1,40,0,1
25781,-100,4,2,1,40,0,1
26255,-100,4,1,1,40,0,1
26413,-100,4,2,1,40,0,1
26886,-100,4,1,1,40,0,1
27044,-100,4,2,1,40,0,1
27518,-100,4,1,1,40,0,1
27676,-100,4,2,1,40,0,1
27834,-133.333333333333,4,1,1,40,0,0
50571,-133.333333333333,4,2,1,30,0,0
65728,-111.111111111111,4,2,1,40,0,0
75834,-100,4,2,1,40,0,0
85939,-200,4,2,1,40,0,0
88465,-133.333333333333,4,2,1,40,0,0
89728,-95.2380952380952,4,2,1,40,0,0
90992,-133.333333333333,4,2,1,40,0,0
99834,-95.2380952380952,4,2,1,40,0,1
117518,-95.2380952380952,4,2,1,40,0,0

[HitObjects]
112,288,2571,5,0,0:0:0:0:
112,128,2886,1,0,0:0:0:0:
264,208,3202,1,0,0:0:0:0:
328,48,3518,1,0,0:0:0:0:
320,272,3834,2,0,B|344:232|344:232|344:112,1,142.500005435944
440,216,4465,5,0,0:0:0:0:
240,96,4781,1,0,0:0:0:0:
320,320,5097,6,0,B|344:280|344:232|320:184,1,142.500005435944
248,64,5728,6,0,L|248:144,1,71.2500027179719
168,168,6044,2,0,L|168:248,1,71.2500027179719
248,336,6360,2,0,P|272:288|360:248,1,142.500005435944
424,144,6992,5,0,0:0:0:0:
288,96,7149,1,0,0:0:0:0:
396,179,7307,1,0,0:0:0:0:
315,60,7465,1,0,0:0:0:0:
368,208,7623,6,0,B|320:232|280:232|224:208,1,142.500005435944
168,80,8255,2,0,P|128:112|112:208,1,142.500005435944
256,328,8886,5,0,0:0:0:0:
256,328,9202,1,0,0:0:0:0:
256,88,9518,1,0,0:0:0:0:
104,184,9834,1,0,0:0:0:0:
336,88,10149,5,0,0:0:0:0:
400,144,10307,1,0,0:0:0:0:
400,232,10465,1,0,0:0:0:0:
352,304,10623,1,0,0:0:0:0:
272,344,10781,1,0,0:0:0:0:
192,312,10939,1,0,0:0:0:0:
144,232,11097,1,0,0:0:0:0:
160,136,11255,1,0,0:0:0:0:
288,64,11413,6,0,L|344:64,1,35.625001358986
296,80,11571,2,0,L|344:88,1,35.625001358986
304,96,11728,2,0,L|344:120,1,35.625001358986
304,112,11886,2,0,L|328:152,1,35.625001358986
296,128,12044,2,0,L|296:168,7,35.625001358986
256,304,12676,5,0,0:0:0:0:
195,133,12834,1,0,0:0:0:0:
195,133,12992,1,8,0:0:0:0:
200,248,13149,5,0,0:0:0:0:
200,248,13228,1,0,0:0:0:0:
200,248,13307,2,0,P|160:280|112:280,1,95
109,138,13623,5,8,0:0:0:0:
223,53,13781,1,0,0:0:0:0:
295,175,13939,2,0,P|319:223|327:279,1,95
204,339,14255,1,8,0:0:0:0:
109,231,14413,5,0,0:0:0:0:
109,231,14492,1,0,0:0:0:0:
109,231,14571,2,0,L|125:136,1,95
253,76,14886,5,8,0:0:0:0:
214,213,15044,1,0,0:0:0:0:
214,213,15123,1,0,0:0:0:0:
214,213,15202,1,0,0:0:0:0:
332,133,15360,5,0,0:0:0:0:
189,120,15518,1,8,0:0:0:0:
265,240,15676,1,0,0:0:0:0:
402,202,15834,6,0,P|402:138|394:106,1,95
262,54,16149,1,8,0:0:0:0:
239,194,16307,5,0,0:0:0:0:
239,210,16386,1,0,0:0:0:0:
239,226,16465,2,0,P|255:258|319:290,2,95,0|0|8,0:0|0:0|0:0,0:0:0:0:
295,94,16939,5,0,0:0:0:0:
317,117,17018,1,0,0:0:0:0:
340,139,17097,1,0,0:0:0:0:
381,275,17255,5,0,0:0:0:0:
381,275,17413,1,8,0:0:0:0:
239,292,17571,6,0,L|287:260,1,47.5
328,216,17728,2,0,P|288:184|240:184,1,95
105,213,18044,1,8,0:0:0:0:
160,81,18202,5,0,0:0:0:0:
160,81,18281,1,0,0:0:0:0:
160,81,18360,2,0,P|186:126|183:168,1,95
127,299,18676,1,8,0:0:0:0:
257,241,18834,5,0,0:0:0:0:
257,241,18913,1,0,0:0:0:0:
257,241,18992,2,0,P|313:233|369:241,1,95
463,324,19307,1,8,0:0:0:0:
413,190,19465,6,0,P|388:165|373:142,1,47.5
409,89,19623,2,0,P|449:137|457:185,1,95
383,290,19939,2,0,P|337:300|291:290,2,95,8|0|0,0:0|0:0|0:0,0:0:0:0:
329,156,20413,5,0,0:0:0:0:
187,169,20571,1,8,0:0:0:0:
191,310,20728,1,0,0:0:0:0:
191,310,20807,1,0,0:0:0:0:
191,310,20886,2,0,P|223:270|231:214,1,95
357,158,21202,2,0,P|325:198|317:254,1,95,8|0,0:0|0:0,0:0:0:0:
317,270,21439,5,0,0:0:0:0:
317,270,21518,2,0,B|357:302|357:302|413:302,2,95,0|0|8,0:0|0:0|0:0,0:0:0:0:
232,154,21992,6,0,L|232:106,1,47.5
275,49,22149,2,0,P|307:97|307:137,1,95
245,262,22465,1,8,0:0:0:0:
108,304,22623,1,0,0:0:0:0:
139,164,22781,5,0,0:0:0:0:
139,164,22860,1,0,0:0:0:0:
139,164,22939,1,0,0:0:0:0:
280,147,23097,1,8,0:0:0:0:
256,304,23255,5,0,0:0:0:0:
152,272,23413,1,0,0:0:0:0:
256,304,23571,1,0,0:0:0:0:
160,248,23728,1,8,0:0:0:0:
256,304,23886,1,0,0:0:0:0:
168,224,24044,1,0,0:0:0:0:
256,304,24202,1,0,0:0:0:0:
184,208,24360,1,8,0:0:0:0:
256,304,24518,1,0,0:0:0:0:
208,192,24676,1,0,0:0:0:0:
256,304,24834,1,0,0:0:0:0:
232,184,24992,1,8,0:0:0:0:
256,304,25149,1,0,0:0:0:0:
256,136,25307,6,0,L|256:40,2,95,0|0|8,0:0|0:0|0:0,0:0:0:0:
344,248,25781,5,0,0:0:0:0:
400,128,25939,1,0,0:0:0:0:
355,252,26097,1,0,0:0:0:0:
388,123,26255,1,8,0:0:0:0:
368,254,26413,1,0,0:0:0:0:
375,121,26571,1,0,0:0:0:0:
381,253,26728,1,0,0:0:0:0:
362,122,26886,1,8,0:0:0:0:
393,250,27044,1,0,0:0:0:0:
350,125,27202,1,0,0:0:0:0:
405,245,27360,1,0,0:0:0:0:
296,64,27518,6,0,P|248:88|232:136,1,95,8|0,0:0|0:0,0:0:0:0:
232,176,27755,1,0,0:0:0:0:
232,176,27834,1,4,0:0:0:0:
120,96,37939,5,0,0:0:0:0:
120,96,38255,5,8,0:0:0:0:
216,136,38413,1,0,0:0:0:0:
160,232,38571,2,0,P|120:248|88:240,1,71.2500027179719
136,152,38886,1,8,0:0:0:0:
200,64,39044,1,0,0:0:0:0:
304,40,39202,1,0,0:0:0:0:
416,192,39518,5,8,0:0:0:0:
328,264,39676,1,0,0:0:0:0:
248,160,39834,2,0,L|248:88,1,71.2500027179719
336,152,40149,1,8,0:0:0:0:
256,240,40307,1,0,0:0:0:0:
136,240,40465,1,0,0:0:0:0:
192,80,40781,5,8,0:0:0:0:
280,136,40939,1,0,0:0:0:0:
232,248,41097,2,0,L|192:320,1,71.2500027179719
320,304,41413,2,0,L|392:264,1,71.2500027179719,8|0,0:0|0:0,0:0:0:0:
368,144,41728,1,0,0:0:0:0:
240,64,42044,5,8,0:0:0:0:
144,136,42202,1,0,0:0:0:0:
264,184,42360,2,0,P|296:192|336:184,1,71.2500027179719
160,56,42676,2,0,P|128:48|88:56,1,71.2500027179719,8|0,0:0|0:0,0:0:0:0:
136,216,42992,1,0,0:0:0:0:
376,160,43307,5,8,0:0:0:0:
360,272,43465,1,0,0:0:0:0:
256,192,43623,2,0,P|240:160|240:120,1,71.2500027179719
376,48,43939,2,0,P|374:83|358:114,1,71.2500027179719,8|0,0:0|0:0,0:0:0:0:
256,48,44255,1,0,0:0:0:0:
448,112,44571,5,8,0:0:0:0:
432,216,44728,1,0,0:0:0:0:
328,256,44886,1,0,0:0:0:0:
224,184,45044,1,0,0:0:0:0:
318,58,45202,6,0,P|350:90|358:138,1,71.2500027179719,8|0,0:0|0:0,0:0:0:0:
368,240,45518,1,0,0:0:0:0:
168,256,45834,5,8,0:0:0:0:
256,192,45992,1,0,0:0:0:0:
160,136,46149,2,0,P|136:96|136:56,1,71.2500027179719
296,96,46465,2,0,P|336:72|376:72,1,71.2500027179719,8|0,0:0|0:0,0:0:0:0:
368,208,46781,1,0,0:0:0:0:
216,296,47097,6,0,L|144:320,1,71.2500027179719,8|0,0:0|0:0,0:0:0:0:
128,208,47413,2,0,L|32:208,1,71.2500027179719
192,96,47728,1,8,0:0:0:0:
272,224,47886,1,0,0:0:0:0:
272,224,48044,1,0,0:0:0:0:
344,72,48360,6,0,P|384:88|400:112,1,71.2500027179719,8|0,0:0|0:0,0:0:0:0:
224,152,48676,2,0,P|184:168|168:192,1,71.2500027179719
344,200,48992,1,8,0:0:0:0:
272,88,49149,1,0,0:0:0:0:
128,104,49307,1,0,0:0:0:0:
320,264,49623,5,8,0:0:0:0:
416,192,49781,1,0,0:0:0:0:
208,168,49939,2,0,L|288:168,1,71.2500027179719
344,96,50255,2,0,L|272:96,1,71.2500027179719,8|0,0:0|0:0,0:0:0:0:
104,264,50571,6,0,B|144:256|144:256|184:272|184:272|248:264,1,142.500005435944
280,344,51202,2,0,P|320:288|304:208,1,142.500005435944
232,200,51834,2,0,P|256:160|344:152,1,142.500005435944
312,232,52465,2,0,P|288:272|200:280,1,142.500005435944
88,112,53097,6,0,B|120:104|120:104|152:120|176:104|176:104|200:120|224:104,1,142.500005435944
264,176,53728,2,0,P|304:136|296:56,1,142.500005435944
352,216,54360,2,0,B|304:256|304:256|224:256,1,142.500005435944
160,184,54992,6,0,P|128:224|136:272,1,71.2500027179719
240,112,55307,2,0,P|274:120|298:145,1,71.2500027179719
168,48,55623,6,0,P|136:88|184:176,1,142.500005435944
232,216,56097,2,0,L|232:296,2,71.2500027179719
304,120,56571,2,0,B|336:120|336:120|372:136,1,71.2500027179719
472,272,56886,2,0,B|408:272|408:272|328:248,1,142.500005435944
112,192,57518,6,0,P|184:192|232:112,1,142.500005435944
128,112,58149,2,0,P|80:112|40:200,1,142.500005435944
192,296,58781,6,0,L|264:272,1,71.2500027179719
288,184,59097,2,0,L|216:208,1,71.2500027179719
120,168,59413,2,0,P|168:112|240:104,1,142.500005435944
368,192,60044,2,0,P|368:288|352:336,1,142.500005435944
248,184,60676,2,0,B|240:136|240:136|256:88|256:88|256:40,1,142.500005435944
152,248,61307,6,0,P|176:288|184:328,1,71.2500027179719
80,160,61623,2,0,P|56:120|48:80,1,71.2500027179719
200,144,61939,2,0,P|240:184|248:272,1,142.500005435944
376,192,62571,2,0,L|376:24,1,142.500005435944
256,344,63202,1,0,0:0:0:0:
256,192,63360,12,0,65571,0:0:0:0:
116,70,65728,6,0,P|180:102|188:206,1,170.999994781494
144,283,66360,1,0,0:0:0:0:
99,190,66676,1,0,0:0:0:0:
169,115,66992,6,0,B|225:115|225:115|273:139|273:139|337:139,1,170.999994781494
428,178,67623,2,0,P|427:259|354:294,1,170.999994781494
248,72,68255,6,0,L|160:112,1,85.4999973907472
224,176,68571,2,0,L|136:216,1,85.4999973907472
336,216,68886,2,0,L|376:304,1,85.4999973907472
440,240,69202,2,0,L|480:328,1,85.4999973907472
376,120,69518,5,0,0:0:0:0:
232,192,69676,1,0,0:0:0:0:
320,64,69834,2,0,P|368:40|400:40,1,85.4999973907472
336,152,70149,2,0,P|293:149|257:127,1,85.4999973907472
112,72,70465,2,0,P|148:93|172:128,1,85.4999973907472
144,288,70781,5,0,0:0:0:0:
80,200,70939,1,0,0:0:0:0:
208,232,71097,2,0,L|296:288,1,85.4999973907472
400,264,71413,2,0,L|312:208,1,85.4999973907472
272,96,71728,1,0,0:0:0:0:
408,160,71886,1,0,0:0:0:0:
176,168,72044,6,0,L|72:168,2,85.4999973907472
264,240,72518,1,0,0:0:0:0:
352,112,72676,2,0,P|400:80|440:88,2,85.4999973907472
360,256,73149,1,0,0:0:0:0:
272,136,73307,6,0,P|240:96|248:56,1,85.4999973907472
424,192,73623,2,0,P|456:232|448:272,1,85.4999973907472
264,288,73939,2,0,L|160:320,1,85.4999973907472
168,224,74255,2,0,L|72:232,1,85.4999973907472
240,120,74571,6,0,L|288:88,5,42.7499986953736
224,136,75044,1,0,0:0:0:0:
210,147,75123,1,0,0:0:0:0:
202,163,75202,1,0,0:0:0:0:
200,180,75281,1,0,0:0:0:0:
208,200,75360,1,0,0:0:0:0:
228,215,75439,1,0,0:0:0:0:
242,237,75518,1,0,0:0:0:0:
248,262,75597,1,0,0:0:0:0:
244,288,75676,1,0,0:0:0:0:
231,310,75755,1,0,0:0:0:0:
211,327,75834,6,0,L|88:328,1,95
64,176,76149,1,8,0:0:0:0:
176,64,76307,1,0,0:0:0:0:
200,216,76465,2,0,P|152:256|112:264,1,95
256,128,76781,2,0,P|304:88|344:80,1,95,8|0,0:0|0:0,0:0:0:0:
320,208,77097,5,0,0:0:0:0:
240,304,77255,1,0,0:0:0:0:
160,152,77413,2,0,L|160:56,1,95,8|0,0:0|0:0,0:0:0:0:
240,200,77728,1,0,0:0:0:0:
128,288,77886,1,0,0:0:0:0:
64,160,78044,5,8,0:0:0:0:
224,80,78202,1,0,0:0:0:0:
224,80,78281,1,0,0:0:0:0:
224,80,78360,1,0,0:0:0:0:
320,176,78518,1,0,0:0:0:0:
136,112,78676,2,0,L|40:80,1,95,8|0,0:0|0:0,0:0:0:0:
152,208,78992,5,0,0:0:0:0:
256,272,79149,1,0,0:0:0:0:
264,112,79307,2,0,B|240:72|240:72|192:48,2,95,8|0|0,0:0|0:0|0:0,0:0:0:0:
288,248,79781,5,0,0:0:0:0:
208,344,79939,1,8,0:0:0:0:
112,256,80097,1,0,0:0:0:0:
344,160,80255,6,0,P|352:112|344:64,1,95
160,224,80571,2,0,P|152:272|160:320,1,95,8|0,0:0|0:0,0:0:0:0:
408,240,80886,5,0,0:0:0:0:
408,240,81044,1,0,0:0:0:0:
304,312,81202,1,8,0:0:0:0:
304,312,81360,1,0,0:0:0:0:
256,88,81518,5,0,0:0:0:0:
256,88,81676,1,0,0:0:0:0:
136,184,81834,1,8,0:0:0:0:
136,184,81992,1,0,0:0:0:0:
264,272,82149,6,0,P|320:264|352:240,1,95
240,184,82465,2,0,P|184:176|152:152,1,95,8|0,0:0|0:0,0:0:0:0:
304,96,82781,1,0,0:0:0:0:
416,144,82939,1,0,0:0:0:0:
256,280,83097,2,0,B|216:296|216:296|144:296,1,95,8|0,0:0|0:0,0:0:0:0:
208,88,83413,5,0,0:0:0:0:
320,192,83571,1,0,0:0:0:0:
176,216,83728,1,8,0:0:0:0:
288,112,83886,5,0,0:0:0:0:
400,200,84044,1,0,0:0:0:0:
264,264,84202,1,0,0:0:0:0:
200,128,84360,5,8,0:0:0:0:
368,120,84518,1,0,0:0:0:0:
352,288,84676,1,0,0:0:0:0:
280,144,84834,5,0,0:0:0:0:
448,96,84992,1,8,0:0:0:0:
432,296,85149,1,0,0:0:0:0:
224,232,85307,5,0,0:0:0:0:
215,225,85386,1,0,0:0:0:0:
206,219,85465,1,0,0:0:0:0:
197,213,85544,1,0,0:0:0:0:
188,206,85623,1,8,0:0:0:0:
179,200,85702,1,0,0:0:0:0:
170,194,85781,1,0,0:0:0:0:
161,188,85860,1,0,0:0:0:0:
152,184,85939,6,0,P|128:144|128:96,1,95
288,72,86571,2,0,P|242:79|211:115,1,95
248,272,87202,1,0,0:0:0:0:
376,144,87360,6,0,L|400:168,1,31.6666666666667
360,160,87518,2,0,L|376:192,1,31.6666666666667
344,168,87676,2,0,L|352:208,1,31.6666666666667
320,176,87834,2,0,L|320:208,1,31.6666666666667
296,176,87992,2,0,L|288:216,1,31.6666666666667
272,176,88149,2,0,L|248:208,1,31.6666666666667
240,176,88307,1,0,0:0:0:0:
320,56,88465,5,0,0:0:0:0:
128,144,88781,1,0,0:0:0:0:
304,264,89097,1,0,0:0:0:0:
224,64,89413,1,0,0:0:0:0:
376,192,89728,6,0,L|464:264,1,99.7499969558717
240,184,90044,2,0,L|152:112,1,99.7499969558717
360,160,90360,2,0,P|392:120|408:72,1,99.7499969558717
208,200,90676,2,0,P|176:240|160:288,1,99.7499969558717
288,96,90992,5,0,0:0:0:0:
288,104,91307,2,0,L|216:80,1,71.2500027179719
72,208,91623,5,0,0:0:0:0:
152,152,91781,1,0,0:0:0:0:
232,224,91939,2,0,P|272:232|304:232,1,71.2500027179719
224,304,92255,2,0,L|144:336,1,71.2500027179719
56,304,92571,5,0,0:0:0:0:
144,248,92728,1,0,0:0:0:0:
80,160,92886,1,0,0:0:0:0:
144,248,93044,1,0,0:0:0:0:
256,200,93202,6,0,P|272:160|256:112,1,71.2500027179719
248,56,93518,2,0,P|320:72|344:144,1,142.500005435944
192,280,94149,6,0,L|272:256,1,71.2500027179719
352,320,94465,2,0,L|272:344,1,71.2500027179719
344,232,94781,2,0,P|360:168|320:104,1,142.500005435944
160,200,95413,6,0,P|96:192|88:112,1,142.500005435944
216,136,96044,2,0,P|248:192|208:272,1,142.500005435944
400,136,96676,1,0,0:0:0:0:
328,336,96992,6,0,P|360:296|368:264,1,71.2500027179719
328,176,97307,1,0,0:0:0:0:
128,256,97623,6,0,L|128:304,3,35.625001358986
144,240,97939,2,0,L|144:192,3,35.625001358986
168,256,98255,2,0,L|168:304,3,35.625001358986
184,240,98571,2,0,L|184:192,3,35.625001358986
224,264,98886,5,0,0:0:0:0:
244,292,98965,1,0,0:0:0:0:
276,307,99044,1,0,0:0:0:0:
311,304,99123,1,0,0:0:0:0:
340,283,99202,1,0,0:0:0:0:
355,251,99281,1,0,0:0:0:0:
352,216,99360,1,0,0:0:0:0:
330,189,99439,1,0,0:0:0:0:
329,154,99518,1,0,0:0:0:0:
348,124,99597,1,0,0:0:0:0:
381,112,99676,1,0,0:0:0:0:
413,125,99755,1,0,0:0:0:0:
425,157,99834,5,0,0:0:0:0:
171,244,99992,1,0,0:0:0:0:
299,295,100149,1,8,0:0:0:0:
394,193,100307,2,0,L|362:153,1,49.8749984779358
310,106,100465,2,0,P|287:149|288:198,1,99.7499969558717
381,305,100781,5,8,0:0:0:0:
247,265,100939,2,0,L|191:257,1,49.8749984779358
112,208,101097,2,0,L|224:192,1,99.7499969558717
408,232,101413,6,0,L|464:224,3,49.8749984779358,8|0|0|0,0:0|0:0|0:0|0:0,0:0:0:0:
416,136,101728,2,0,L|448:88,3,49.8749984779358
344,80,102044,2,0,L|352:24,3,49.8749984779358,8|0|0|0,0:0|0:0|0:0|0:0,0:0:0:0:
226,229,102360,5,0,0:0:0:0:
226,229,102518,1,0,0:0:0:0:
87,96,102676,1,8,0:0:0:0:
87,96,102834,1,0,0:0:0:0:
176,176,102992,5,0,0:0:0:0:
176,48,103149,1,0,0:0:0:0:
96,200,103307,1,8,0:0:0:0:
232,112,103465,1,0,0:0:0:0:
256,256,103623,6,0,L|296:296,1,49.8749984779358
288,248,103781,2,0,L|344:280,1,49.8749984779358
312,240,103939,2,0,L|376:240,1,49.8749984779358,8|0,0:0|0:0,0:0:0:0:
336,232,104097,2,0,L|384:216,1,49.8749984779358
448,104,104255,6,0,L|416:152,1,49.8749984779358
432,72,104413,2,0,L|408:136,1,49.8749984779358
400,48,104571,2,0,L|400:104,1,49.8749984779358,8|0,0:0|0:0,0:0:0:0:
360,40,104728,2,0,L|368:96,1,49.8749984779358
304,208,104886,6,0,L|248:232,3,49.8749984779358
248,136,105202,2,0,L|304:112,3,49.8749984779358,8|0|0|0,0:0|0:0|0:0|0:0,0:0:0:0:
80,128,105518,6,0,L|102:71,3,49.8749984779358
164,144,105834,2,0,L|141:200,3,49.8749984779358,8|0|0|0,0:0|0:0|0:0|0:0,0:0:0:0:
224,224,106149,5,0,0:0:0:0:
224,224,106228,1,0,0:0:0:0:
232,232,106307,1,0,0:0:0:0:
232,232,106386,1,0,0:0:0:0:
232,232,106465,2,0,L|312:224,3,49.8749984779358,8|0|0|0,0:0|0:0|0:0|0:0,0:0:0:0:
120,304,106781,6,0,L|70:308,3,49.8749984779358
296,328,107097,2,0,L|345:323,3,49.8749984779358,8|0|0|0,0:0|0:0|0:0|0:0,0:0:0:0:
432,216,107413,5,0,0:0:0:0:
344,128,107571,1,0,0:0:0:0:
272,232,107728,1,8,0:0:0:0:
200,120,107886,1,0,0:0:0:0:
112,232,108044,2,0,L|80:336,1,99.7499969558717
256,200,108360,2,0,L|288:96,1,99.7499969558717,8|0,0:0|0:0,0:0:0:0:
128,80,108676,5,0,0:0:0:0:
176,200,108834,1,0,0:0:0:0:
106,85,108992,1,8,0:0:0:0:
205,194,109149,1,0,0:0:0:0:
86,92,109307,5,0,0:0:0:0:
225,187,109465,1,0,0:0:0:0:
68,103,109623,1,8,0:0:0:0:
243,176,109781,1,0,0:0:0:0:
40,176,109939,6,0,P|72:224|128:248,1,99.7499969558717
336,264,110255,1,8,0:0:0:0:
74,314,110413,2,0,L|131:334,1,49.8749984779358
191,336,110571,2,0,L|295:344,1,99.7499969558717
480,288,110886,5,8,0:0:0:0:
354,152,111044,1,0,0:0:0:0:
354,152,111123,1,0,0:0:0:0:
354,152,111202,2,0,B|338:192|338:192|322:264,1,99.7499969558717
274,116,111518,5,8,0:0:0:0:
194,230,111676,1,0,0:0:0:0:
145,99,111834,1,0,0:0:0:0:
106,233,111992,1,0,0:0:0:0:
216,120,112149,2,0,P|176:72|128:56,1,99.7499969558717,8|0,0:0|0:0,0:0:0:0:
114,196,112465,6,0,L|114:260,3,49.8749984779358
197,269,112781,2,0,L|170:327,3,49.8749984779358,8|0|0|0,0:0|0:0|0:0|0:0,0:0:0:0:
310,172,113097,5,0,0:0:0:0:
171,156,113255,1,0,0:0:0:0:
278,245,113413,1,8,0:0:0:0:
384,155,113571,1,0,0:0:0:0:
278,64,113728,2,0,P|214:56|174:64,1,99.7499969558717
360,136,114044,2,0,P|368:72|360:32,1,99.7499969558717,8|0,0:0|0:0,0:0:0:0:
208,192,114360,5,0,0:0:0:0:
312,272,114518,1,0,0:0:0:0:
376,152,114676,1,8,0:0:0:0:
272,88,114834,1,0,0:0:0:0:
112,144,114992,6,0,B|88:200|88:200|88:256,1,99.7499969558717
176,320,115307,1,8,0:0:0:0:
192,176,115465,1,0,0:0:0:0:
333,183,115623,6,0,L|277:159,1,49.8749984779358
344,192,115781,2,0,P|392:216|400:280,1,99.7499969558717,0|8,0:0|0:0,0:0:0:0:
120,312,116097,6,0,L|184:304,1,49.8749984779358
256,256,116255,2,0,P|280:264|312:264,3,49.8749984779358
144,88,116571,6,0,L|96:72,3,49.8749984779358,8|0|0|0,0:0|0:0|0:0|0:0,0:0:0:0:
280,120,116886,2,0,L|336:96,3,49.8749984779358
192,164,117202,1,8,0:0:0:0:
192,176,117281,1,0,0:0:0:0:
192,187,117360,1,0,0:0:0:0:
192,199,117439,1,0,0:0:0:0:
192,208,117518,6,0,L|240:320,1,99.7499969558717
384,320,117834,1,8,0:0:0:0:
280,160,117992,5,0,0:0:0:0:
280,160,118071,1,0,0:0:0:0:
280,160,118149,2,0,P|328:176|328:232,1,99.7499969558717
240,320,118465,2,0,L|120:320,1,99.7499969558717,8|0,0:0|0:0,0:0:0:0:
56,192,118781,1,0,0:0:0:0:
128,72,118939,1,0,0:0:0:0:
272,56,119097,6,0,L|360:120,1,99.7499969558717,8|0,0:0|0:0,0:0:0:0:
208,152,119413,2,0,L|104:152,1,99.7499969558717
280,240,119728,1,8,0:0:0:0:
136,320,119886,5,0,0:0:0:0:
136,320,119965,1,0,0:0:0:0:
136,320,120044,1,0,0:0:0:0:
232,208,120202,1,0,0:0:0:0:
352,296,120360,5,8,0:0:0:0:
440,176,120518,1,0,0:0:0:0:
344,280,120676,1,0,0:0:0:0:
368,128,120834,1,0,0:0:0:0:
328,264,120992,1,8,0:0:0:0:
280,128,121149,1,0,0:0:0:0:
208,280,121307,6,0,P|152:248|152:200,2,99.7499969558717,0|0|8,0:0|0:0|0:0,0:0:0:0:
410,191,121781,2,0,L|458:143,1,49.8749984779358
400,200,121939,2,0,L|296:192,1,99.7499969558717
136,104,122255,5,8,0:0:0:0:
154,113,122334,1,0,0:0:0:0:
173,122,122413,1,0,0:0:0:0:
192,132,122492,1,0,0:0:0:0:
210,141,122571,1,0,0:0:0:0:
144,240,122728,1,0,0:0:0:0:
296,272,122886,6,0,P|256:304|208:320,1,99.7499969558717,8|0,0:0|0:0,0:0:0:0:
392,216,123202,2,0,P|352:184|304:168,1,99.7499969558717
392,328,123518,1,8,0:0:0:0:
392,328,123676,1,0,0:0:0:0:
248,200,123834,6,0,P|224:248|224:304,1,99.7499969558717
400,248,124149,1,8,0:0:0:0:
400,248,124307,1,0,0:0:0:0:
264,96,124465,2,0,P|216:72|160:72,1,99.7499969558717
96,240,124781,5,8,0:0:0:0:
117,228,124860,1,0,0:0:0:0:
131,210,124939,1,0,0:0:0:0:
137,187,125018,1,0,0:0:0:0:
136,160,125097,2,0,L|184:272,1,99.7499969558717
312,312,125413,5,8,0:0:0:0:
440,192,125571,1,0,0:0:0:0:
440,192,125649,1,0,0:0:0:0:
440,192,125728,1,0,0:0:0:0:
336,96,125886,1,0,0:0:0:0:
336,96,125965,1,0,0:0:0:0:
336,96,126044,1,8,0:0:0:0:
232,224,126202,6,0,L|176:248,1,49.8749984779358
64,280,126360,2,0,L|160:240,1,99.7499969558717
248,88,126676,5,8,0:0:0:0:
281,223,126834,6,0,L|337:199,1,49.8749984779358
449,167,126992,2,0,L|353:207,1,99.7499969558717
240,320,127307,1,8,0:0:0:0:
256,192,127465,12,0,128255,0:0:0:0:
