osu file format v14

[General]
AudioFilename: Placebo Dying - M2U.mp3
AudioLeadIn: 0
PreviewTime: 12676
Countdown: 0
SampleSet: Soft
StackLeniency: 0.7
Mode: 0
LetterboxInBreaks: 0
WidescreenStoryboard: 0

[Editor]
Bookmarks: 22751,37909,50541,65383,75804,85909,99804,109909,117488
DistanceSpacing: 0.6
BeatDivisor: 4
GridSize: 8
TimelineZoom: 3.699999

[Metadata]
Title:Placebo Dying (Speed Up Ver.)
TitleUnicode:Placebo Dying (Speed Up Ver.)
Artist:M2U
ArtistUnicode:M2U
Creator:D e s
Version:Hard
Source:O2JAM ANALOG
Tags:dnb drum n bass trance opera
BeatmapID:717220
BeatmapSetID:322610

[Difficulty]
HPDrainRate:5
CircleSize:3.5
OverallDifficulty:7
ApproachRate:7
SliderMultiplier:1.40000000596046
SliderTickRate:2

[Events]
//Background and Video events
0,0,"artt.jpg",0,0
//Break Periods
2,28034,37039
2,86139,98934
//Storyboard Layer 0 (Background)
//Storyboard Layer 1 (Fail)
//Storyboard Layer 2 (Pass)
//Storyboard Layer 3 (Foreground)
//Storyboard Sound Samples

[TimingPoints]
2571,315.789473684211,4,2,1,30,1,0
12676,-100,4,2,1,50,0,1
27834,-100,4,2,1,50,0,0
37939,-100,4,1,1,50,0,0
50571,-100,4,2,1,30,0,0
65728,-100,4,2,1,50,0,0
99834,-100,4,2,1,50,0,1
117518,-100,4,2,1,50,0,0
127623,-100,4,2,1,50,0,0
127781,-100,4,2,1,50,0,0
127939,-100,4,2,1,50,0,0
128097,-100,4,2,1,30,0,0
128255,-100,4,2,1,50,0,0

[HitObjects]
256,64,2571,5,0,0:0:0:0:
256,144,2886,2,0,L|256:224,1,70.000000298023
256,256,3202,2,0,P|184:264|136:208,1,140.000000596046
72,168,3834,2,0,B|44:229|44:245|68:301,1,140.000000596046
152,328,4465,5,0,0:0:0:0:
224,280,4781,1,0,0:0:0:0:
296,328,5097,2,0,P|376:312|408:256,1,140.000000596046
408,224,5571,6,0,L|408:144,2,70.000000298023
368,232,6044,2,0,P|320:232|280:240,1,70.000000298023
256,248,6360,2,0,P|144:272|112:264,1,140.000000596046
88,248,6834,5,0,0:0:0:0:
112,208,6992,2,0,L|176:144,1,70.000000298023
200,144,7307,2,0,L|288:160,1,70.000000298023
312,152,7623,2,0,P|352:104|312:40,1,140.000000596046
280,40,8097,5,0,0:0:0:0:
240,48,8255,2,0,L|168:64,1,70.000000298023
128,72,8571,1,0,0:0:0:0:
96,152,8886,2,0,P|88:208|160:256,1,140.000000596046
232,240,9518,1,0,0:0:0:0:
304,200,9834,1,0,0:0:0:0:
256,192,10149,12,0,11413,0:0:0:0:
264,72,11728,6,0,L|328:144,1,70.000000298023
344,152,12044,2,0,L|400:152,6,35.0000001490115
400,176,12676,6,0,P|432:216|424:248,1,70.000000298023
416,272,12992,1,8,0:0:0:0:
384,304,13149,1,0,0:0:0:0:
344,312,13307,6,0,L|272:312,1,70.000000298023
240,288,13623,2,0,B|224:256|224:256|240:224,1,70.000000298023,8|0,0:0|0:0,0:0:0:0:
264,192,13939,2,0,P|312:176|352:176,2,70.000000298023,0|0|8,0:0|0:0|0:0,0:0:0:0:
232,168,14413,2,0,P|199:155|164:150,2,70.000000298023
248,128,14886,5,8,0:0:0:0:
248,88,15044,1,0,0:0:0:0:
248,48,15202,2,0,P|214:37|180:39,1,70.000000298023
144,56,15518,2,0,P|154:89|152:123,1,70.000000298023,8|0,0:0|0:0,0:0:0:0:
152,168,15834,5,0,0:0:0:0:
184,192,15992,1,0,0:0:0:0:
200,232,16149,1,8,0:0:0:0:
208,272,16307,1,0,0:0:0:0:
200,312,16465,6,0,P|232:328|272:320,1,70.000000298023
296,296,16781,1,8,0:0:0:0:
328,272,16939,6,0,P|344:304|352:352,2,70.000000298023
304,240,17413,2,0,P|280:200|280:168,1,70.000000298023,8|0,0:0|0:0,0:0:0:0:
280,136,17728,5,0,0:0:0:0:
240,120,17886,1,0,0:0:0:0:
200,120,18044,2,0,L|120:120,1,70.000000298023,8|0,0:0|0:0,0:0:0:0:
88,136,18360,6,0,L|88:232,1,70.000000298023
120,232,18676,2,0,L|120:312,1,70.000000298023,8|0,0:0|0:0,0:0:0:0:
144,336,18992,1,0,0:0:0:0:
208,288,19307,5,8,0:0:0:0:
240,256,19465,2,0,L|328:256,1,70.000000298023
392,256,19939,1,8,0:0:0:0:
376,176,20255,6,0,B|360:144|360:144|336:120,1,70.000000298023
304,96,20571,2,0,B|270:82|270:82|236:81,1,70.000000298023,8|0,0:0|0:0,0:0:0:0:
200,104,20886,2,0,L|128:104,2,70.000000298023,0|0|8,0:0|0:0|0:0,0:0:0:0:
208,144,21360,2,0,L|208:184,2,35.0000001490115
288,176,21834,5,8,0:0:0:0:
288,216,21992,2,0,L|288:288,1,70.000000298023
216,328,22465,2,0,L|216:258,1,70.000000298023,8|0,0:0|0:0,0:0:0:0:
216,216,22781,1,0,0:0:0:0:
256,192,23255,12,0,25307,0:0:0:0:
256,192,25781,12,4,27834,0:0:0:0:
120,136,37939,5,0,0:0:0:0:
120,136,38255,6,0,L|192:136,1,70.000000298023,8|0,0:0|0:0,0:0:0:0:
224,160,38571,2,0,P|240:216|232:240,1,70.000000298023
248,264,38886,2,0,P|282:265|313:250,1,70.000000298023,8|0,0:0|0:0,0:0:0:0:
344,224,39202,1,0,0:0:0:0:
392,152,39518,6,0,L|392:72,1,70.000000298023,8|0,0:0|0:0,0:0:0:0:
360,56,39834,2,0,P|328:80|288:96,1,70.000000298023
256,96,40149,2,0,P|224:88|184:72,1,70.000000298023,8|0,0:0|0:0,0:0:0:0:
152,56,40465,1,0,0:0:0:0:
144,136,40781,6,0,L|88:184,1,70.000000298023,8|0,0:0|0:0,0:0:0:0:
64,216,41097,1,0,0:0:0:0:
72,256,41255,1,0,0:0:0:0:
88,296,41413,2,0,P|136:296|160:280,1,70.000000298023,8|0,0:0|0:0,0:0:0:0:
184,256,41728,1,0,0:0:0:0:
224,184,42044,5,8,0:0:0:0:
248,144,42202,1,0,0:0:0:0:
272,104,42360,2,0,P|312:96|352:112,1,70.000000298023
376,120,42676,2,0,P|384:160|368:200,1,70.000000298023,8|0,0:0|0:0,0:0:0:0:
352,224,42992,1,0,0:0:0:0:
304,288,43307,6,0,P|264:296|224:280,1,70.000000298023,8|0,0:0|0:0,0:0:0:0:
216,248,43623,2,0,P|182:239|148:247,1,70.000000298023
128,288,43939,2,0,P|88:296|48:280,1,70.000000298023,8|0,0:0|0:0,0:0:0:0:
48,248,44255,1,0,0:0:0:0:
64,168,44571,6,0,B|96:144|96:144|136:144,1,70.000000298023,8|0,0:0|0:0,0:0:0:0:
168,144,44886,1,0,0:0:0:0:
208,144,45044,1,0,0:0:0:0:
240,120,45202,2,0,P|272:104|328:96,1,70.000000298023,8|0,0:0|0:0,0:0:0:0:
344,96,45518,1,0,0:0:0:0:
384,168,45834,6,0,L|424:240,1,70.000000298023,8|0,0:0|0:0,0:0:0:0:
424,272,46149,2,0,P|408:304|368:320,1,70.000000298023
336,320,46465,1,8,0:0:0:0:
296,320,46623,1,0,0:0:0:0:
256,320,46781,1,0,0:0:0:0:
184,280,47097,6,0,P|144:240|136:208,1,70.000000298023,8|0,0:0|0:0,0:0:0:0:
136,184,47413,2,0,P|176:176|208:192,1,70.000000298023
232,216,47728,2,0,P|272:232|304:232,1,70.000000298023,8|0,0:0|0:0,0:0:0:0:
344,232,48044,1,0,0:0:0:0:
392,160,48360,6,0,L|464:160,2,70.000000298023,8|0|0,0:0|0:0|0:0,0:0:0:0:
352,144,48834,1,0,0:0:0:0:
320,120,48992,2,0,L|250:120,2,70.000000298023,8|0|0,0:0|0:0|0:0,0:0:0:0:
280,48,49623,6,0,B|240:48|240:48|208:64,1,70.000000298023,8|0,0:0|0:0,0:0:0:0:
176,88,49939,2,0,L|176:168,1,70.000000298023
176,200,50255,2,0,L|224:272,1,70.000000298023,8|0,0:0|0:0,0:0:0:0:
240,288,50571,1,0,0:0:0:0:
280,128,51202,6,0,P|336:192|336:248,1,140.000000596046
280,304,51834,2,0,B|224:312|192:312|120:296,1,140.000000596046
88,240,52465,2,0,P|136:176|152:120,1,140.000000596046
224,80,53097,6,0,P|232:152|200:224,1,140.000000596046
152,280,53728,2,0,P|232:304|288:264,1,140.000000596046
312,200,54360,1,0,0:0:0:0:
360,128,54676,1,0,0:0:0:0:
392,208,54992,6,0,B|368:280|368:280|328:336,2,140.000000596046
328,48,56255,1,0,0:0:0:0:
176,112,56886,6,0,B|144:160|144:192|176:248,1,140.000000596046
240,296,57518,2,0,B|268:245|268:213|236:165,1,140.000000596046
256,80,58149,2,0,P|320:128|336:208,1,140.000000596046
368,264,58781,6,0,L|432:320,2,70.000000298023
288,232,59413,2,0,P|240:248|216:344,1,140.000000596046
136,288,60044,2,0,P|70:271|41:210,1,140.000000596046
72,128,60676,6,0,P|64:88|64:48,2,70.000000298023
120,200,61307,1,0,0:0:0:0:
120,200,61623,1,0,0:0:0:0:
168,128,61939,6,0,P|216:88|288:104,1,140.000000596046
248,176,62571,2,0,P|301:218|367:201,1,140.000000596046
392,120,63202,1,0,0:0:0:0:
256,192,63518,12,0,65413,0:0:0:0:
64,152,65728,6,0,P|112:168|144:256,1,140.000000596046
192,312,66360,2,0,B|280:312|280:312|352:296,1,140.000000596046
392,248,66992,6,0,B|408:176|408:176|392:104,1,140.000000596046
320,72,67623,2,0,P|264:88|272:176,1,140.000000596046
288,240,68255,2,0,P|216:256|144:248,1,140.000000596046
104,176,68886,2,0,P|128:128|208:136,1,140.000000596046
280,168,69518,6,0,P|320:112|288:56,1,140.000000596046
216,96,70149,2,0,P|157:127|104:87,1,140.000000596046
64,160,70781,2,0,P|96:232|160:240,1,140.000000596046
232,232,71413,2,0,P|272:256|248:336,1,140.000000596046
176,304,72044,6,0,P|136:240|168:176,1,140.000000596046
224,128,72676,2,0,B|296:112|296:112|376:128,1,140.000000596046
424,176,73307,5,0,0:0:0:0:
408,256,73623,1,0,0:0:0:0:
328,288,73939,1,0,0:0:0:0:
248,256,74255,1,0,0:0:0:0:
192,192,74571,5,0,0:0:0:0:
232,120,74886,2,0,B|280:96|280:96|368:96,2,140.000000596046
152,144,75834,6,0,L|80:168,1,70.000000298023
72,208,76149,2,0,L|144:256,1,70.000000298023
168,272,76465,1,0,0:0:0:0:
240,232,76781,1,0,0:0:0:0:
232,152,77097,6,0,P|264:112|296:96,1,70.000000298023
320,104,77413,2,0,P|348:84|369:56,2,70.000000298023
320,144,77886,1,0,0:0:0:0:
320,184,78044,2,0,L|320:256,1,70.000000298023
320,296,78360,6,0,P|248:344|184:336,1,140.000000596046
160,320,78834,1,0,0:0:0:0:
120,296,78992,2,0,L|48:264,1,70.000000298023
48,224,79307,2,0,P|96:200|128:200,1,70.000000298023
152,216,79623,6,0,P|224:232|288:208,1,140.000000596046
224,152,80255,2,0,P|160:112|88:136,1,140.000000596046
88,208,80886,6,0,L|64:288,2,70.000000298023
152,264,81518,2,0,L|152:344,2,70.000000298023
216,208,82149,2,0,L|240:128,2,70.000000298023
304,208,82781,2,0,L|368:160,2,70.000000298023
256,192,83413,12,0,85939,0:0:0:0:
440,240,99834,6,0,P|408:264|376:272,1,70.000000298023
312,256,100149,2,2,P|288:224|280:192,1,70.000000298023,10|2,0:0|0:0,0:0:0:0:
312,160,100465,6,2,P|345:170|372:191,2,70.000000298023,2|2|10,0:0|0:0|0:0,0:0:0:0:
272,144,100939,1,0,0:0:0:0:
232,152,101097,2,0,P|168:216|192:272,1,140.000000596046,0|8,0:0|0:0,0:0:0:0:
208,288,101571,6,0,L|288:328,1,70.000000298023
304,296,101886,2,0,L|392:296,1,70.000000298023,0|8,0:0|0:0,0:0:0:0:
392,256,102202,2,0,L|448:192,1,70.000000298023
456,168,102518,5,0,0:0:0:0:
456,128,102676,1,8,0:0:0:0:
432,88,102834,1,0,0:0:0:0:
392,72,102992,1,0,0:0:0:0:
352,88,103149,1,0,0:0:0:0:
312,112,103307,2,0,P|264:128|224:120,1,70.000000298023,8|0,0:0|0:0,0:0:0:0:
216,96,103623,6,0,P|176:64|152:128,1,140.000000596046,0|8,0:0|0:0,0:0:0:0:
176,160,104097,1,0,0:0:0:0:
200,192,104255,2,0,P|248:248|240:320,1,140.000000596046,0|8,0:0|0:0,0:0:0:0:
208,336,104728,1,0,0:0:0:0:
168,328,104886,6,0,P|120:280|120:208,1,140.000000596046,0|8,0:0|0:0,0:0:0:0:
144,176,105360,1,0,0:0:0:0:
176,144,105518,2,0,P|208:96|136:64,1,140.000000596046,0|8,0:0|0:0,0:0:0:0:
120,88,105992,1,0,0:0:0:0:
96,128,106149,6,0,P|80:192|136:264,1,140.000000596046,0|8,0:0|0:0,0:0:0:0:
152,272,106623,1,0,0:0:0:0:
192,288,106781,2,0,B|245:288|245:288|325:256,1,140.000000596046,0|8,0:0|0:0,0:0:0:0:
360,232,107255,1,0,0:0:0:0:
384,200,107413,6,0,P|352:168|304:160,1,70.000000298023
288,152,107728,2,0,P|246:132|199:141,1,70.000000298023,8|0,0:0|0:0,0:0:0:0:
192,160,108044,2,0,P|146:163|105:139,1,70.000000298023
88,136,108360,2,0,P|99:92|137:61,1,70.000000298023,8|0,0:0|0:0,0:0:0:0:
152,64,108676,5,0,0:0:0:0:
192,56,108834,1,0,0:0:0:0:
232,56,108992,1,8,0:0:0:0:
272,64,109149,1,0,0:0:0:0:
312,80,109307,1,0,0:0:0:0:
344,104,109465,1,0,0:0:0:0:
376,128,109623,2,0,P|384:176|368:216,1,70.000000298023,8|0,0:0|0:0,0:0:0:0:
352,232,109939,6,0,P|288:256|208:256,1,140.000000596046,0|8,0:0|0:0,0:0:0:0:
176,248,110413,1,0,0:0:0:0:
136,240,110571,2,0,P|104:184|160:152,1,140.000000596046,0|8,0:0|0:0,0:0:0:0:
200,160,111044,1,0,0:0:0:0:
240,168,111202,6,0,P|312:136|304:72,1,140.000000596046,0|8,0:0|0:0,0:0:0:0:
288,48,111676,1,0,0:0:0:0:
248,48,111834,2,0,P|208:64|120:120,1,140.000000596046,0|8,0:0|0:0,0:0:0:0:
96,152,112307,1,0,0:0:0:0:
80,192,112465,6,0,P|96:248|184:264,2,140.000000596046,0|8|0,0:0|0:0|0:0,0:0:0:0:
88,104,113413,5,8,0:0:0:0:
160,56,113728,2,0,P|216:48|272:128,1,140.000000596046,0|8,0:0|0:0,0:0:0:0:
304,184,114360,2,0,P|355:140|351:73,2,140.000000596046,0|8|0,0:0|0:0|0:0,0:0:0:0:
224,200,115307,2,0,P|160:208|72:176,1,140.000000596046,8|0,0:0|0:0,0:0:0:0:
128,112,115939,5,8,0:0:0:0:
208,96,116255,2,0,P|280:104|320:160,1,140.000000596046,0|8,0:0|0:0,0:0:0:0:
320,200,116728,1,0,0:0:0:0:
320,240,116886,2,0,L|320:288,6,35.0000001490115,0|0|0|0|8|0|0,0:0|0:0|0:0|0:0|0:0|0:0|0:0,0:0:0:0:
288,264,117518,6,0,P|240:232|144:240,2,140.000000596046,0|8|0,0:0|0:0|0:0,0:0:0:0:
336,336,118465,1,8,0:0:0:0:
408,296,118781,2,0,P|464:256|448:184,1,140.000000596046,0|8,0:0|0:0,0:0:0:0:
400,128,119413,2,0,L|344:56,1,70.000000298023
320,96,119728,2,0,L|240:80,1,70.000000298023,8|0,0:0|0:0,0:0:0:0:
216,104,120044,1,0,0:0:0:0:
272,168,120360,1,8,0:0:0:0:
312,240,120676,6,0,P|248:288|176:280,1,140.000000596046,0|8,0:0|0:0,0:0:0:0:
152,264,121149,1,0,0:0:0:0:
120,232,121307,2,0,P|104:160|160:96,1,140.000000596046,0|8,0:0|0:0,0:0:0:0:
176,88,121781,1,0,0:0:0:0:
216,72,121939,2,0,P|288:112|272:160,2,140.000000596046,0|8|0,0:0|0:0|0:0,0:0:0:0:
136,96,122886,5,8,0:0:0:0:
112,136,123044,2,0,L|56:208,1,70.000000298023
104,216,123360,2,0,L|104:296,1,70.000000298023,0|8,0:0|0:0,0:0:0:0:
136,312,123676,1,0,0:0:0:0:
176,328,123834,6,0,P|240:272|248:200,1,140.000000596046,0|8,0:0|0:0,0:0:0:0:
232,184,124307,1,0,0:0:0:0:
216,144,124465,2,0,P|240:120|280:120,1,70.000000298023
312,136,124781,6,0,L|312:176,4,35.0000001490115,8|0|0|0|0,0:0|0:0|0:0|0:0|0:0,0:0:0:0:
312,48,125413,5,8,0:0:0:0:
312,48,125571,1,0,0:0:0:0:
352,64,125728,2,0,L|416:128,1,70.000000298023
392,152,126044,2,0,L|416:232,1,70.000000298023,8|0,0:0|0:0,0:0:0:0:
392,256,126360,1,0,0:0:0:0:
312,288,126676,5,8,0:0:0:0:
312,248,126834,2,0,P|296:200|152:216,1,210.000000894069,0|8,0:0|0:0,0:0:0:0:
136,232,127465,1,0,0:0:0:0:
128,272,127623,6,0,L|128:320,6,46.6666668653487,0|0|0|0|0|0|4,0:0|0:0|0:0|0:0|0:0|0:0|0:0,0:0:0:0:
