osu file format v14

[General]
AudioFilename: Placebo Dying - M2U.mp3
AudioLeadIn: 0
PreviewTime: 12676
Countdown: 0
SampleSet: Soft
StackLeniency: 0.7
Mode: 0
LetterboxInBreaks: 0
WidescreenStoryboard: 0

[Editor]
Bookmarks: 22751,37909,50541,65383,75804,85909,99804,109909,117488
DistanceSpacing: 1.4
BeatDivisor: 6
GridSize: 4
TimelineZoom: 3.699999

[Metadata]
Title:Placebo Dying (Speed Up Ver.)
TitleUnicode:Placebo Dying (Speed Up Ver.)
Artist:M2U
ArtistUnicode:M2U
Creator:D e s
Version:Extra
Source:O2JAM ANALOG
Tags:dnb drum n bass trance opera
BeatmapID:717219
BeatmapSetID:322610

[Difficulty]
HPDrainRate:6
CircleSize:4
OverallDifficulty:8
ApproachRate:9.3
SliderMultiplier:2
SliderTickRate:1

[Events]
//Background and Video events
0,0,"artt.jpg",0,0
//Break Periods
2,28034,37385
//Storyboard Layer 0 (Background)
//Storyboard Layer 1 (Fail)
//Storyboard Layer 2 (Pass)
//Storyboard Layer 3 (Foreground)
//Storyboard Sound Samples

[TimingPoints]
2571,315.789473684211,4,1,0,40,1,0
2571,-142.857142857143,4,2,1,30,0,0
3834,-200,4,2,1,30,0,0
4149,-142.857142857143,4,2,1,30,0,0
5097,-200,4,2,1,40,0,0
5413,-142.857142857143,4,2,1,40,0,0
6992,-142.857142857143,4,2,1,40,0,0
7623,-142.857142857143,4,2,1,40,0,0
10149,-142.857142857143,4,2,1,40,0,0
10307,-142.857142857143,4,2,1,40,0,0
10465,-142.857142857143,4,2,1,40,0,0
10623,-142.857142857143,4,2,1,40,0,0
11413,-133.333333333333,4,2,1,40,0,0
12202,-100,4,2,1,40,0,0
12676,-100,4,2,1,40,0,1
12992,-100,4,1,1,40,0,1
13071,-100,4,2,1,40,0,1
13623,-100,4,1,1,40,0,1
13702,-100,4,2,1,40,0,1
14255,-100,4,1,1,40,0,1
14334,-100,4,2,1,40,0,1
14886,-100,4,1,1,40,0,1
14965,-100,4,2,1,40,0,1
15518,-100,4,1,1,40,0,1
15597,-100,4,2,1,40,0,1
16149,-100,4,1,1,40,0,1
16228,-100,4,2,1,40,0,1
16781,-100,4,1,1,40,0,1
16860,-100,4,2,1,40,0,1
17413,-100,4,1,1,40,0,1
17492,-100,4,2,1,40,0,1
18044,-100,4,1,1,40,0,1
18123,-100,4,2,1,40,0,1
18676,-100,4,1,1,40,0,1
18755,-100,4,2,1,40,0,1
19307,-100,4,1,1,40,0,1
19386,-100,4,2,1,40,0,1
19939,-100,4,1,1,40,0,1
20018,-100,4,2,1,40,0,1
20571,-100,4,1,1,40,0,1
20649,-100,4,2,1,40,0,1
21202,-100,4,1,1,40,0,1
21281,-100,4,2,1,40,0,1
21834,-100,4,1,1,40,0,1
21913,-100,4,2,1,40,0,1
22465,-100,4,1,1,40,0,1
22544,-100,4,2,1,40,0,1
22781,-100,4,2,1,40,0,1
23097,-100,4,1,1,40,0,1
23255,-100,4,2,1,40,0,1
23728,-100,4,1,1,40,0,1
23886,-100,4,2,1,40,0,1
24360,-100,4,1,1,40,0,1
24518,-100,4,2,1,40,0,1
24992,-100,4,1,1,40,0,1
25149,-100,4,2,1,40,0,1
25623,-100,4,1,1,40,0,1
25781,-100,4,2,1,40,0,1
26255,-100,4,1,1,40,0,1
26413,-100,4,2,1,40,0,1
26886,-100,4,1,1,40,0,1
27044,-100,4,2,1,40,0,1
27518,-100,4,1,1,40,0,1
27676,-100,4,2,1,40,0,1
27834,-100,4,2,1,40,0,0
37939,-133.333333333333,4,1,1,40,0,0
50571,-142.857142857143,4,2,1,30,0,0
60044,-142.857142857143,4,2,1,40,0,0
61307,-142.857142857143,4,2,1,40,0,0
62571,-142.857142857143,4,2,1,40,0,0
64465,-200,4,2,1,40,0,0
65413,-100,4,2,1,40,0,0
68255,-100,4,2,1,40,0,0
68886,-100,4,2,1,40,0,0
69518,-100,4,2,1,40,0,0
71413,-100,4,2,1,40,0,0
72044,-100,4,2,1,40,0,0
72676,-100,4,2,1,40,0,0
73307,-100,4,2,1,40,0,0
74571,-100,4,2,1,40,0,0
75834,-95.2380952380952,4,2,1,40,0,0
85939,-133.333333333333,4,2,1,40,0,0
87360,-133.333333333333,4,2,1,40,0,0
88307,-133.333333333333,4,2,1,40,0,0
89728,-83.3333333333333,4,2,1,40,0,0
90992,-95.2380952380952,4,2,1,40,0,0
95413,-133.333333333333,4,2,1,40,0,0
96676,-95.2380952380952,4,2,1,40,0,0
99834,-83.3333333333333,4,2,1,40,0,1
101097,-83.3333333333333,4,2,1,40,0,1
101728,-83.3333333333333,4,2,1,40,0,1
102360,-83.3333333333333,4,2,1,40,0,1
102992,-83.3333333333333,4,2,1,40,0,1
103307,-83.3333333333333,4,2,1,40,0,1
103623,-83.3333333333333,4,2,1,40,0,1
105518,-83.3333333333333,4,2,1,40,0,1
105834,-83.3333333333333,4,2,1,40,0,1
106149,-83.3333333333333,4,2,1,40,0,1
110571,-83.3333333333333,4,2,1,40,0,1
110886,-83.3333333333333,4,2,1,40,0,1
111202,-83.3333333333333,4,2,1,40,0,1
111834,-83.3333333333333,4,2,1,40,0,1
113728,-83.3333333333333,4,2,1,40,0,1
114360,-83.3333333333333,4,2,1,40,0,1
114676,-83.3333333333333,4,2,1,40,0,1
114992,-83.3333333333333,4,2,1,40,0,1
115623,-83.3333333333333,4,2,1,40,0,1
116255,-83.3333333333333,4,2,1,40,0,1
116886,-83.3333333333333,4,2,1,40,0,1
117518,-80,4,2,1,40,0,0
127623,-80,4,2,1,40,0,0
128255,-80,4,1,1,40,0,0

[HitObjects]
56,192,2571,6,0,B|96:208|128:192|128:192|200:200,1,139.999995727539
312,264,3044,2,0,L|272:296,1,34.9999989318848
336,256,3202,2,0,B|384:232|384:168|336:136,1,139.999995727539
120,144,3834,6,0,B|96:184|136:208|104:256,1,100
80,320,4307,1,0,0:0:0:0:
200,168,4465,1,0,0:0:0:0:
400,296,4781,1,0,0:0:0:0:
304,64,5097,2,0,B|272:96|272:128|304:168,1,100
96,208,5728,6,0,L|64:136,1,69.9999978637696
160,136,6044,2,0,L|160:56,1,69.9999978637696
232,288,6360,1,0,0:0:0:0:
272,56,6676,2,0,L|240:136,1,69.9999978637696
352,184,6992,6,0,L|384:152,1,34.9999989318848
360,184,7149,2,0,L|400:168,1,34.9999989318848
368,184,7307,2,0,L|408:192,1,34.9999989318848
376,192,7465,2,0,L|408:224,1,34.9999989318848
376,200,7623,2,0,L|376:344,1,139.999995727539
200,80,8255,6,0,L|128:48,1,69.9999978637696
128,144,8571,2,0,L|48:144,1,69.9999978637696
284,276,8886,1,0,0:0:0:0:
400,64,9202,1,0,0:0:0:0:
248,168,9518,6,0,B|224:176|192:176|168:160,1,69.9999978637696
64,56,9834,2,0,B|86:67|109:89|114:118,1,69.9999978637696
128,272,10149,6,0,L|160:304,1,34.9999989318848
120,272,10307,2,0,L|136:312,1,34.9999989318848
112,272,10465,2,0,L|104:320,1,34.9999989318848
104,272,10623,2,0,L|72:296,1,34.9999989318848
104,264,10781,2,0,L|64:248,1,34.9999989318848
112,240,10939,2,0,L|96:200,1,34.9999989318848
136,208,11097,2,0,L|136:152,1,34.9999989318848
184,176,11255,2,0,L|184:136,1,34.9999989318848
248,152,11413,6,0,L|256:104,1,37.5000014305115
328,176,11571,2,0,L|352:144,1,37.5000014305115
392,240,11728,2,0,L|432:232,1,37.5000014305115
416,344,11886,2,0,L|464:344,3,37.5000014305115
248,288,12202,5,0,0:0:0:0:
220,273,12281,1,0,0:0:0:0:
193,259,12360,1,0,0:0:0:0:
166,245,12439,1,0,0:0:0:0:
139,231,12518,1,0,0:0:0:0:
112,217,12597,1,0,0:0:0:0:
85,203,12676,6,0,B|96:152|96:152|128:104,1,100
264,48,12992,1,0,0:0:0:0:
392,216,13149,2,0,L|344:248,1,50
200,176,13307,2,0,B|168:152|168:120|200:80,2,100
344,80,13781,5,0,0:0:0:0:
352,64,13860,1,0,0:0:0:0:
368,56,13939,2,0,P|408:64|408:128,1,100
328,312,14255,5,0,0:0:0:0:
72,168,14413,2,0,L|120:136,1,50
288,152,14571,2,0,B|320:176|320:208|288:248,1,100
176,304,14886,5,0,0:0:0:0:
208,72,15044,1,0,0:0:0:0:
208,72,15123,1,0,0:0:0:0:
208,72,15202,2,0,B|224:104|224:104|208:144|208:144|216:184,1,100
304,336,15518,5,0,0:0:0:0:
368,176,15676,1,0,0:0:0:0:
392,176,15755,1,0,0:0:0:0:
416,176,15834,2,0,P|456:208|456:256,1,100
288,328,16149,5,0,0:0:0:0:
232,168,16307,1,0,0:0:0:0:
232,168,16386,1,0,0:0:0:0:
232,168,16465,2,0,L|232:64,1,100
128,208,16781,5,0,0:0:0:0:
400,144,16939,2,0,L|464:128,1,50
384,136,17097,2,0,P|352:104|296:96,1,100
240,240,17413,5,0,0:0:0:0:
80,96,17571,1,0,0:0:0:0:
80,96,17649,1,0,0:0:0:0:
80,96,17728,1,0,0:0:0:0:
144,296,17886,5,0,0:0:0:0:
208,152,18044,2,0,L|144:128,1,50
256,88,18202,2,0,L|296:128,1,50
432,192,18360,2,0,B|440:152|432:120|392:96,1,100
184,56,18676,5,0,0:0:0:0:
328,160,18834,1,0,0:0:0:0:
344,176,18913,1,0,0:0:0:0:
352,200,18992,2,0,L|352:304,1,100
208,336,19307,5,0,0:0:0:0:
80,192,19465,2,0,L|136:160,1,50
256,112,19623,2,0,B|216:112|216:112|144:88,1,100
352,64,19939,5,0,0:0:0:0:
192,240,20097,1,0,0:0:0:0:
192,240,20176,1,0,0:0:0:0:
192,240,20255,2,0,B|240:256|240:256|304:256,1,100
440,192,20492,1,0,0:0:0:0:
440,192,20571,2,0,L|376:192,1,50
272,128,20728,6,0,L|336:128,1,50
464,64,20886,2,0,P|408:48|352:56,1,100
160,96,21202,1,0,0:0:0:0:
344,160,21360,5,0,0:0:0:0:
368,176,21439,1,0,0:0:0:0:
392,192,21518,2,0,P|424:240|432:288,2,100
176,144,21992,1,0,0:0:0:0:
112,144,22071,1,0,0:0:0:0:
48,144,22149,2,0,L|152:200,1,100
320,272,22465,5,0,0:0:0:0:
256,48,22623,1,0,0:0:0:0:
256,48,22702,1,0,0:0:0:0:
256,48,22781,2,0,B|264:72|264:72|256:96|256:96|256:152,1,100
184,296,23097,1,0,0:0:0:0:
168,96,23255,5,0,0:0:0:0:
256,224,23413,1,0,0:0:0:0:
156,105,23571,1,0,0:0:0:0:
267,214,23728,1,0,0:0:0:0:
147,117,23886,5,0,0:0:0:0:
276,202,24044,1,0,0:0:0:0:
140,130,24202,1,0,0:0:0:0:
283,189,24360,1,0,0:0:0:0:
135,144,24518,5,0,0:0:0:0:
288,175,24676,1,0,0:0:0:0:
134,159,24834,1,0,0:0:0:0:
289,160,24992,1,0,0:0:0:0:
135,174,25149,5,0,0:0:0:0:
328,128,25307,2,0,B|384:120|384:120|448:136,1,100
448,304,25623,1,0,0:0:0:0:
256,304,25781,5,0,0:0:0:0:
208,152,25939,1,0,0:0:0:0:
368,208,26097,1,0,0:0:0:0:
217,282,26255,1,0,0:0:0:0:
251,126,26413,5,0,0:0:0:0:
362,255,26571,1,0,0:0:0:0:
195,244,26728,1,0,0:0:0:0:
302,126,26886,1,0,0:0:0:0:
334,293,27044,5,0,0:0:0:0:
192,200,27202,1,0,0:0:0:0:
360,128,27360,2,0,L|432:128,2,50
120,248,27676,5,0,0:0:0:0:
120,248,27755,1,0,0:0:0:0:
120,248,27834,1,4,0:0:0:0:
256,80,37939,5,0,0:0:0:0:
256,80,38255,5,8,0:0:0:0:
163,197,38413,1,0,0:0:0:0:
306,240,38571,1,0,0:0:0:0:
194,338,38728,1,0,0:0:0:0:
332,281,38886,5,8,0:0:0:0:
222,178,39044,1,0,0:0:0:0:
328,71,39202,1,0,0:0:0:0:
328,71,39518,5,8,0:0:0:0:
160,223,39676,1,0,0:0:0:0:
120,48,39834,2,0,B|96:80|96:80|96:120,1,75.0000028610231
144,296,40149,2,0,B|135:256|135:256|152:220,1,75.0000028610231,8|0,0:0|0:0,0:0:0:0:
256,64,40465,1,0,0:0:0:0:
256,64,40781,5,8,0:0:0:0:
400,160,40939,1,0,0:0:0:0:
256,64,41097,2,0,L|256:152,1,75.0000028610231
280,280,41413,2,0,P|289:240|310:214,1,75.0000028610231,8|0,0:0|0:0,0:0:0:0:
448,136,41728,1,0,0:0:0:0:
448,136,42044,5,8,0:0:0:0:
400,248,42202,1,0,0:0:0:0:
288,296,42360,1,0,0:0:0:0:
176,256,42518,1,0,0:0:0:0:
288,264,42676,5,8,0:0:0:0:
368,176,42834,1,0,0:0:0:0:
176,120,42992,1,0,0:0:0:0:
176,120,43307,5,8,0:0:0:0:
320,192,43465,1,0,0:0:0:0:
464,112,43623,1,0,0:0:0:0:
315,90,43781,1,0,0:0:0:0:
424,216,43939,1,8,0:0:0:0:
388,70,44097,1,0,0:0:0:0:
288,182,44255,1,0,0:0:0:0:
288,182,44571,5,8,0:0:0:0:
142,215,44728,1,0,0:0:0:0:
248,109,44886,1,0,0:0:0:0:
98,119,45044,1,0,0:0:0:0:
219,206,45202,1,8,0:0:0:0:
162,66,45360,1,0,0:0:0:0:
146,177,45518,6,0,B|160:224|160:224|136:280|136:280|144:320,1,150.000005722046,0|8,0:0|0:0,0:0:0:0:
112,48,45992,1,0,0:0:0:0:
80,224,46149,6,0,B|112:216|112:216|112:232|144:216|144:216|144:232|176:216|176:216|176:232|216:216,1,150.000005722046,0|8,0:0|0:0,0:0:0:0:
296,216,46623,1,0,0:0:0:0:
352,288,46781,2,0,B|320:296|320:296|320:280|288:296|288:296|288:280|256:296|256:296|256:280|216:296,1,150.000005722046,0|8,0:0|0:0,0:0:0:0:
128,288,47255,1,0,0:0:0:0:
296,192,47413,6,0,B|360:152|360:152|440:152,1,150.000005722046,0|8,0:0|0:0,0:0:0:0:
376,48,47886,1,0,0:0:0:0:
224,144,48044,2,0,B|160:184|160:184|80:184,1,150.000005722046,0|8,0:0|0:0,0:0:0:0:
112,80,48518,1,0,0:0:0:0:
280,40,48676,6,0,B|336:40|376:80|376:144,1,150.000005722046,0|8,0:0|0:0,0:0:0:0:
323,275,49149,1,0,0:0:0:0:
172,273,49307,1,0,0:0:0:0:
172,273,49623,5,8,0:0:0:0:
215,129,49781,1,0,0:0:0:0:
328,227,49939,1,0,0:0:0:0:
224,335,50097,1,0,0:0:0:0:
130,217,50255,1,8,0:0:0:0:
381,93,50571,5,0,0:0:0:0:
252,199,50886,1,0,0:0:0:0:
96,256,51202,6,0,L|96:176,1,69.9999978637696
176,64,51518,1,0,0:0:0:0:
92,138,51834,2,0,L|143:76,1,69.9999978637696
276,42,52149,1,0,0:0:0:0:
240,224,52465,2,0,L|240:296,2,69.9999978637696
400,256,53097,2,0,B|464:240|464:176|408:160,1,139.999995727539
200,104,53728,6,0,B|152:96|152:96|80:152,1,139.999995727539
312,144,54360,2,0,B|368:144|408:152|408:152|448:184,1,139.999995727539
328,288,54834,5,0,0:0:0:0:
160,184,54992,2,0,P|160:128|176:96,1,69.9999978637696
239,64,55307,2,0,P|312:96|328:160,1,139.999995727539
208,320,55939,6,0,P|152:320|120:304,1,69.9999978637696
223,240,56255,2,0,P|286:264|312:328,1,139.999995727539
354,82,56886,6,0,P|292:53|224:64,1,139.999995727539
456,224,57360,1,0,0:0:0:0:
288,144,57518,2,0,B|240:152|240:152|200:192|200:192|200:248,1,139.999995727539
288,336,57992,1,0,0:0:0:0:
376,144,58149,2,0,P|360:96|280:56,1,139.999995727539
112,272,58781,6,0,P|137:208|200:180,1,139.999995727539
448,136,59413,2,0,L|424:208,1,69.9999978637696
376,64,59728,2,0,L|363:138,1,69.9999978637696
184,192,60044,6,0,L|104:192,2,69.9999978637696
400,256,60676,2,0,L|456:313,2,69.9999978637696
264,104,61307,6,0,L|184:88,1,69.9999978637696
392,160,61623,2,0,L|464:160,1,69.9999978637696
192,232,61939,2,0,B|152:248|152:248|96:232|96:232|56:240,1,139.999995727539
392,320,62571,2,0,P|456:320|432:248,1,139.999995727539
176,64,63202,1,0,0:0:0:0:
256,192,63360,12,0,65255,0:0:0:0:
184,128,65413,6,0,B|128:120|128:120|64:128,1,100
272,208,65728,2,0,B|368:224|368:224|472:208,2,200
96,272,66518,2,0,L|72:328,2,50
184,56,66834,6,0,L|184:112,1,50
200,256,66992,2,0,B|200:192|240:144|288:128|352:152,1,200
472,216,67465,1,0,0:0:0:0:
304,272,67623,1,0,0:0:0:0:
328,56,67781,6,0,L|280:88,1,50
352,56,67939,2,0,B|392:88|392:88|408:136,1,100
384,272,68255,5,0,0:0:0:0:
248,320,68413,1,0,0:0:0:0:
160,232,68571,1,0,0:0:0:0:
304,160,68728,1,0,0:0:0:0:
248,232,68886,5,0,0:0:0:0:
176,168,69044,1,0,0:0:0:0:
232,96,69202,1,0,0:0:0:0:
312,152,69360,1,0,0:0:0:0:
288,240,69518,5,0,0:0:0:0:
176,200,69676,1,0,0:0:0:0:
264,96,69834,1,0,0:0:0:0:
384,160,69992,1,0,0:0:0:0:
376,304,70149,1,0,0:0:0:0:
344,176,70307,5,0,0:0:0:0:
224,120,70465,1,0,0:0:0:0:
112,200,70623,1,0,0:0:0:0:
120,328,70781,1,0,0:0:0:0:
224,264,70939,5,0,0:0:0:0:
152,184,71097,1,0,0:0:0:0:
80,264,71255,1,0,0:0:0:0:
152,336,71413,1,0,0:0:0:0:
208,264,71571,5,0,0:0:0:0:
136,208,71728,1,0,0:0:0:0:
96,288,71886,1,0,0:0:0:0:
168,336,72044,1,0,0:0:0:0:
56,256,72202,5,0,0:0:0:0:
144,136,72360,1,0,0:0:0:0:
264,216,72518,1,0,0:0:0:0:
176,336,72676,1,0,0:0:0:0:
88,192,72834,5,0,0:0:0:0:
264,136,72992,1,0,0:0:0:0:
328,312,73149,1,0,0:0:0:0:
144,336,73307,1,0,0:0:0:0:
216,288,73465,5,0,0:0:0:0:
232,200,73623,1,0,0:0:0:0:
192,120,73781,1,0,0:0:0:0:
120,64,73939,1,0,0:0:0:0:
192,160,74097,5,0,0:0:0:0:
336,168,74255,1,0,0:0:0:0:
424,80,74413,1,0,0:0:0:0:
264,48,74571,1,0,0:0:0:0:
224,192,74728,5,0,0:0:0:0:
320,120,74886,1,0,0:0:0:0:
432,200,75044,5,0,0:0:0:0:
470,228,75123,1,0,0:0:0:0:
461,274,75202,1,0,0:0:0:0:
416,288,75281,1,0,0:0:0:0:
368,272,75360,1,0,0:0:0:0:
319,275,75439,1,0,0:0:0:0:
273,295,75518,1,0,0:0:0:0:
258,276,75597,1,0,0:0:0:0:
243,257,75676,1,0,0:0:0:0:
228,238,75755,1,0,0:0:0:0:
216,216,75834,6,0,L|176:112,1,104.999996795654
368,64,76149,1,8,0:0:0:0:
440,216,76307,1,0,0:0:0:0:
440,216,76386,1,0,0:0:0:0:
440,216,76465,2,0,P|392:240|336:240,1,104.999996795654
152,144,76781,5,8,0:0:0:0:
336,48,76939,2,0,L|352:104,1,52.4999983978272
256,224,77097,2,0,P|280:176|280:120,1,104.999996795654
96,64,77413,5,8,0:0:0:0:
80,200,77571,2,0,L|48:256,2,52.4999983978272
208,72,77886,1,0,0:0:0:0:
264,56,77965,1,0,0:0:0:0:
328,64,78044,2,0,P|384:88|416:128,1,104.999996795654,8|0,0:0|0:0,0:0:0:0:
304,160,78360,6,0,B|264:192|264:192|232:248,1,104.999996795654
392,288,78676,1,8,0:0:0:0:
208,144,78834,1,0,0:0:0:0:
80,304,78992,6,0,P|136:312|192:304,1,104.999996795654
360,288,79307,2,0,P|314:262|277:225,1,104.999996795654,8|0,0:0|0:0,0:0:0:0:
176,224,79623,2,0,P|191:174|193:121,1,104.999996795654
104,56,79939,5,8,0:0:0:0:
296,144,80097,1,0,0:0:0:0:
296,144,80176,1,0,0:0:0:0:
296,144,80255,2,0,L|360:144,1,52.4999983978272
464,64,80413,2,0,B|400:48|400:48|336:48,1,104.999996795654,0|8,0:0|0:0,0:0:0:0:
216,80,80728,1,0,0:0:0:0:
344,224,80886,6,0,P|291:246|235:229,1,104.999996795654
64,168,81202,2,0,P|116:190|172:173,1,104.999996795654,8|0,0:0|0:0,0:0:0:0:
296,64,81518,2,0,P|242:85|215:136,1,104.999996795654
304,264,81834,5,8,0:0:0:0:
440,336,81992,1,0,0:0:0:0:
456,176,82149,1,0,0:0:0:0:
360,320,82307,1,0,0:0:0:0:
264,168,82465,1,8,0:0:0:0:
456,256,82623,1,0,0:0:0:0:
352,128,82781,6,0,P|384:80|440:88,1,104.999996795654
272,248,83097,2,0,L|168:248,1,104.999996795654,8|0,0:0|0:0,0:0:0:0:
72,96,83413,5,0,0:0:0:0:
200,56,83571,1,0,0:0:0:0:
304,160,83728,1,8,0:0:0:0:
176,240,83886,1,0,0:0:0:0:
216,104,84044,5,0,0:0:0:0:
344,72,84202,1,0,0:0:0:0:
432,160,84360,1,8,0:0:0:0:
384,272,84518,1,0,0:0:0:0:
272,328,84676,1,0,0:0:0:0:
200,248,84834,1,0,0:0:0:0:
256,152,84992,5,8,0:0:0:0:
360,184,85149,1,0,0:0:0:0:
336,288,85307,1,0,0:0:0:0:
240,328,85465,1,0,0:0:0:0:
96,152,85623,5,8,0:0:0:0:
96,152,85702,1,0,0:0:0:0:
96,152,85781,1,0,0:0:0:0:
96,152,85860,1,0,0:0:0:0:
96,152,85939,2,0,B|136:176|192:136|264:168,1,150.000005722046
464,72,86571,5,0,0:0:0:0:
200,240,86886,1,0,0:0:0:0:
416,304,87202,1,0,0:0:0:0:
312,192,87360,5,0,0:0:0:0:
280,160,87465,1,0,0:0:0:0:
280,120,87571,1,0,0:0:0:0:
312,88,87676,1,0,0:0:0:0:
360,88,87781,1,0,0:0:0:0:
400,120,87886,1,0,0:0:0:0:
400,168,87992,1,0,0:0:0:0:
384,208,88097,1,0,0:0:0:0:
360,248,88202,1,0,0:0:0:0:
328,288,88307,5,0,0:0:0:0:
192,160,88465,1,0,0:0:0:0:
208,136,88781,5,0,0:0:0:0:
336,304,88939,1,0,0:0:0:0:
328,328,89255,5,0,0:0:0:0:
232,120,89413,1,0,0:0:0:0:
224,272,89728,6,0,L|128:344,1,119.999996337891
312,144,90044,2,0,L|408:72,1,119.999996337891
168,192,90360,2,0,P|104:208|48:192,1,119.999996337891
336,232,90676,2,0,P|400:248|456:232,1,119.999996337891
256,56,90992,5,0,0:0:0:0:
256,272,91307,6,0,L|208:320,1,52.4999983978272
112,320,91465,2,0,L|152:272,1,52.4999983978272
256,160,91623,1,0,0:0:0:0:
83,278,91781,6,0,L|140:253,1,52.4999983978272
284,201,91939,1,0,0:0:0:0:
76,228,92097,6,0,L|139:232,1,52.4999983978272
291,251,92255,1,0,0:0:0:0:
344,112,92413,5,0,0:0:0:0:
274,298,92571,1,0,0:0:0:0:
152,112,92728,1,0,0:0:0:0:
400,120,92886,1,0,0:0:0:0:
264,216,93044,1,0,0:0:0:0:
320,48,93202,1,0,0:0:0:0:
456,176,93360,5,0,0:0:0:0:
456,200,93439,1,0,0:0:0:0:
456,224,93518,2,0,P|432:280|384:288,2,104.999996795654
208,152,94149,6,0,P|168:112|168:64,2,104.999996795654
384,136,94623,1,0,0:0:0:0:
240,280,94781,2,0,B|184:296|184:296|128:296,2,104.999996795654
360,168,95255,5,0,0:0:0:0:
208,64,95413,2,0,P|160:120|264:104,1,225.000008583069
88,56,96044,6,0,B|72:112|72:112|96:112|72:152|72:152|96:152|72:192|72:192|96:192|80:264,1,225.000008583069
224,336,96676,1,0,0:0:0:0:
296,160,96992,6,0,P|256:128|184:128,1,104.999996795654
216,216,97307,2,0,P|288:248|408:184,1,209.999993591309
416,96,97781,1,0,0:0:0:0:
256,80,97939,2,0,L|160:128,1,104.999996795654
96,208,98255,5,0,0:0:0:0:
224,304,98413,1,0,0:0:0:0:
392,216,98571,2,0,L|424:168,3,52.4999983978272
208,192,98886,2,0,L|176:240,3,52.4999983978272
288,64,99202,5,0,0:0:0:0:
338,54,99281,1,0,0:0:0:0:
383,80,99360,1,0,0:0:0:0:
401,128,99439,1,0,0:0:0:0:
384,177,99518,1,0,0:0:0:0:
360,223,99597,1,0,0:0:0:0:
365,274,99676,1,0,0:0:0:0:
395,316,99755,1,0,0:0:0:0:
444,335,99834,5,0,0:0:0:0:
400,200,99992,5,0,0:0:0:0:
342,183,100071,1,0,0:0:0:0:
284,193,100149,1,8,0:0:0:0:
104,312,100307,5,0,0:0:0:0:
136,328,100386,1,0,0:0:0:0:
168,328,100465,1,0,0:0:0:0:
192,312,100544,1,0,0:0:0:0:
208,288,100623,2,0,L|208:216,1,59.9999981689454
256,96,100781,5,8,0:0:0:0:
136,192,100939,1,0,0:0:0:0:
368,152,101097,2,0,P|424:192|432:248,1,119.999996337891
248,128,101413,2,0,P|288:72|344:64,1,119.999996337891,8|0,0:0|0:0,0:0:0:0:
304,240,101728,5,0,0:0:0:0:
312,248,101807,1,0,0:0:0:0:
320,256,101886,1,0,0:0:0:0:
320,264,101965,1,0,0:0:0:0:
320,272,102044,2,0,L|192:272,1,119.999996337891,8|0,0:0|0:0,0:0:0:0:
88,96,102360,5,0,0:0:0:0:
272,64,102518,1,0,0:0:0:0:
88,96,102676,1,8,0:0:0:0:
248,104,102834,1,0,0:0:0:0:
88,96,102992,1,0,0:0:0:0:
224,136,103149,1,0,0:0:0:0:
88,96,103307,1,8,0:0:0:0:
200,168,103465,1,0,0:0:0:0:
352,104,103623,5,0,0:0:0:0:
384,96,103702,1,0,0:0:0:0:
416,112,103781,1,0,0:0:0:0:
227,260,103939,6,0,L|155:260,2,59.9999981689454,8|0|0,0:0|0:0|0:0,0:0:0:0:
376,200,104255,2,0,L|448:200,2,59.9999981689454
232,104,104571,5,8,0:0:0:0:
232,104,104649,1,0,0:0:0:0:
232,104,104728,1,0,0:0:0:0:
88,200,104886,6,0,L|72:272,1,59.9999981689454
264,224,105044,2,0,L|280:152,1,59.9999981689454
93,207,105202,2,0,L|91:281,1,59.9999981689454,8|0,0:0|0:0,0:0:0:0:
258,216,105360,2,0,L|260:142,1,59.9999981689454
98,213,105518,6,0,L|110:285,1,59.9999981689454
253,210,105676,2,0,L|241:138,1,59.9999981689454
102,216,105834,2,0,L|128:285,1,59.9999981689454,8|0,0:0|0:0,0:0:0:0:
249,207,105992,2,0,L|223:138,1,59.9999981689454
56,344,106149,5,0,0:0:0:0:
112,344,106228,1,0,0:0:0:0:
168,344,106307,1,0,0:0:0:0:
368,240,106465,6,0,L|368:300,2,59.9999981689454,8|0|0,0:0|0:0|0:0,0:0:0:0:
256,50,106781,1,0,0:0:0:0:
216,98,106860,1,0,0:0:0:0:
200,162,106939,1,0,0:0:0:0:
408,48,107097,6,0,L|480:48,2,59.9999981689454,8|0|0,0:0|0:0|0:0,0:0:0:0:
120,128,107413,6,0,L|48:128,2,59.9999981689454
168,144,107649,1,0,0:0:0:0:
216,152,107728,2,0,L|280:152,1,59.9999981689454,8|0,0:0|0:0,0:0:0:0:
432,208,107886,1,0,0:0:0:0:
168,296,108044,6,0,P|208:320|232:320,2,59.9999981689454
136,248,108281,1,0,0:0:0:0:
112,200,108360,2,0,P|104:160|112:120,1,59.9999981689454,8|0,0:0|0:0,0:0:0:0:
256,48,108518,1,0,0:0:0:0:
408,192,108676,6,0,L|392:264,1,59.9999981689454
272,304,108834,2,0,L|288:232,1,59.9999981689454
429,205,108992,2,0,L|395:271,1,59.9999981689454,8|0,0:0|0:0,0:0:0:0:
250,290,109149,2,0,L|284:224,1,59.9999981689454
448,227,109307,6,0,L|398:282,1,59.9999981689454
231,268,109465,2,0,L|281:213,1,59.9999981689454
461,256,109623,2,0,L|399:296,1,59.9999981689454,8|0,0:0|0:0,0:0:0:0:
218,239,109781,2,0,L|280:199,1,59.9999981689454
424,72,109939,6,0,B|352:72|352:72|296:112,1,119.999996337891
144,208,110255,1,8,0:0:0:0:
232,72,110413,1,0,0:0:0:0:
80,144,110571,2,0,B|48:192|48:224|80:264,1,119.999996337891
280,312,110886,5,8,0:0:0:0:
160,184,111044,2,0,L|208:144,1,59.9999981689454
344,80,111202,2,0,B|344:128|312:168|264:184,1,119.999996337891
208,48,111518,6,0,L|280:56,1,59.9999981689454,8|0,0:0|0:0,0:0:0:0:
464,104,111676,2,0,P|408:136|392:200,1,119.999996337891
400,336,111992,5,0,0:0:0:0:
248,248,112149,1,8,0:0:0:0:
440,208,112307,1,0,0:0:0:0:
304,344,112465,6,0,B|264:320|216:320|176:344,1,119.999996337891
208,176,112781,2,0,B|264:144|264:144|304:96,1,119.999996337891,8|0,0:0|0:0,0:0:0:0:
400,256,113097,2,0,L|272:256,1,119.999996337891
64,192,113413,2,0,B|112:224|112:224|112:288,1,119.999996337891,8|0,0:0|0:0,0:0:0:0:
208,64,113728,5,0,0:0:0:0:
216,64,113807,1,0,0:0:0:0:
216,72,113886,1,0,0:0:0:0:
216,80,113965,1,0,0:0:0:0:
208,88,114044,1,8,0:0:0:0:
200,88,114123,1,0,0:0:0:0:
192,88,114202,1,0,0:0:0:0:
328,304,114360,5,0,0:0:0:0:
320,320,114439,1,0,0:0:0:0:
304,328,114518,1,0,0:0:0:0:
288,328,114597,1,0,0:0:0:0:
280,312,114676,1,8,0:0:0:0:
288,296,114755,1,0,0:0:0:0:
296,272,114834,1,0,0:0:0:0:
296,88,114992,5,0,0:0:0:0:
288,96,115071,1,0,0:0:0:0:
296,104,115149,1,0,0:0:0:0:
288,112,115228,1,0,0:0:0:0:
296,120,115307,1,8,0:0:0:0:
288,128,115386,1,0,0:0:0:0:
296,136,115465,1,0,0:0:0:0:
200,256,115623,5,0,0:0:0:0:
184,240,115702,1,0,0:0:0:0:
208,224,115781,1,0,0:0:0:0:
184,200,115860,1,0,0:0:0:0:
208,176,115939,1,8,0:0:0:0:
184,160,116018,1,0,0:0:0:0:
208,128,116097,1,0,0:0:0:0:
408,184,116255,5,0,0:0:0:0:
400,176,116334,1,0,0:0:0:0:
408,168,116413,1,0,0:0:0:0:
416,168,116492,1,0,0:0:0:0:
424,176,116571,1,8,0:0:0:0:
424,184,116649,1,0,0:0:0:0:
424,192,116728,1,0,0:0:0:0:
424,200,116807,1,0,0:0:0:0:
416,208,116886,5,0,0:0:0:0:
400,216,116965,1,0,0:0:0:0:
376,216,117044,1,0,0:0:0:0:
344,200,117123,1,0,0:0:0:0:
304,184,117202,1,8,0:0:0:0:
256,176,117281,1,0,0:0:0:0:
208,200,117360,1,0,0:0:0:0:
176,248,117439,1,0,0:0:0:0:
136,296,117518,2,0,L|136:160,1,125
256,56,117834,5,8,0:0:0:0:
296,104,117913,1,0,0:0:0:0:
304,160,117992,1,0,0:0:0:0:
288,216,118071,1,0,0:0:0:0:
264,264,118149,1,0,0:0:0:0:
152,128,118307,5,0,0:0:0:0:
360,64,118465,2,0,L|488:112,1,125,8|0,0:0|0:0,0:0:0:0:
445,278,118781,2,0,P|441:217|392:184,1,125
176,304,119097,6,0,P|112:280|64:240,1,125,8|0,0:0|0:0,0:0:0:0:
200,224,119413,2,0,P|264:200|312:160,1,125
168,104,119728,5,8,0:0:0:0:
152,104,119807,1,0,0:0:0:0:
136,104,119886,1,0,0:0:0:0:
120,104,119965,1,0,0:0:0:0:
104,104,120044,2,0,P|64:160|80:224,1,125
248,320,120360,5,8,0:0:0:0:
208,168,120518,1,0,0:0:0:0:
376,208,120676,1,0,0:0:0:0:
160,248,120834,1,0,0:0:0:0:
376,296,120992,1,8,0:0:0:0:
280,112,121149,1,0,0:0:0:0:
168,336,121307,6,0,L|32:336,1,125
280,128,121623,1,8,0:0:0:0:
328,304,121781,5,0,0:0:0:0:
328,304,121860,1,0,0:0:0:0:
328,304,121939,2,0,L|464:304,1,125
160,216,122255,5,8,0:0:0:0:
168,224,122334,1,0,0:0:0:0:
184,224,122413,1,0,0:0:0:0:
200,216,122492,1,0,0:0:0:0:
208,200,122571,2,0,P|208:160|128:144,1,125
144,320,122886,5,8,0:0:0:0:
368,208,123044,1,0,0:0:0:0:
368,176,123123,1,0,0:0:0:0:
368,144,123202,1,0,0:0:0:0:
168,56,123360,1,0,0:0:0:0:
168,88,123439,1,0,0:0:0:0:
168,120,123518,1,8,0:0:0:0:
272,296,123676,5,0,0:0:0:0:
320,312,123755,1,0,0:0:0:0:
368,304,123834,2,0,P|400:296|440:272,2,62.5
128,224,124149,5,8,0:0:0:0:
336,184,124307,1,0,0:0:0:0:
393,166,124386,1,0,0:0:0:0:
410,109,124465,1,0,0:0:0:0:
370,63,124544,1,0,0:0:0:0:
311,71,124623,1,0,0:0:0:0:
208,248,124781,5,8,0:0:0:0:
208,248,124860,1,0,0:0:0:0:
208,248,124939,1,0,0:0:0:0:
208,248,125018,1,0,0:0:0:0:
208,248,125097,2,0,L|208:112,1,125
416,208,125413,5,8,0:0:0:0:
264,64,125571,1,0,0:0:0:0:
264,64,125649,1,0,0:0:0:0:
264,64,125728,1,0,0:0:0:0:
96,208,125886,1,0,0:0:0:0:
96,208,125965,1,0,0:0:0:0:
96,208,126044,1,8,0:0:0:0:
288,168,126202,5,0,0:0:0:0:
288,168,126281,1,0,0:0:0:0:
288,168,126360,2,0,P|320:192|328:216,2,62.5
128,128,126676,5,8,0:0:0:0:
240,272,126834,1,0,0:0:0:0:
294,301,126913,1,0,0:0:0:0:
355,297,126992,1,0,0:0:0:0:
406,262,127071,1,0,0:0:0:0:
431,205,127149,1,0,0:0:0:0:
352,56,127307,5,8,0:0:0:0:
160,176,127465,1,0,0:0:0:0:
352,168,127623,5,0,0:0:0:0:
352,168,127728,1,0,0:0:0:0:
352,168,127834,1,0,0:0:0:0:
352,168,127939,1,0,0:0:0:0:
352,168,128044,1,0,0:0:0:0:
352,168,128149,1,0,0:0:0:0:
352,168,128255,1,4,0:0:0:0:
