osu file format v10

[General]
AudioFilename: Placebo Dying - M2U.mp3
AudioLeadIn: 0
PreviewTime: 14000
Countdown: 0
SampleSet: Normal
StackLeniency: 0.6
Mode: 0
LetterboxInBreaks: 0

[Editor]
Bookmarks: 14368,25662,31309,42603,43313,44725,46136,47548,48960,50372,51783,53195,54607,56019,56721,70838,84956,93426,96250,100485,101897,108956,111779,131544,142838
DistanceSpacing: 0.6
BeatDivisor: 4
GridSize: 8

[Metadata]
Title:Placebo Dying
TitleUnicode:Placebo Dying
Artist:M2U
ArtistUnicode:M2U
Creator:AngelHoney
Version:Hard
Source:O2jam Analog
Tags:Lan wings Jing bossandy boss jih7491
BeatmapID:186521
BeatmapSetID:60081

[Difficulty]
HPDrainRate:6
CircleSize:4
OverallDifficulty:6
ApproachRate:8
SliderMultiplier:1.8
SliderTickRate:1

[Events]
//Background and Video events
0,0,"123.jpg"
//Break Periods
2,31252,41597
//Storyboard Layer 0 (Background)
//Storyboard Layer 1 (Fail)
//Storyboard Layer 2 (Pass)
//Storyboard Layer 3 (Foreground)
//Storyboard Sound Samples
//Background Colour Transformations
3,100,0,0,0

[TimingPoints]
2818,352.941176470588,4,1,1,25,1,0
11200,-100,4,1,1,30,0,0
12700,-100,4,1,1,15,0,0
13317,-100,4,1,1,30,0,0
13759,-100,4,1,1,35,0,0
14112,-100,4,1,1,70,0,1
14200,-100,4,1,1,70,0,0
14465,-100,4,1,1,90,0,0
14553,-100,4,1,1,70,0,0
15170,-100,4,1,1,90,0,0
15259,-100,4,1,1,70,0,0
15876,-100,4,1,1,90,0,0
15965,-100,4,1,1,70,0,0
16582,-100,4,1,1,90,0,0
16670,-100,4,1,1,70,0,0
17288,-100,4,1,1,90,0,0
17376,-100,4,1,1,70,0,0
17994,-100,4,1,1,90,0,0
18082,-100,4,1,1,70,0,0
18700,-100,4,1,1,90,0,0
18788,-100,4,1,1,70,0,0
19406,-100,4,1,1,90,0,0
19494,-100,4,1,1,70,0,0
20112,-100,4,1,1,90,0,0
20200,-100,4,1,1,70,0,0
20817,-100,4,1,1,90,0,0
20906,-100,4,1,1,70,0,0
21523,-100,4,1,1,90,0,0
21612,-100,4,1,1,70,0,0
22229,-100,4,1,1,90,0,0
22317,-100,4,1,1,70,0,0
22935,-100,4,1,1,90,0,0
23023,-100,4,1,1,70,0,0
23641,-100,4,1,1,90,0,0
23729,-100,4,1,1,70,0,0
24347,-100,4,1,1,90,0,0
24435,-100,4,1,1,70,0,0
25053,-100,4,1,1,60,0,0
25406,-100,4,1,1,80,0,0
25759,-100,4,1,1,50,0,0
31053,-100,4,1,1,30,0,0
41994,-133.333333333333,4,1,1,30,0,0
43229,-133.333333333333,4,1,1,15,0,0
43759,-133.333333333333,4,1,1,30,0,0
43935,-133.333333333333,4,1,1,5,0,0
44288,-133.333333333333,4,1,1,30,0,0
46053,-133.333333333333,4,1,1,5,0,0
46229,-133.333333333333,4,1,1,30,0,0
48612,-133.333333333333,4,1,1,20,0,0
48788,-133.333333333333,4,1,1,15,0,0
49317,-133.333333333333,4,1,1,30,0,0
49670,-133.333333333333,4,1,1,15,0,0
49847,-133.333333333333,4,1,1,30,0,0
51082,-133.333333333333,4,1,1,15,0,0
51259,-133.333333333333,4,1,1,30,0,0
51700,-133.333333333333,4,1,1,15,0,0
52141,-133.333333333333,4,1,1,30,0,0
52494,-133.333333333333,4,1,1,15,0,0
52670,-133.333333333333,4,1,1,30,0,0
53906,-133.333333333333,4,1,1,15,0,0
54082,-133.333333333333,4,1,1,30,0,0
56376,-166.666666666667,4,2,1,5,0,0
73317,-125,4,1,1,40,0,0
83817,-125,4,1,1,45,0,0
84612,-100,4,1,1,50,0,0
85053,-100,4,1,1,40,0,0
85141,-100,4,1,1,50,0,0
85670,-100,4,1,1,40,0,0
85847,-100,4,1,1,50,0,0
86465,-100,4,1,1,40,0,0
86553,-100,4,1,1,50,0,0
87082,-100,4,1,1,40,0,0
87259,-100,4,1,1,50,0,0
87876,-100,4,1,1,40,0,0
87965,-100,4,1,1,50,0,0
88582,-100,4,1,1,40,0,0
88670,-100,4,1,1,50,0,0
89288,-100,4,1,1,40,0,0
89376,-100,4,1,1,50,0,0
89994,-100,4,1,1,40,0,0
90082,-100,4,1,1,50,0,0
90700,-100,4,1,1,40,0,0
90788,-100,4,1,1,50,0,0
91406,-100,4,1,1,40,0,0
91494,-100,4,1,1,50,0,0
92112,-100,4,1,1,40,0,0
92200,-100,4,1,1,50,0,0
92817,-100,4,1,1,40,0,0
92906,-100,4,1,1,50,0,0
93082,-100,4,1,1,60,0,0
95994,-166.666666666667,4,1,1,40,0,0
96700,-166.666666666667,4,1,1,30,0,0
98817,-166.666666666667,4,1,1,40,0,0
99523,-166.666666666667,4,1,1,30,0,0
99612,-166.666666666667,4,1,1,40,0,0
100141,-100,4,1,1,70,0,0
101641,-166.666666666667,4,1,1,30,0,0
104376,-166.666666666667,4,1,1,35,0,0
108347,-166.666666666667,4,1,1,15,0,0
108700,-166.666666666667,4,1,1,40,0,0
109759,-166.666666666667,4,1,1,15,0,0
110112,-166.666666666667,4,1,1,50,0,0
111170,-166.666666666667,4,1,1,15,0,0
111523,-100,4,1,1,40,0,0
129876,-100,4,1,1,50,0,0
131288,-100,4,1,1,60,0,0
142494,-100,4,1,1,50,0,0
143288,-133.333333333333,4,1,1,40,0,0
143465,-133.333333333333,4,2,1,15,0,0

[Colours]
Combo1 : 248,211,171
Combo2 : 171,252,203
Combo3 : 175,221,254
Combo4 : 249,254,186
Combo5 : 240,80,80

[HitObjects]
112,88,2818,5,0,0:0:0
64,152,2994,1,2,0:0:0
112,216,3170,1,0,0:0:0
192,192,3347,1,2,0:0:0
192,112,3523,2,0,B|264:48|392:80,1,180,2|2,0:0|0:0,0:0:0
464,264,4229,1,0,0:0:0
416,336,4406,1,2,0:0:0
336,312,4582,1,0,0:0:0
336,232,4759,1,2,0:0:0
408,200,4935,2,0,B|384:104|248:96,1,180,2|2,0:0|0:0,0:0:0
56,200,5641,5,0,0:0:0
16,272,5817,1,2,0:0:0
72,328,5994,1,2,0:0:0
152,296,6170,1,0,0:0:0
144,216,6347,2,0,B|192:128|328:136,1,180,2|0,0:0|0:0,0:0:0
472,296,7053,2,0,B|408:216|280:248,1,180,2|2,0:0|0:0,0:0:0
16,304,7759,2,0,B|104:368|224:288,1,180,2|0,0:0|0:0,0:0:0
392,96,8465,5,0,0:0:0
464,136,8641,1,2,0:0:0
440,216,8817,1,0,0:0:0
352,224,8994,1,2,0:0:0
320,144,9170,2,0,B|248:80|112:120,1,180,2|2,0:0|0:0,0:0:0
24,272,9876,1,0,0:0:0
72,344,10053,1,2,0:0:0
152,320,10229,1,0,0:0:0
160,232,10406,1,2,0:0:0
80,200,10582,2,0,B|104:88|224:64,1,180,2|2,0:0|0:0,0:0:0
256,192,11288,12,0,12700,0:0:0
80,160,13406,6,0,B|32:112,3,45
112,144,13759,2,0,B|160:192,3,45
128,112,14112,6,0,B|192:32|320:80,1,180,4|0,0:0|0:0,0:0:0
368,112,14641,1,0,0:0:0
288,160,14817,2,0,B|240:256,1,90
320,320,15170,2,0,B|368:224,1,90
416,144,15523,2,0,B|320:200|224:136,1,180
192,80,16053,1,0,0:0:0
192,80,16229,2,0,B|288:24|384:88,1,180
464,240,16935,6,0,B|264:216,1,180
192,208,17465,1,0,0:0:0
192,208,17641,2,0,B|224:320,1,90
112,288,17994,2,0,B|80:176,1,90
64,112,18347,1,0,0:0:0
256,32,18700,1,0,0:0:0
272,112,18876,1,0,0:0:0
288,192,19053,1,0,0:0:0
448,96,19406,1,0,0:0:0
464,176,19582,1,0,0:0:0
480,256,19759,6,0,B|368:240,1,90
304,288,20112,1,0,0:0:0
304,288,20288,2,0,B|192:272,1,90
128,320,20641,1,0,0:0:0
32,304,20817,1,0,0:0:0
96,224,20994,1,0,0:0:0
0,208,21170,2,0,B|16:96|128:80,1,180
192,144,21700,1,0,0:0:0
192,144,21876,2,0,B|176:256|64:272,1,180
336,336,22582,5,0,0:0:0
416,288,22759,1,0,0:0:0
352,224,22935,1,0,0:0:0
272,272,23112,1,0,0:0:0
192,320,23288,2,0,B|80:144,1,180
208,176,23817,1,0,0:0:0
208,176,23994,2,0,B|144:80|144:80|160:0,1,180
240,16,24523,1,0,0:0:0
272,104,24700,1,0,0:0:0
464,112,25053,2,0,B|480:192|480:192|416:288,1,180,0|0,0:0|0:0,0:0:0
208,144,25935,6,0,B|216:240,1,90,2|2,0:0|0:0,0:0:0
128,192,26288,2,0,B|128:304,1,90,2|8,0:0|0:0,0:0:0
48,144,26641,2,0,B|32:256,1,90,2|2,0:0|0:0,0:0:0
128,80,26994,2,0,B|144:192,1,90,2|8,0:0|0:0,0:0:0
224,48,27347,2,0,B|224:160,1,90,2|0,0:0|0:0,0:0:0
304,80,27700,2,0,B|320:200,1,90,10|10,0:0|0:0,0:0:0
400,112,28053,2,0,B|384:240,1,90,2|2,0:0|0:0,0:0:0
240,320,28759,6,0,B|224:216,1,90,2|2,0:0|0:0,0:0:0
144,304,29112,2,0,B|144:192,1,90,2|8,0:0|0:0,0:0:0
64,272,29465,2,0,B|40:168,1,90,2|2,0:0|0:0,0:0:0
128,192,29817,2,0,B|128:80,1,90,2|8,0:0|0:0,0:0:0
224,144,30170,2,0,B|208:32,1,90,2|0,0:0|0:0,0:0:0
304,192,30523,2,0,B|320:80,1,90,10|10,0:0|0:0,0:0:0
400,160,30876,2,0,B|392:32,1,90,2|4,0:0|0:0,0:0:0
48,144,42347,6,0,B|104:88|192:96,1,135.000005149842
152,184,42876,2,0,B|80:208|40:296,2,135.000005149842
248,224,43759,2,0,B|224:80,1,135.000005149842
304,40,44288,2,0,B|344:256,1,202.500007724762
64,128,45170,6,0,B|120:88|216:88,1,135.000005149842
184,184,45700,2,0,B|120:192|48:248,2,135.000005149842
352,304,46935,2,0,B|424:328|504:280,1,135.000005149842,0|0,0:0|0:0,0:0:0
432,144,47641,2,0,B|360:120|280:168,1,135.000005149842
72,288,48523,5,0,0:0:0
72,288,48700,2,0,B|48:144,1,135.000005149842
312,152,49406,2,0,B|152:184,1,135.000005149842,0|0,0:0|0:0,0:0:0
168,280,49935,2,0,B|384:232,1,202.500007724762
496,312,50817,6,0,B|464:168,1,135.000005149842
488,80,51347,2,0,B|272:128,1,202.500007724762
80,320,52229,2,0,B|240:280,1,135.000005149842
320,312,52759,2,0,B|264:88,1,202.500007724762
64,64,53641,6,0,B|96:224,1,135.000005149842
64,304,54170,2,0,B|288:256,1,202.500007724762
192,176,54876,2,0,B|416:136,1,202.500007724762
496,296,55759,2,0,B|352:328,1,135.000005149842
256,192,56465,12,0,58582,0:0:0
256,192,59288,12,0,61406,0:0:0
256,192,62112,12,0,64229,0:0:0
256,192,64935,12,0,67053,0:0:0
256,192,67759,12,0,69876,0:0:0
256,192,70582,12,0,72700,0:0:0
88,112,73406,6,0,B|144:56|232:64,1,144,4|0,0:0|0:0,0:0:0
192,168,73935,1,0,0:0:0
192,168,74112,2,0,B|320:144|416:232,1,216
496,176,74817,2,0,B|480:336,1,144
240,312,75523,1,0,0:0:0
160,264,75700,1,0,0:0:0
80,328,75876,1,0,0:0:0
0,280,76053,1,0,0:0:0
72,208,76229,6,0,B|56:48,1,144,0|0,0:0|0:0,0:0:0
160,96,76759,1,0,0:0:0
160,96,76935,2,0,B|400:72,1,216
448,160,77641,2,0,B|272:184,1,144
56,240,78347,1,0,0:0:0
88,328,78523,1,0,0:0:0
168,272,78700,1,0,0:0:0
192,360,78876,1,0,0:0:0
272,304,79053,6,0,B|496:248,1,216
496,144,79759,2,0,B|338:180,1,144
272,120,80288,1,0,0:0:0
272,120,80465,2,0,B|120:160,1,144
80,344,81170,2,0,B|248:296,1,144
432,96,81876,6,0,B|464:184,1,72
368,208,82229,2,0,B|296:184|208:232,1,144
144,272,82759,1,0,0:0:0
64,336,82935,1,0,0:0:0
8,256,83112,1,0,0:0:0
88,192,83288,2,0,B|64:32,1,144
400,56,83994,2,0,B|424:216,1,144
144,272,84700,6,0,B|240:320|344:248,1,180,4|8,0:0|0:0,0:0:0
400,56,85406,1,0,0:0:0
112,64,85759,1,8,0:0:0
256,160,86112,2,0,B|280:376,1,180,0|8,0:0|0:0,0:0:0
88,288,86817,1,0,0:0:0
448,256,87170,1,8,0:0:0
104,88,87523,6,0,B|40:168|80:272,1,180,0|8,0:0|0:0,0:0:0
176,288,88053,1,0,0:0:0
176,288,88229,2,0,B|240:208|200:104,1,180,0|8,0:0|0:0,0:0:0
280,56,88759,1,0,0:0:0
304,160,88935,2,0,B|384:88|496:120,2,180,0|8|0,0:0|0:0|0:0,0:0:0
352,248,89817,1,0,0:0:0
352,248,89994,1,8,0:0:0
264,304,90170,1,0,0:0:0
264,304,90347,6,0,B|160:336|72:264,1,180,0|8,0:0|0:0,0:0:0
72,184,90876,1,0,0:0:0
72,184,91053,2,0,B|176:200|248:112,1,180,0|8,0:0|0:0,0:0:0
144,88,91582,1,0,0:0:0
144,88,91759,2,0,B|216:288,1,180,0|8,0:0|0:0,0:0:0
312,264,92288,1,0,0:0:0
312,264,92465,2,0,B|248:80,1,180,0|8,0:0|0:0,0:0:0
336,32,92994,1,0,0:0:0
336,32,93170,6,0,B|440:72,1,90
344,144,93523,2,0,B|248:136|184:232,1,180,8|0,0:0|0:0,0:0:0
152,312,94053,1,8,0:0:0
240,328,94229,1,8,0:0:0
328,344,94406,1,0,0:0:0
416,360,94582,6,0,B|400:264,1,90
496,248,94935,2,0,B|456:40,1,180,8|0,0:0|0:0,0:0:0
368,32,95465,1,8,0:0:0
296,96,95641,1,8,0:0:0
208,72,95817,1,0,0:0:0
128,120,95994,6,0,B|160:336,1,215.999993408203
328,336,97053,1,0,0:0:0
448,192,97406,2,0,B|224:232,1,215.999993408203
56,128,98465,1,0,0:0:0
112,56,98641,1,0,0:0:0
144,136,98817,1,0,0:0:0
344,168,99170,1,0,0:0:0
136,224,99523,1,0,0:0:0
336,256,99876,1,0,0:0:0
120,312,100229,5,0,0:0:0
344,168,100582,1,0,0:0:0
152,48,100935,1,0,0:0:0
336,256,101288,1,0,0:0:0
88,176,101641,6,0,B|112:288,1,107.999996704102,0|8,0:0|0:0,0:0:0
416,192,102347,2,0,B|392:80,1,107.999996704102,0|0,0:0|0:0,0:0:0
136,72,103053,2,0,B|248:48,1,107.999996704102,0|8,0:0|0:0,0:0:0
336,296,103759,2,0,B|224:320,1,107.999996704102
24,144,104465,6,0,B|256:96,1,215.999993408203
376,200,105523,1,0,0:0:0
376,200,105876,2,0,B|144:248,1,215.999993408203
96,360,106935,1,0,0:0:0
256,192,107288,12,0,108347,0:0:0
256,192,108700,12,0,109759,0:0:0
256,192,110112,12,0,111170,0:0:0
24,176,111523,6,0,B|128:160,1,90,0|0,0:0|0:0,0:0:0
64,272,111876,2,0,B|248:248,1,180,8|0,0:0|0:0,0:0:0
304,176,112406,1,0,0:0:0
360,80,112582,2,0,B|248:96,1,90,8|0,0:0|0:0,0:0:0
112,48,112935,2,0,B|216:32,1,90
184,144,113288,2,0,B|-16:176,1,180,8|0,0:0|0:0,0:0:0
80,256,113817,1,0,0:0:0
176,240,113994,2,0,B|192:344,1,90,8|0,0:0|0:0,0:0:0
272,216,114347,6,0,B|240:24,1,180,0|8,0:0|0:0,0:0:0
352,64,114876,1,0,0:0:0
352,64,115053,2,0,B|384:264,1,180,0|8,0:0|0:0,0:0:0
304,312,115582,1,0,0:0:0
304,312,115759,2,0,B|208:304,1,90
168,208,116112,2,0,B|264:216,1,90,8|0,0:0|0:0,0:0:0
312,128,116465,2,0,B|216:120,1,90
184,24,116817,2,0,B|280:32,1,90,8|0,0:0|0:0,0:0:0
88,88,117170,6,0,B|104:272,1,180,0|8,0:0|0:0,0:0:0
192,328,117700,1,0,0:0:0
192,328,117876,2,0,B|304:312,1,90
344,184,118229,2,0,B|368:296,1,90,8|0,0:0|0:0,0:0:0
472,288,118582,2,0,B|424:88,1,180,0|8,0:0|0:0,0:0:0
344,56,119112,1,0,0:0:0
344,56,119288,2,0,B|136:88,1,180,0|8,0:0|0:0,0:0:0
72,48,119817,1,0,0:0:0
72,48,119994,6,0,B|88:144,1,90
176,176,120347,2,0,B|200:288,1,90,8|0,0:0|0:0,0:0:0
376,240,120700,2,0,B|272:232,1,90
512,152,121053,2,0,B|400:144,1,90,8|0,0:0|0:0,0:0:0
312,16,121406,2,0,B|336:112,1,90
216,112,121759,2,0,B|248:216,1,90,8|0,0:0|0:0,0:0:0
120,200,122112,2,0,B|152:296,1,90
24,288,122465,2,0,B|56:384,1,90,8|0,0:0|0:0,0:0:0
192,352,122817,6,0,B|392:304,1,180,0|8,0:0|0:0,0:0:0
304,224,123347,1,0,0:0:0
304,224,123523,2,0,B|496:176,1,180,0|8,0:0|0:0,0:0:0
504,80,124053,1,0,0:0:0
416,16,124229,2,0,B|384:104,1,90
296,48,124582,2,0,B|104:88,1,180,8|0,0:0|0:0,0:0:0
24,56,125112,1,0,0:0:0
40,152,125288,1,8,0:0:0
56,248,125465,1,0,0:0:0
72,344,125641,6,0,B|272:304,1,180,0|8,0:0|0:0,0:0:0
176,216,126170,1,0,0:0:0
176,216,126347,2,0,B|368:184,1,180,0|8,0:0|0:0,0:0:0
288,96,126876,1,0,0:0:0
288,96,127053,2,0,B|400:80,1,90
192,48,127406,2,0,B|88:40,1,90,8|0,0:0|0:0,0:0:0
264,208,127759,2,0,B|360:224,1,90
160,160,128112,2,0,B|48:184,1,90,8|0,0:0|0:0,0:0:0
24,88,128465,6,0,B|64:288,1,180,0|8,0:0|0:0,0:0:0
152,328,128994,1,0,0:0:0
152,328,129170,2,0,B|344:288,1,180,0|8,0:0|0:0,0:0:0
368,176,129700,1,0,0:0:0
368,176,129876,2,0,B|184:216,1,180,0|8,0:0|0:0,0:0:0
136,120,130406,1,0,0:0:0
136,120,130582,2,0,B|320:80,1,180,0|8,0:0|0:0,0:0:0
400,24,131112,1,0,0:0:0
400,24,131288,6,0,B|432:128,1,90,0|2,0:0|0:0,0:0:0
352,184,131641,2,0,B|152:160,1,180,10|0,0:0|0:0,0:0:0
80,152,132170,1,10,0:0:0
16,224,132347,1,8,0:0:0
96,280,132523,1,2,0:0:0
160,208,132700,2,0,B|240:264,1,90,0|2,0:0|0:0,0:0:0
328,296,133053,2,0,B|312:96,1,180,10|0,0:0|0:0,0:0:0
312,24,133582,1,10,0:0:0
400,56,133759,1,8,0:0:0
488,88,133935,1,2,0:0:0
416,152,134112,6,0,B|400:272,1,90,2|0,0:0|0:0,0:0:0
296,264,134465,2,0,B|312:144,1,90,8|2,0:0|0:0,0:0:0
216,120,134817,2,0,B|32:152,1,180,2|8,0:0|0:0,0:0:0
16,256,135347,1,10,0:0:0
16,256,135523,2,0,B|200:224,1,180,0|8,0:0|0:0,0:0:0
280,280,136053,1,10,0:0:0
280,280,136229,2,0,B|384:256,1,90,2|10,0:0|0:0,0:0:0
456,192,136582,2,0,B|480:296,1,90,8|2,0:0|0:0,0:0:0
352,160,136935,6,0,B|152:200,1,180,2|8,0:0|0:0,0:0:0
80,144,137465,1,2,0:0:0
80,144,137641,2,0,B|56:248,1,90,0|10,0:0|0:0,0:0:0
160,248,137994,2,0,B|136:352,1,90,8|2,0:0|0:0,0:0:0
280,264,138347,2,0,B|248:168,1,90,2|2,0:0|0:0,0:0:0
368,192,138700,2,0,B|336:96,1,90,8|10,0:0|0:0,0:0:0
232,80,139053,2,0,B|128:72,1,90,2|10,0:0|0:0,0:0:0
64,176,139406,2,0,B|176:184,1,90,8|2,0:0|0:0,0:0:0
240,248,139759,5,2,0:0:0
240,248,140112,2,0,B|328:232,1,90,8|2,0:0|0:0,0:0:0
272,144,140465,2,0,B|456:112,1,180,2|8,0:0|0:0,0:0:0
504,200,140994,1,10,0:0:0
504,200,141170,2,0,B|312:240,1,180,2|10,0:0|0:0,0:0:0
240,264,141700,1,10,0:0:0
144,288,141876,1,0,0:0:0
120,192,142053,1,10,0:0:0
96,96,142229,1,10,0:0:0
192,72,142406,1,2,0:0:0
216,168,142582,6,0,B|288:144,2,60,2|2|2,0:0|0:0|0:0,0:0:0
192,240,142935,2,0,B|120:264,2,60,0|0|2,0:0|0:0|0:0,0:0:0
256,280,143288,6,0,B|376:336|376:336|464:208,1,270.000010299683,4|0,0:0|0:0,0:0:0
