osu file format v14

[General]
AudioFilename: Nightmare.mp3
AudioLeadIn: 0
PreviewTime: 6348
Countdown: 0
SampleSet: Soft
StackLeniency: 0.7
Mode: 3
LetterboxInBreaks: 1
SpecialStyle: 0
WidescreenStoryboard: 1

[Editor]
Bookmarks: 26536,46746,66957,87167,97273
DistanceSpacing: 1
BeatDivisor: 4
GridSize: 16
TimelineZoom: 2.5

[Metadata]
Title:Nightmare
TitleUnicode:Nightmare
Artist:M2U
ArtistUnicode:M2U
Creator:Takos
Version:8K SC (LV. 19)
Source:DJMAX Trilogy
Tags:Nox
BeatmapID:386567
BeatmapSetID:157970

[Difficulty]
HPDrainRate:5
CircleSize:8
OverallDifficulty:8
ApproachRate:10
SliderMultiplier:1.2
SliderTickRate:1

[Events]
//Background and Video events
0,0,"SC.jpg",0,0
//Break Periods
2,107578,117033
//Storyboard Layer 0 (Background)
//Storyboard Layer 1 (Fail)
//Storyboard Layer 2 (Pass)
//Storyboard Layer 3 (Foreground)
//Storyboard Sound Samples

[TimingPoints]
10,315.789473684211,4,2,1,70,1,0

[HitObjects]
96,192,6246,5,0,0:0:0:0:
288,192,6286,1,0,0:0:0:0:
32,192,6325,1,8,0:0:0:0:
352,192,6325,1,0,0:0:0:0:
160,192,6325,1,0,0:0:0:0:
416,192,6799,1,0,0:0:0:0:
480,192,7273,1,0,0:0:0:0:
224,192,7273,1,0,0:0:0:0:
160,192,7746,1,0,0:0:0:0:
224,192,7904,1,0,0:0:0:0:
96,192,8062,1,0,0:0:0:0:
288,192,8773,1,0,0:0:0:0:
224,192,8812,1,0,0:0:0:0:
352,192,8852,1,0,0:0:0:0:
96,192,8852,1,0,0:0:0:0:
352,192,9010,1,0,0:0:0:0:
160,192,9167,1,0,0:0:0:0:
416,192,9325,1,0,0:0:0:0:
224,192,9641,1,0,0:0:0:0:
32,192,9799,1,8,0:0:0:0:
160,192,9957,1,0,0:0:0:0:
160,192,11299,1,0,0:0:0:0:
288,192,11338,1,0,0:0:0:0:
96,192,11378,1,0,0:0:0:0:
352,192,11378,1,0,0:0:0:0:
352,192,11852,1,0,0:0:0:0:
288,192,12167,1,0,0:0:0:0:
32,192,12325,1,8,0:0:0:0:
160,192,12483,1,0,0:0:0:0:
352,192,13115,1,0,0:0:0:0:
160,192,13431,1,0,0:0:0:0:
96,192,13746,1,0,0:0:0:0:
224,192,13746,1,0,0:0:0:0:
416,192,13746,1,0,0:0:0:0:
32,192,13904,1,8,0:0:0:0:
288,192,13904,1,0,0:0:0:0:
480,192,13904,1,0,0:1:0:0:
352,192,14062,1,0,0:0:0:0:
224,192,14220,1,0,0:0:0:0:
352,192,14378,1,0,0:0:0:0:
32,192,14378,1,8,0:0:0:0:
480,192,14536,1,8,0:1:0:0:
32,192,14694,1,8,0:0:0:0:
32,192,14852,1,8,0:0:0:0:
352,192,14852,1,0,0:0:0:0:
32,192,15325,1,8,0:0:0:0:
288,192,15325,1,0,0:0:0:0:
32,192,15483,1,8,0:0:0:0:
352,192,15483,1,0,0:0:0:0:
96,192,15641,1,0,0:0:0:0:
480,192,15799,1,8,0:1:0:0:
32,192,15957,1,8,0:0:0:0:
224,192,15957,1,0,0:0:0:0:
32,192,16273,1,8,0:0:0:0:
352,192,16352,1,0,0:0:0:0:
224,192,16391,1,0,0:0:0:0:
32,192,16431,1,8,0:0:0:0:
160,192,16431,1,0,0:0:0:0:
416,192,16431,1,0,0:0:0:0:
224,192,16746,1,0,0:0:0:0:
160,192,16904,1,0,0:0:0:0:
32,192,16904,1,8,0:0:0:0:
480,192,17062,1,8,0:1:0:0:
224,192,17062,1,0,0:0:0:0:
32,192,17220,1,8,0:0:0:0:
32,192,17378,1,8,0:0:0:0:
96,192,17378,1,0,0:0:0:0:
352,192,17378,1,0,0:0:0:0:
224,192,17536,1,0,0:0:0:0:
416,192,17694,1,0,0:0:0:0:
352,192,17852,1,0,0:0:0:0:
224,192,17852,1,0,0:0:0:0:
32,192,17852,1,8,0:0:0:0:
32,192,18010,1,8,0:0:0:0:
160,192,18010,1,0,0:0:0:0:
288,192,18010,1,0,0:0:0:0:
416,192,18167,1,0,0:0:0:0:
352,192,18325,1,0,0:0:0:0:
480,192,18325,1,8,0:1:0:0:
32,192,18483,1,8,0:0:0:0:
160,192,18483,1,0,0:0:0:0:
160,192,18641,1,0,0:0:0:0:
32,192,18799,1,0,0:0:0:0:
288,192,18878,1,0,0:0:0:0:
416,192,18917,1,0,0:0:0:0:
480,192,18957,1,0,0:1:0:0:
352,192,18957,1,0,0:0:0:0:
224,192,18957,1,0,0:0:0:0:
32,192,18957,1,0,0:0:0:0:
160,192,19115,1,0,0:0:0:0:
96,192,19273,1,0,0:0:0:0:
288,192,19273,1,0,0:0:0:0:
32,192,19431,1,8,0:0:0:0:
224,192,19431,1,0,0:0:0:0:
352,192,19588,1,0,0:0:0:0:
480,192,19588,1,8,0:1:0:0:
288,192,19746,1,0,0:0:0:0:
32,192,19746,1,8,0:0:0:0:
32,192,19904,1,8,0:0:0:0:
224,192,19904,1,0,0:0:0:0:
160,192,20062,1,0,0:0:0:0:
352,192,20062,1,0,0:0:0:0:
288,192,20220,1,0,0:0:0:0:
160,192,20378,1,0,0:0:0:0:
32,192,20378,1,0,0:0:0:0:
32,192,20536,1,0,0:0:0:0:
352,192,20536,1,0,0:0:0:0:
288,192,20694,1,0,0:0:0:0:
224,192,20852,1,0,0:0:0:0:
480,192,20852,1,8,0:1:0:0:
32,192,21010,1,8,0:0:0:0:
96,192,21167,1,0,0:0:0:0:
32,192,21325,1,8,0:0:0:0:
160,192,21325,1,0,0:0:0:0:
288,192,21404,1,0,0:0:0:0:
352,192,21444,1,0,0:0:0:0:
224,192,21483,1,0,0:0:0:0:
416,192,21483,1,0,0:0:0:0:
480,192,21483,1,0,0:1:0:0:
32,192,21483,1,8,0:0:0:0:
160,192,21799,1,0,0:0:0:0:
32,192,21957,1,8,0:0:0:0:
416,192,21957,1,0,0:0:0:0:
480,192,22115,1,8,0:1:0:0:
224,192,22115,1,0,0:0:0:0:
288,192,22273,1,0,0:0:0:0:
32,192,22273,1,8,0:0:0:0:
32,192,22431,1,8,0:0:0:0:
160,192,22431,1,0,0:0:0:0:
224,192,22588,1,0,0:0:0:0:
352,192,22588,1,0,0:0:0:0:
96,192,22746,1,0,0:0:0:0:
32,192,22904,1,8,0:0:0:0:
288,192,22904,1,0,0:0:0:0:
32,192,23062,1,8,0:0:0:0:
160,192,23062,1,0,0:0:0:0:
416,192,23220,1,0,0:0:0:0:
352,192,23378,1,0,0:0:0:0:
480,192,23378,1,8,0:1:0:0:
288,192,23536,1,0,0:0:0:0:
96,192,23536,1,0,0:0:0:0:
32,192,23536,1,8,0:0:0:0:
416,192,23694,1,0,0:0:0:0:
224,192,23852,1,0,0:0:0:0:
32,192,23852,1,8,0:0:0:0:
32,192,24010,1,8,0:0:0:0:
160,192,24010,1,0,0:0:0:0:
352,192,24010,1,0,0:0:0:0:
480,192,24010,1,0,0:1:0:0:
416,192,24167,1,0,0:0:0:0:
288,192,24325,1,0,0:0:0:0:
96,192,24325,1,0,0:0:0:0:
32,192,24483,1,8,0:0:0:0:
224,192,24483,1,0,0:0:0:0:
352,192,24641,1,0,0:0:0:0:
32,192,24799,1,8,0:0:0:0:
32,192,24957,1,8,0:0:0:0:
160,192,24957,1,0,0:0:0:0:
288,192,24957,1,0,0:0:0:0:
352,192,25115,1,0,0:0:0:0:
288,192,25273,1,0,0:0:0:0:
32,192,25431,1,8,0:0:0:0:
224,192,25431,1,0,0:0:0:0:
416,192,25431,1,0,0:0:0:0:
32,192,25588,1,8,0:0:0:0:
160,192,25588,1,0,0:0:0:0:
416,192,25746,1,0,0:0:0:0:
224,192,25904,1,0,0:0:0:0:
480,192,25904,1,8,0:1:0:0:
32,192,26062,1,8,0:0:0:0:
288,192,26220,1,0,0:0:0:0:
32,192,26378,1,8,0:0:0:0:
480,192,26378,1,8,0:1:0:0:
96,192,26417,1,0,0:0:0:0:
160,192,26457,1,0,0:0:0:0:
352,192,26457,1,0,0:0:0:0:
224,192,26496,1,0,0:0:0:0:
416,192,26496,1,0,0:0:0:0:
32,192,26536,1,8,0:0:0:0:
480,192,26536,1,0,0:1:0:0:
288,192,26536,1,0,0:0:0:0:
160,192,26852,1,0,0:0:0:0:
480,192,26852,1,0,0:1:0:0:
32,192,27010,1,8,0:0:0:0:
352,192,27010,1,0,0:0:0:0:
224,192,27167,1,0,0:0:0:0:
416,192,27167,1,0,0:0:0:0:
32,192,27325,1,8,0:0:0:0:
96,192,27325,1,0,0:0:0:0:
160,192,27404,1,0,0:0:0:0:
32,192,27483,1,8,0:0:0:0:
224,192,27483,1,0,0:0:0:0:
352,192,27483,1,0,0:0:0:0:
480,192,27483,1,0,0:1:0:0:
416,192,27641,1,0,0:0:0:0:
160,192,27799,1,0,0:0:0:0:
288,192,27799,1,0,0:0:0:0:
480,192,27799,1,0,0:1:0:0:
32,192,27957,1,8,0:0:0:0:
224,192,27957,1,0,0:0:0:0:
32,192,28115,1,8,0:0:0:0:
288,192,28115,1,0,0:0:0:0:
352,192,28273,1,0,0:0:0:0:
96,192,28431,1,0,0:0:0:0:
416,192,28431,1,0,0:0:0:0:
480,192,28431,1,8,0:1:0:0:
32,192,28588,1,8,0:0:0:0:
224,192,28746,1,0,0:0:0:0:
416,192,28746,1,0,0:0:0:0:
480,192,28746,1,0,0:1:0:0:
32,192,28904,1,8,0:0:0:0:
160,192,28904,1,0,0:0:0:0:
224,192,28983,1,0,0:0:0:0:
288,192,29023,1,0,0:0:0:0:
352,192,29062,1,0,0:0:0:0:
416,192,29062,1,0,0:0:0:0:
32,192,29062,1,8,0:0:0:0:
96,192,29062,1,0,0:0:0:0:
160,192,29220,1,0,0:0:0:0:
224,192,29378,1,0,0:0:0:0:
352,192,29378,1,0,0:0:0:0:
480,192,29378,1,0,0:1:0:0:
32,192,29536,1,8,0:0:0:0:
288,192,29536,1,0,0:0:0:0:
160,192,29694,1,0,0:0:0:0:
416,192,29694,1,0,0:0:0:0:
480,192,29694,1,8,0:1:0:0:
32,192,29852,1,8,0:0:0:0:
352,192,29852,1,0,0:0:0:0:
32,192,30010,1,8,0:0:0:0:
96,192,30010,1,0,0:0:0:0:
288,192,30167,1,0,0:0:0:0:
416,192,30167,1,0,0:0:0:0:
480,192,30325,1,0,0:1:0:0:
32,192,30483,1,8,0:0:0:0:
352,192,30483,1,0,0:0:0:0:
32,192,30641,1,8,0:0:0:0:
288,192,30641,1,0,0:0:0:0:
480,192,30641,1,0,0:1:0:0:
96,192,30799,1,0,0:0:0:0:
480,192,30957,1,8,0:1:0:0:
352,192,30957,1,0,0:0:0:0:
224,192,30957,1,0,0:0:0:0:
416,192,31115,1,0,0:0:0:0:
32,192,31115,1,8,0:0:0:0:
480,192,31273,1,0,0:1:0:0:
288,192,31273,1,0,0:0:0:0:
32,192,31431,1,8,0:0:0:0:
160,192,31431,1,0,0:0:0:0:
224,192,31510,1,0,0:0:0:0:
288,192,31549,1,0,0:0:0:0:
224,192,31588,1,0,0:0:0:0:
352,192,31588,1,0,0:0:0:0:
480,192,31588,1,0,0:1:0:0:
32,192,31588,1,8,0:0:0:0:
480,192,31904,1,0,0:1:0:0:
32,192,32062,1,8,0:0:0:0:
160,192,32062,1,0,0:0:0:0:
288,192,32141,1,0,0:0:0:0:
224,192,32220,1,0,0:0:0:0:
352,192,32220,1,0,0:0:0:0:
32,192,32378,1,8,0:0:0:0:
96,192,32378,1,0,0:0:0:0:
32,192,32536,1,8,0:0:0:0:
224,192,32536,1,0,0:0:0:0:
480,192,32536,1,0,0:1:0:0:
160,192,32694,1,0,0:0:0:0:
96,192,32852,1,0,0:0:0:0:
480,192,32852,1,0,0:1:0:0:
32,192,33010,1,8,0:0:0:0:
32,192,33167,1,8,0:0:0:0:
288,192,33167,1,0,0:0:0:0:
224,192,33483,1,0,0:0:0:0:
416,192,33483,1,0,0:0:0:0:
480,192,33483,1,8,0:1:0:0:
32,192,33641,1,8,0:0:0:0:
288,192,33641,1,0,0:0:0:0:
480,192,33799,1,0,0:1:0:0:
352,192,33799,1,0,0:0:0:0:
160,192,33799,1,0,0:0:0:0:
32,192,33957,1,8,0:0:0:0:
224,192,33957,1,0,0:0:0:0:
96,192,34115,1,0,0:0:0:0:
288,192,34115,1,0,0:0:0:0:
160,192,34273,1,0,0:0:0:0:
352,192,34273,1,0,0:0:0:0:
224,192,34431,1,0,0:0:0:0:
416,192,34431,1,0,0:0:0:0:
480,192,34431,1,0,0:1:0:0:
288,192,34588,1,0,0:0:0:0:
96,192,34588,1,0,0:0:0:0:
32,192,34588,1,8,0:0:0:0:
480,192,34746,1,8,0:1:0:0:
416,192,34746,1,0,0:0:0:0:
224,192,34746,1,0,0:0:0:0:
288,192,34904,1,0,0:0:0:0:
32,192,34904,1,8,0:0:0:0:
352,192,35062,1,0,0:0:0:0:
160,192,35062,1,0,0:0:0:0:
32,192,35062,1,8,0:0:0:0:
416,192,35220,1,0,0:0:0:0:
96,192,35378,1,0,0:0:0:0:
480,192,35378,1,0,0:1:0:0:
32,192,35536,1,8,0:0:0:0:
160,192,35536,1,0,0:0:0:0:
288,192,35536,1,0,0:0:0:0:
32,192,35694,1,8,0:0:0:0:
480,192,35694,1,0,0:1:0:0:
352,192,35694,1,0,0:0:0:0:
224,192,35694,1,0,0:0:0:0:
288,192,35852,1,0,0:0:0:0:
416,192,35852,1,0,0:0:0:0:
480,192,36010,1,8,0:1:0:0:
352,192,36010,1,0,0:0:0:0:
96,192,36010,1,0,0:0:0:0:
32,192,36167,1,8,0:0:0:0:
224,192,36167,1,0,0:0:0:0:
480,192,36325,1,0,0:1:0:0:
352,192,36325,1,0,0:0:0:0:
32,192,36483,1,8,0:0:0:0:
96,192,36483,1,0,0:0:0:0:
288,192,36562,1,0,0:0:0:0:
352,192,36602,1,0,0:0:0:0:
416,192,36641,1,0,0:0:0:0:
480,192,36641,1,0,0:1:0:0:
32,192,36641,1,8,0:0:0:0:
96,192,36641,1,0,0:0:0:0:
224,192,36641,1,0,0:0:0:0:
480,192,36957,1,0,0:1:0:0:
352,192,36957,1,0,0:0:0:0:
160,192,37115,1,0,0:0:0:0:
32,192,37115,1,8,0:0:0:0:
416,192,37194,1,0,0:0:0:0:
288,192,37273,1,0,0:0:0:0:
224,192,37273,1,0,0:0:0:0:
352,192,37431,1,0,0:0:0:0:
32,192,37431,1,8,0:0:0:0:
32,192,37588,1,8,0:0:0:0:
160,192,37588,1,0,0:0:0:0:
480,192,37588,1,0,0:1:0:0:
288,192,37746,1,0,0:0:0:0:
32,192,37904,1,8,0:0:0:0:
96,192,37904,1,0,0:0:0:0:
32,192,38062,1,8,0:0:0:0:
224,192,38062,1,0,0:0:0:0:
352,192,38062,1,0,0:0:0:0:
32,192,38220,1,8,0:0:0:0:
288,192,38220,1,0,0:0:0:0:
416,192,38220,1,0,0:0:0:0:
96,192,38378,1,0,0:0:0:0:
352,192,38378,1,0,0:0:0:0:
480,192,38536,1,8,0:1:0:0:
288,192,38536,1,0,0:0:0:0:
224,192,38536,1,0,0:0:0:0:
32,192,38694,1,8,0:0:0:0:
160,192,38694,1,0,0:0:0:0:
352,192,38694,1,0,0:0:0:0:
480,192,38852,1,0,0:1:0:0:
416,192,38852,1,0,0:0:0:0:
224,192,38852,1,0,0:0:0:0:
32,192,39010,1,8,0:0:0:0:
160,192,39010,1,0,0:0:0:0:
288,192,39088,1,0,0:0:0:0:
352,192,39128,1,0,0:0:0:0:
416,192,39167,1,0,0:0:0:0:
96,192,39167,1,0,0:0:0:0:
32,192,39167,1,8,0:0:0:0:
224,192,39325,1,0,0:0:0:0:
288,192,39483,1,0,0:0:0:0:
480,192,39483,1,0,0:1:0:0:
32,192,39641,1,8,0:0:0:0:
160,192,39641,1,0,0:0:0:0:
416,192,39641,1,0,0:0:0:0:
288,192,39720,1,0,0:0:0:0:
480,192,39799,1,8,0:1:0:0:
352,192,39799,1,0,0:0:0:0:
96,192,39799,1,0,0:0:0:0:
32,192,39957,1,8,0:0:0:0:
224,192,39957,1,0,0:0:0:0:
288,192,39957,1,0,0:0:0:0:
32,192,40115,1,8,0:0:0:0:
160,192,40115,1,0,0:0:0:0:
288,192,40273,1,0,0:0:0:0:
416,192,40273,1,0,0:0:0:0:
480,192,40431,1,0,0:1:0:0:
96,192,40431,1,0,0:0:0:0:
32,192,40588,1,8,0:0:0:0:
288,192,40588,1,0,0:0:0:0:
32,192,40746,1,8,0:0:0:0:
160,192,40746,1,0,0:0:0:0:
480,192,40746,1,0,0:1:0:0:
352,192,40904,1,0,0:0:0:0:
416,192,41062,1,0,0:0:0:0:
480,192,41062,1,8,0:1:0:0:
224,192,41062,1,0,0:0:0:0:
288,192,41220,1,0,0:0:0:0:
32,192,41220,1,8,0:0:0:0:
160,192,41378,1,0,0:0:0:0:
480,192,41378,1,0,0:1:0:0:
32,192,41536,1,8,0:0:0:0:
96,192,41536,1,0,0:0:0:0:
288,192,41615,1,0,0:0:0:0:
352,192,41654,1,0,0:0:0:0:
416,192,41694,1,0,0:0:0:0:
480,192,41694,1,0,0:1:0:0:
224,192,41694,1,0,0:0:0:0:
32,192,41694,1,8,0:0:0:0:
480,192,42010,1,0,0:1:0:0:
288,192,42010,1,0,0:0:0:0:
352,192,42167,1,0,0:0:0:0:
32,192,42167,1,8,0:0:0:0:
96,192,42167,1,0,0:0:0:0:
160,192,42325,1,0,0:0:0:0:
288,192,42325,1,0,0:0:0:0:
32,192,42483,1,8,0:0:0:0:
416,192,42483,1,0,0:0:0:0:
96,192,42562,1,0,0:0:0:0:
32,192,42641,1,8,0:0:0:0:
224,192,42641,1,0,0:0:0:0:
480,192,42641,1,0,0:1:0:0:
160,192,42799,1,0,0:0:0:0:
288,192,42799,1,0,0:0:0:0:
96,192,42957,1,0,0:0:0:0:
288,192,42957,1,0,0:0:0:0:
480,192,42957,1,0,0:1:0:0:
32,192,43115,1,8,0:0:0:0:
160,192,43115,1,0,0:0:0:0:
352,192,43115,1,0,0:0:0:0:
32,192,43273,1,8,0:0:0:0:
96,192,43273,1,0,0:0:0:0:
288,192,43273,1,0,0:0:0:0:
416,192,43431,1,0,0:0:0:0:
480,192,43588,1,8,0:1:0:0:
352,192,43588,1,0,0:0:0:0:
224,192,43588,1,0,0:0:0:0:
288,192,43746,1,0,0:0:0:0:
160,192,43746,1,0,0:0:0:0:
32,192,43746,1,8,0:0:0:0:
480,192,43904,1,0,0:1:0:0:
224,192,43904,1,0,0:0:0:0:
32,192,44062,1,8,0:0:0:0:
96,192,44062,1,0,0:0:0:0:
32,192,44220,1,8,0:0:0:0:
224,192,44220,1,0,0:0:0:0:
352,192,44220,1,0,0:0:0:0:
224,192,44378,1,0,0:0:0:0:
96,192,44378,1,0,0:0:0:0:
480,192,44536,1,0,0:1:0:0:
160,192,44536,1,0,0:0:0:0:
288,192,44536,1,0,0:0:0:0:
32,192,44694,1,8,0:0:0:0:
224,192,44694,1,0,0:0:0:0:
352,192,44694,1,0,0:0:0:0:
160,192,44852,1,0,0:0:0:0:
288,192,44852,1,0,0:0:0:0:
480,192,44852,1,8,0:1:0:0:
32,192,45010,1,8,0:0:0:0:
96,192,45010,1,0,0:0:0:0:
32,192,45167,1,8,0:0:0:0:
160,192,45167,1,0,0:0:0:0:
288,192,45167,1,0,0:0:0:0:
224,192,45325,1,0,0:0:0:0:
352,192,45325,1,0,0:0:0:0:
480,192,45483,1,0,0:1:0:0:
224,192,45483,1,0,0:0:0:0:
96,192,45483,1,0,0:0:0:0:
32,192,45641,1,8,0:0:0:0:
160,192,45641,1,0,0:0:0:0:
288,192,45641,1,0,0:0:0:0:
32,192,45799,1,8,0:0:0:0:
480,192,45799,1,0,0:1:0:0:
352,192,45799,1,0,0:0:0:0:
224,192,45799,1,0,0:0:0:0:
416,192,45957,1,0,0:0:0:0:
288,192,45957,1,0,0:0:0:0:
480,192,46115,1,8,0:1:0:0:
288,192,46115,1,0,0:0:0:0:
160,192,46115,1,0,0:0:0:0:
32,192,46273,1,8,0:0:0:0:
224,192,46273,1,0,0:0:0:0:
480,192,46431,1,0,0:1:0:0:
416,192,46431,1,0,0:0:0:0:
288,192,46431,1,0,0:0:0:0:
352,192,46588,1,0,0:0:0:0:
224,192,46588,1,0,0:0:0:0:
32,192,46588,1,8,0:0:0:0:
96,192,46746,1,0,0:0:0:0:
32,192,46746,1,8,0:0:0:0:
32,192,46904,1,8,0:0:0:0:
288,192,46904,1,0,0:0:0:0:
160,192,47062,1,0,0:0:0:0:
480,192,47062,1,8,0:1:0:0:
96,192,47220,1,2,0:3:0:0:
288,192,47299,1,2,0:3:0:0:
160,192,47378,1,2,0:3:0:0:
352,192,47457,1,2,0:3:0:0:
32,192,47536,1,8,0:0:0:0:
96,192,47536,1,0,0:0:0:0:
224,192,47694,1,2,0:3:0:0:
480,192,47694,1,0,0:0:0:0:
160,192,47852,1,2,0:3:0:0:
352,192,47931,1,2,0:3:0:0:
32,192,48010,1,8,0:0:0:0:
96,192,48010,1,2,0:3:0:0:
96,192,48167,1,2,0:3:0:0:
352,192,48325,1,2,0:3:0:0:
480,192,48325,1,8,0:1:0:0:
288,192,48483,1,2,0:3:0:0:
32,192,48483,1,8,0:0:0:0:
160,192,48641,1,2,0:3:0:0:
288,192,48720,1,2,0:3:0:0:
352,192,48799,1,2,0:3:0:0:
480,192,48799,1,8,0:1:0:0:
96,192,48957,1,2,0:3:0:0:
224,192,49036,1,2,0:3:0:0:
96,192,49115,1,2,0:3:0:0:
224,192,49194,1,2,0:3:0:0:
32,192,49273,1,8,0:0:0:0:
96,192,49273,1,2,0:3:0:0:
32,192,49431,1,8,0:0:0:0:
288,192,49431,1,2,0:3:0:0:
416,192,49588,1,2,0:3:0:0:
480,192,49588,1,8,0:1:0:0:
32,192,49746,1,8,0:0:0:0:
96,192,49746,1,2,0:3:0:0:
224,192,49825,1,2,0:3:0:0:
416,192,49904,1,2,0:3:0:0:
480,192,49904,1,8,0:1:0:0:
32,192,50062,1,8,0:0:0:0:
160,192,50062,1,2,0:3:0:0:
288,192,50141,1,2,0:3:0:0:
32,192,50220,1,8,0:0:0:0:
96,192,50220,1,2,0:3:0:0:
352,192,50378,1,2,0:3:0:0:
480,192,50378,1,8,0:1:0:0:
32,192,50536,1,8,0:0:0:0:
96,192,50536,1,2,0:3:0:0:
96,192,50694,1,2,0:3:0:0:
224,192,50852,1,2,0:3:0:0:
480,192,50852,1,8,0:1:0:0:
32,192,51010,1,8,0:0:0:0:
96,192,51010,1,2,0:3:0:0:
288,192,51167,1,2,0:3:0:0:
96,192,51246,1,2,0:3:0:0:
224,192,51325,1,2,0:3:0:0:
480,192,51325,1,8,0:1:0:0:
288,192,51483,1,2,0:3:0:0:
32,192,51483,1,8,0:0:0:0:
224,192,51562,1,2,0:3:0:0:
288,192,51641,1,2,0:3:0:0:
224,192,51720,1,2,0:3:0:0:
32,192,51799,1,8,0:0:0:0:
96,192,51799,1,2,0:3:0:0:
32,192,51957,1,8,0:0:0:0:
352,192,51957,1,2,0:3:0:0:
160,192,52115,1,2,0:3:0:0:
480,192,52115,1,8,0:1:0:0:
96,192,52273,1,2,0:3:0:0:
416,192,52352,1,2,0:3:0:0:
160,192,52431,1,2,0:3:0:0:
288,192,52510,1,2,0:3:0:0:
96,192,52588,1,2,0:3:0:0:
32,192,52588,1,8,0:0:0:0:
224,192,52746,1,2,0:3:0:0:
480,192,52746,1,8,0:1:0:0:
160,192,52904,1,2,0:3:0:0:
352,192,52983,1,2,0:3:0:0:
32,192,53062,1,8,0:0:0:0:
96,192,53062,1,2,0:3:0:0:
224,192,53220,1,2,0:3:0:0:
416,192,53378,1,2,0:3:0:0:
480,192,53378,1,8,0:1:0:0:
32,192,53536,1,8,0:0:0:0:
224,192,53536,1,2,0:3:0:0:
160,192,53694,1,2,0:3:0:0:
224,192,53773,1,2,0:3:0:0:
96,192,53852,1,2,0:3:0:0:
480,192,53852,1,8,0:1:0:0:
288,192,54010,1,2,0:3:0:0:
160,192,54088,1,2,0:3:0:0:
288,192,54167,1,2,0:3:0:0:
160,192,54246,1,2,0:3:0:0:
32,192,54325,1,8,0:0:0:0:
352,192,54325,1,2,0:3:0:0:
32,192,54483,1,8,0:0:0:0:
352,192,54483,1,2,0:3:0:0:
416,192,54641,1,2,0:3:0:0:
480,192,54641,1,8,0:1:0:0:
32,192,54799,1,8,0:0:0:0:
160,192,54799,1,2,0:3:0:0:
352,192,54878,1,2,0:3:0:0:
288,192,54957,1,2,0:3:0:0:
160,192,55036,1,2,0:3:0:0:
32,192,55115,1,8,0:0:0:0:
352,192,55115,1,2,0:3:0:0:
96,192,55273,1,2,0:3:0:0:
288,192,55273,1,0,0:0:0:0:
160,192,55431,1,2,0:3:0:0:
480,192,55431,1,8,0:1:0:0:
32,192,55588,1,8,0:0:0:0:
96,192,55588,1,2,0:3:0:0:
160,192,55746,1,2,0:3:0:0:
480,192,55746,1,8,0:1:0:0:
224,192,55904,1,2,0:3:0:0:
480,192,55904,1,8,0:1:0:0:
32,192,56062,1,8,0:0:0:0:
96,192,56062,1,2,0:3:0:0:
288,192,56141,1,2,0:3:0:0:
96,192,56220,1,2,0:3:0:0:
480,192,56220,1,8,0:1:0:0:
480,192,56378,1,8,0:1:0:0:
352,192,56378,1,2,0:3:0:0:
32,192,56536,1,8,0:0:0:0:
224,192,56536,1,2,0:3:0:0:
224,192,56615,1,2,0:3:0:0:
352,192,56694,1,2,0:3:0:0:
480,192,56694,1,8,0:1:0:0:
32,192,56852,1,8,0:0:0:0:
96,192,56852,1,2,0:3:0:0:
32,192,57010,1,8,0:0:0:0:
352,192,57010,1,2,0:3:0:0:
160,192,57167,1,2,0:3:0:0:
480,192,57167,1,8,0:1:0:0:
96,192,57325,1,2,0:3:0:0:
288,192,57404,1,2,0:3:0:0:
160,192,57483,1,2,0:3:0:0:
416,192,57562,1,2,0:3:0:0:
32,192,57641,1,8,0:0:0:0:
96,192,57641,1,2,0:3:0:0:
480,192,57799,1,8,0:1:0:0:
224,192,57799,1,2,0:3:0:0:
160,192,57957,1,2,0:3:0:0:
352,192,58036,1,2,0:3:0:0:
224,192,58115,1,2,0:3:0:0:
32,192,58115,1,8,0:0:0:0:
224,192,58273,1,2,0:3:0:0:
352,192,58431,1,2,0:3:0:0:
480,192,58431,1,8,0:1:0:0:
288,192,58588,1,2,0:3:0:0:
32,192,58588,1,8,0:0:0:0:
160,192,58746,1,2,0:3:0:0:
416,192,58825,1,2,0:3:0:0:
96,192,58904,1,2,0:3:0:0:
480,192,58904,1,8,0:1:0:0:
288,192,59062,1,2,0:3:0:0:
160,192,59141,1,2,0:3:0:0:
288,192,59220,1,2,0:3:0:0:
160,192,59299,1,2,0:3:0:0:
32,192,59378,1,8,0:0:0:0:
96,192,59378,1,2,0:3:0:0:
32,192,59536,1,8,0:0:0:0:
96,192,59536,1,2,0:3:0:0:
480,192,59694,1,8,0:1:0:0:
352,192,59694,1,2,0:3:0:0:
32,192,59852,1,8,0:0:0:0:
160,192,59852,1,2,0:3:0:0:
224,192,59931,1,2,0:3:0:0:
288,192,60010,1,2,0:3:0:0:
480,192,60010,1,8,0:1:0:0:
32,192,60167,1,8,0:0:0:0:
160,192,60167,1,2,0:3:0:0:
416,192,60246,1,2,0:3:0:0:
32,192,60325,1,8,0:0:0:0:
96,192,60325,1,2,0:3:0:0:
352,192,60483,1,2,0:3:0:0:
480,192,60483,1,8,0:1:0:0:
32,192,60641,1,8,0:0:0:0:
96,192,60641,1,2,0:3:0:0:
96,192,60799,1,2,0:3:0:0:
352,192,60957,1,2,0:3:0:0:
480,192,60957,1,8,0:1:0:0:
32,192,61115,1,8,0:0:0:0:
96,192,61115,1,2,0:3:0:0:
288,192,61273,1,2,0:3:0:0:
96,192,61352,1,2,0:3:0:0:
416,192,61431,1,2,0:3:0:0:
480,192,61431,1,8,0:1:0:0:
160,192,61588,1,2,0:3:0:0:
32,192,61588,1,8,0:0:0:0:
352,192,61667,1,2,0:3:0:0:
160,192,61746,1,2,0:3:0:0:
352,192,61825,1,2,0:3:0:0:
32,192,61904,1,8,0:0:0:0:
96,192,61904,1,2,0:3:0:0:
32,192,62062,1,8,0:0:0:0:
288,192,62062,1,2,0:3:0:0:
480,192,62220,1,8,0:1:0:0:
160,192,62220,1,2,0:3:0:0:
96,192,62378,1,2,0:3:0:0:
352,192,62457,1,2,0:3:0:0:
224,192,62536,1,2,0:3:0:0:
416,192,62615,1,2,0:3:0:0:
32,192,62694,1,8,0:0:0:0:
96,192,62694,1,2,0:3:0:0:
160,192,62852,1,2,0:3:0:0:
480,192,62852,1,8,0:1:0:0:
416,192,63010,1,2,0:3:0:0:
288,192,63088,1,2,0:3:0:0:
32,192,63167,1,8,0:0:0:0:
96,192,63167,1,2,0:3:0:0:
96,192,63325,1,2,0:3:0:0:
352,192,63483,1,2,0:3:0:0:
480,192,63483,1,8,0:1:0:0:
32,192,63641,1,8,0:0:0:0:
288,192,63641,1,2,0:3:0:0:
160,192,63799,1,2,0:3:0:0:
352,192,63878,1,2,0:3:0:0:
480,192,63957,1,8,0:1:0:0:
96,192,63957,1,2,0:3:0:0:
416,192,64115,1,2,0:3:0:0:
224,192,64194,1,2,0:3:0:0:
352,192,64273,1,2,0:3:0:0:
160,192,64352,1,2,0:3:0:0:
288,192,64431,1,2,0:3:0:0:
32,192,64431,1,8,0:0:0:0:
32,192,64588,1,8,0:0:0:0:
288,192,64588,1,2,0:3:0:0:
352,192,64746,1,2,0:3:0:0:
480,192,64746,1,8,0:1:0:0:
32,192,64904,1,8,0:0:0:0:
160,192,64904,1,2,0:3:0:0:
416,192,64983,1,2,0:3:0:0:
288,192,65062,1,2,0:3:0:0:
160,192,65141,1,2,0:3:0:0:
32,192,65220,1,8,0:0:0:0:
352,192,65220,1,2,0:3:0:0:
96,192,65378,1,2,0:3:0:0:
288,192,65378,1,0,0:0:0:0:
160,192,65536,1,2,0:3:0:0:
480,192,65536,1,8,0:1:0:0:
32,192,65694,1,8,0:0:0:0:
96,192,65694,1,2,0:3:0:0:
160,192,65852,1,2,0:3:0:0:
288,192,65852,1,2,0:3:0:0:
224,192,66010,1,2,0:3:0:0:
352,192,66010,1,2,0:3:0:0:
32,192,66167,1,8,0:0:0:0:
160,192,66167,1,2,0:3:0:0:
352,192,66246,1,2,0:3:0:0:
32,192,66325,1,8,0:0:0:0:
480,192,66325,1,8,0:1:0:0:
32,192,66404,1,8,0:0:0:0:
480,192,66404,1,8,0:1:0:0:
32,192,66483,1,8,0:0:0:0:
480,192,66483,1,8,0:1:0:0:
32,192,66641,1,8,0:0:0:0:
160,192,66641,1,0,0:0:0:0:
288,192,66720,1,0,0:0:0:0:
96,192,66799,1,0,0:0:0:0:
480,192,66799,1,8,0:1:0:0:
32,192,66957,1,8,0:0:0:0:
160,192,66957,1,2,0:3:0:0:
288,192,66957,1,0,0:0:0:0:
352,192,67115,1,0,0:0:0:0:
160,192,67273,1,0,0:0:0:0:
416,192,67273,1,0,0:0:0:0:
288,192,67431,1,0,0:0:0:0:
352,192,67588,1,0,0:0:0:0:
480,192,67588,1,8,0:1:0:0:
160,192,67588,1,0,0:0:0:0:
416,192,67746,1,0,0:0:0:0:
32,192,67904,1,8,0:0:0:0:
160,192,67904,1,0,0:0:0:0:
288,192,67904,1,0,0:0:0:0:
160,192,68062,1,0,0:0:0:0:
352,192,68062,1,0,0:0:0:0:
160,192,68220,1,0,0:0:0:0:
416,192,68220,1,0,0:0:0:0:
160,192,68378,1,0,0:0:0:0:
288,192,68378,1,0,0:0:0:0:
160,192,68536,1,0,0:0:0:0:
352,192,68536,1,0,0:0:0:0:
416,192,68694,1,0,0:0:0:0:
480,192,68852,1,8,0:1:0:0:
288,192,68852,1,0,0:0:0:0:
160,192,68852,1,0,0:0:0:0:
160,192,69010,1,0,0:0:0:0:
352,192,69010,1,0,0:0:0:0:
416,192,69167,1,0,0:0:0:0:
160,192,69167,1,0,0:0:0:0:
352,192,69325,1,0,0:0:0:0:
32,192,69483,1,8,0:0:0:0:
96,192,69483,1,0,0:0:0:0:
288,192,69483,1,0,0:0:0:0:
352,192,69641,1,0,0:0:0:0:
416,192,69799,1,0,0:0:0:0:
96,192,69799,1,0,0:0:0:0:
288,192,69957,1,0,0:0:0:0:
352,192,70115,1,0,0:0:0:0:
480,192,70115,1,8,0:1:0:0:
96,192,70115,1,0,0:0:0:0:
416,192,70273,1,0,0:0:0:0:
32,192,70431,1,8,0:0:0:0:
96,192,70431,1,0,0:0:0:0:
288,192,70431,1,0,0:0:0:0:
96,192,70588,1,0,0:0:0:0:
352,192,70588,1,0,0:0:0:0:
96,192,70746,1,0,0:0:0:0:
416,192,70746,1,0,0:0:0:0:
96,192,70904,1,0,0:0:0:0:
352,192,70904,1,0,0:0:0:0:
96,192,71062,1,0,0:0:0:0:
416,192,71062,1,0,0:0:0:0:
352,192,71220,1,0,0:0:0:0:
96,192,71378,1,0,0:0:0:0:
288,192,71378,1,0,0:0:0:0:
480,192,71378,1,8,0:1:0:0:
352,192,71536,1,0,0:0:0:0:
416,192,71694,1,0,0:0:0:0:
96,192,71694,1,0,0:0:0:0:
96,192,71852,1,0,0:0:0:0:
352,192,71852,1,0,0:0:0:0:
288,192,72010,1,0,0:0:0:0:
224,192,72010,1,0,0:0:0:0:
32,192,72010,1,8,0:0:0:0:
352,192,72167,1,0,0:0:0:0:
224,192,72325,1,0,0:0:0:0:
416,192,72325,1,0,0:0:0:0:
288,192,72483,1,0,0:0:0:0:
480,192,72641,1,8,0:1:0:0:
352,192,72641,1,0,0:0:0:0:
224,192,72641,1,0,0:0:0:0:
416,192,72799,1,0,0:0:0:0:
224,192,72957,1,0,0:0:0:0:
288,192,72957,1,0,0:0:0:0:
32,192,72957,1,8,0:0:0:0:
224,192,73115,1,0,0:0:0:0:
352,192,73115,1,0,0:0:0:0:
224,192,73273,1,0,0:0:0:0:
416,192,73273,1,0,0:0:0:0:
224,192,73431,1,0,0:0:0:0:
288,192,73431,1,0,0:0:0:0:
224,192,73588,1,0,0:0:0:0:
352,192,73588,1,0,0:0:0:0:
288,192,73746,1,0,0:0:0:0:
480,192,73904,1,8,0:1:0:0:
416,192,73904,1,0,0:0:0:0:
224,192,73904,1,0,0:0:0:0:
224,192,74062,1,0,0:0:0:0:
352,192,74062,1,0,0:0:0:0:
224,192,74220,1,0,0:0:0:0:
288,192,74220,1,0,0:0:0:0:
352,192,74378,1,0,0:0:0:0:
416,192,74536,1,0,0:0:0:0:
160,192,74536,1,0,0:0:0:0:
32,192,74536,1,8,0:0:0:0:
288,192,74694,1,0,0:0:0:0:
160,192,74852,1,0,0:0:0:0:
352,192,74852,1,0,0:0:0:0:
416,192,75010,1,0,0:0:0:0:
480,192,75167,1,8,0:1:0:0:
352,192,75167,1,0,0:0:0:0:
160,192,75167,1,0,0:0:0:0:
288,192,75325,1,0,0:0:0:0:
32,192,75483,1,8,0:0:0:0:
160,192,75483,1,0,0:0:0:0:
416,192,75483,1,0,0:0:0:0:
160,192,75641,1,0,0:0:0:0:
288,192,75641,1,0,0:0:0:0:
160,192,75799,1,0,0:0:0:0:
416,192,75799,1,0,0:0:0:0:
160,192,75957,1,0,0:0:0:0:
352,192,75957,1,0,0:0:0:0:
160,192,76115,1,0,0:0:0:0:
288,192,76115,1,0,0:0:0:0:
416,192,76273,1,0,0:0:0:0:
480,192,76431,1,8,0:1:0:0:
352,192,76431,1,0,0:0:0:0:
160,192,76431,1,0,0:0:0:0:
288,192,76588,1,0,0:0:0:0:
416,192,76746,1,0,0:0:0:0:
224,192,76746,1,0,0:0:0:0:
288,192,76904,1,0,0:0:0:0:
224,192,76904,1,0,0:0:0:0:
32,192,76904,1,8,0:0:0:0:
32,192,77062,1,8,0:0:0:0:
160,192,77062,1,0,0:0:0:0:
224,192,77062,1,0,0:0:0:0:
352,192,77220,1,0,0:0:0:0:
224,192,77378,1,0,0:0:0:0:
416,192,77378,1,0,0:0:0:0:
32,192,77536,1,8,0:0:0:0:
160,192,77536,1,0,0:0:0:0:
96,192,77694,1,0,0:0:0:0:
352,192,77694,1,0,0:0:0:0:
480,192,77694,1,8,0:1:0:0:
32,192,77852,1,8,0:0:0:0:
416,192,77852,1,0,0:0:0:0:
32,192,78010,1,8,0:0:0:0:
96,192,78010,1,0,0:0:0:0:
224,192,78010,1,0,0:0:0:0:
160,192,78167,1,0,0:0:0:0:
352,192,78167,1,0,0:0:0:0:
224,192,78325,1,0,0:0:0:0:
416,192,78325,1,0,0:0:0:0:
416,192,78483,1,0,0:0:0:0:
224,192,78483,1,0,0:0:0:0:
32,192,78483,1,8,0:0:0:0:
32,192,78641,1,8,0:0:0:0:
160,192,78641,1,0,0:0:0:0:
352,192,78641,1,0,0:0:0:0:
416,192,78799,1,0,0:0:0:0:
480,192,78957,1,8,0:1:0:0:
288,192,78957,1,0,0:0:0:0:
160,192,78957,1,0,0:0:0:0:
416,192,79115,1,0,0:0:0:0:
288,192,79115,1,0,0:0:0:0:
32,192,79115,1,8,0:0:0:0:
416,192,79273,1,0,0:0:0:0:
96,192,79273,1,0,0:0:0:0:
32,192,79431,1,8,0:0:0:0:
224,192,79431,1,0,0:0:0:0:
32,192,79588,1,8,0:0:0:0:
160,192,79588,1,0,0:0:0:0:
352,192,79588,1,0,0:0:0:0:
224,192,79746,1,0,0:0:0:0:
288,192,79904,1,0,0:0:0:0:
416,192,79904,1,0,0:0:0:0:
32,192,80062,1,8,0:0:0:0:
160,192,80062,1,0,0:0:0:0:
480,192,80220,1,8,0:1:0:0:
352,192,80220,1,0,0:0:0:0:
224,192,80220,1,0,0:0:0:0:
416,192,80378,1,0,0:0:0:0:
32,192,80378,1,8,0:0:0:0:
32,192,80536,1,8,0:0:0:0:
160,192,80536,1,0,0:0:0:0:
352,192,80536,1,0,0:0:0:0:
416,192,80694,1,0,0:0:0:0:
288,192,80694,1,0,0:0:0:0:
352,192,80852,1,0,0:0:0:0:
96,192,80852,1,0,0:0:0:0:
288,192,81010,1,0,0:0:0:0:
224,192,81010,1,0,0:0:0:0:
32,192,81010,1,8,0:0:0:0:
32,192,81167,1,8,0:0:0:0:
288,192,81167,1,0,0:0:0:0:
352,192,81167,1,0,0:0:0:0:
352,192,81325,1,0,0:0:0:0:
480,192,81483,1,8,0:1:0:0:
288,192,81483,1,0,0:0:0:0:
96,192,81483,1,0,0:0:0:0:
416,192,81641,1,0,0:0:0:0:
32,192,81641,1,8,0:0:0:0:
352,192,81799,1,0,0:0:0:0:
224,192,81799,1,0,0:0:0:0:
352,192,81957,1,0,0:0:0:0:
224,192,81957,1,0,0:0:0:0:
32,192,81957,1,8,0:0:0:0:
32,192,82115,1,8,0:0:0:0:
160,192,82115,1,0,0:0:0:0:
288,192,82115,1,0,0:0:0:0:
352,192,82273,1,0,0:0:0:0:
416,192,82431,1,0,0:0:0:0:
288,192,82431,1,0,0:0:0:0:
224,192,82588,1,0,0:0:0:0:
32,192,82588,1,8,0:0:0:0:
224,192,82746,1,0,0:0:0:0:
352,192,82746,1,0,0:0:0:0:
480,192,82746,1,8,0:1:0:0:
416,192,82904,1,0,0:0:0:0:
32,192,82904,1,8,0:0:0:0:
32,192,83062,1,8,0:0:0:0:
160,192,83062,1,0,0:0:0:0:
288,192,83062,1,0,0:0:0:0:
96,192,83220,1,0,0:0:0:0:
352,192,83220,1,0,0:0:0:0:
288,192,83378,1,0,0:0:0:0:
416,192,83378,1,0,0:0:0:0:
352,192,83536,1,0,0:0:0:0:
224,192,83536,1,0,0:0:0:0:
32,192,83536,1,8,0:0:0:0:
32,192,83694,1,8,0:0:0:0:
96,192,83694,1,0,0:0:0:0:
352,192,83694,1,0,0:0:0:0:
416,192,83852,1,0,0:0:0:0:
224,192,84010,1,0,0:0:0:0:
352,192,84010,1,0,0:0:0:0:
480,192,84010,1,8,0:1:0:0:
416,192,84167,1,0,0:0:0:0:
288,192,84167,1,0,0:0:0:0:
32,192,84167,1,8,0:0:0:0:
352,192,84325,1,0,0:0:0:0:
224,192,84325,1,0,0:0:0:0:
32,192,84483,1,8,0:0:0:0:
160,192,84483,1,0,0:0:0:0:
32,192,84641,1,8,0:0:0:0:
288,192,84641,1,0,0:0:0:0:
416,192,84641,1,0,0:0:0:0:
224,192,84799,1,0,0:0:0:0:
288,192,84957,1,0,0:0:0:0:
160,192,84957,1,0,0:0:0:0:
352,192,85115,1,0,0:0:0:0:
32,192,85115,1,8,0:0:0:0:
480,192,85273,1,8,0:1:0:0:
224,192,85273,1,0,0:0:0:0:
96,192,85273,1,0,0:0:0:0:
288,192,85431,1,0,0:0:0:0:
32,192,85431,1,8,0:0:0:0:
32,192,85588,1,8,0:0:0:0:
224,192,85588,1,0,0:0:0:0:
416,192,85588,1,0,0:0:0:0:
160,192,85746,1,0,0:0:0:0:
288,192,85746,1,0,0:0:0:0:
224,192,85904,1,0,0:0:0:0:
416,192,85904,1,0,0:0:0:0:
32,192,86062,1,8,0:0:0:0:
160,192,86062,1,0,0:0:0:0:
288,192,86062,1,0,0:0:0:0:
32,192,86220,1,8,0:0:0:0:
224,192,86220,1,0,0:0:0:0:
352,192,86220,1,0,0:0:0:0:
416,192,86378,1,0,0:0:0:0:
480,192,86536,1,8,0:1:0:0:
288,192,86536,1,0,0:0:0:0:
96,192,86536,1,0,0:0:0:0:
32,192,86694,1,8,0:0:0:0:
352,192,86694,1,0,0:0:0:0:
352,192,86852,1,0,0:0:0:0:
224,192,86852,1,0,0:0:0:0:
352,192,87010,1,0,0:0:0:0:
96,192,87010,1,0,0:0:0:0:
32,192,87010,1,8,0:0:0:0:
160,192,87049,1,0,0:0:0:0:
224,192,87088,1,0,0:0:0:0:
288,192,87128,1,0,0:0:0:0:
352,192,87167,1,0,0:0:0:0:
416,192,87167,1,0,0:0:0:0:
480,192,87167,1,8,0:1:0:0:
32,192,87167,1,8,0:0:0:0:
224,192,87246,1,0,0:0:0:0:
32,192,87325,1,8,0:0:0:0:
352,192,87325,1,0,0:0:0:0:
160,192,87404,1,0,0:0:0:0:
288,192,87483,1,0,0:0:0:0:
96,192,87562,1,0,0:0:0:0:
288,192,87641,1,0,0:0:0:0:
480,192,87641,1,8,0:1:0:0:
96,192,87720,1,0,0:0:0:0:
352,192,87799,1,0,0:0:0:0:
160,192,87878,1,0,0:0:0:0:
32,192,87957,1,8,0:0:0:0:
288,192,87957,1,0,0:0:0:0:
96,192,88036,1,0,0:0:0:0:
352,192,88115,1,0,0:0:0:0:
480,192,88115,1,8,0:1:0:0:
224,192,88194,1,0,0:0:0:0:
416,192,88273,1,0,0:0:0:0:
160,192,88352,1,0,0:0:0:0:
32,192,88431,1,8,0:0:0:0:
96,192,88431,1,0,0:0:0:0:
288,192,88510,1,0,0:0:0:0:
160,192,88588,1,0,0:0:0:0:
480,192,88588,1,8,0:1:0:0:
352,192,88667,1,0,0:0:0:0:
224,192,88746,1,0,0:0:0:0:
352,192,88825,1,0,0:0:0:0:
32,192,88904,1,8,0:0:0:0:
160,192,88904,1,0,0:0:0:0:
416,192,88983,1,0,0:0:0:0:
96,192,89062,1,0,0:0:0:0:
480,192,89062,1,8,0:1:0:0:
288,192,89141,1,0,0:0:0:0:
160,192,89220,1,0,0:0:0:0:
288,192,89299,1,0,0:0:0:0:
480,192,89378,1,8,0:1:0:0:
352,192,89378,1,0,0:0:0:0:
224,192,89457,1,0,0:0:0:0:
352,192,89536,1,0,0:0:0:0:
416,192,89615,1,0,0:0:0:0:
480,192,89694,1,8,0:1:0:0:
96,192,89694,1,0,0:0:0:0:
32,192,89694,1,8,0:0:0:0:
288,192,89773,1,0,0:0:0:0:
96,192,89852,1,0,0:0:0:0:
32,192,89852,1,8,0:0:0:0:
352,192,89931,1,0,0:0:0:0:
288,192,90010,1,0,0:0:0:0:
160,192,90088,1,0,0:0:0:0:
352,192,90167,1,0,0:0:0:0:
480,192,90167,1,8,0:1:0:0:
32,192,90167,1,8,0:0:0:0:
416,192,90246,1,0,0:0:0:0:
96,192,90325,1,0,0:0:0:0:
288,192,90404,1,0,0:0:0:0:
32,192,90483,1,8,0:0:0:0:
96,192,90483,1,0,0:0:0:0:
352,192,90562,1,0,0:0:0:0:
32,192,90641,1,8,0:0:0:0:
160,192,90641,1,0,0:0:0:0:
480,192,90641,1,8,0:1:0:0:
288,192,90720,1,0,0:0:0:0:
224,192,90799,1,0,0:0:0:0:
352,192,90878,1,0,0:0:0:0:
416,192,90957,1,0,0:0:0:0:
32,192,90957,1,8,0:0:0:0:
224,192,91036,1,0,0:0:0:0:
352,192,91115,1,0,0:0:0:0:
480,192,91115,1,8,0:1:0:0:
160,192,91194,1,0,0:0:0:0:
224,192,91273,1,0,0:0:0:0:
288,192,91352,1,0,0:0:0:0:
160,192,91431,1,0,0:0:0:0:
32,192,91431,1,8,0:0:0:0:
352,192,91510,1,0,0:0:0:0:
480,192,91588,1,8,0:1:0:0:
96,192,91588,1,0,0:0:0:0:
288,192,91667,1,0,0:0:0:0:
160,192,91746,1,0,0:0:0:0:
352,192,91825,1,0,0:0:0:0:
480,192,91904,1,8,0:1:0:0:
224,192,91904,1,0,0:0:0:0:
32,192,91904,1,8,0:0:0:0:
96,192,91983,1,0,0:0:0:0:
288,192,92062,1,0,0:0:0:0:
160,192,92141,1,0,0:0:0:0:
32,192,92220,1,8,0:0:0:0:
416,192,92220,1,0,0:0:0:0:
480,192,92220,1,8,0:1:0:0:
224,192,92299,1,0,0:0:0:0:
32,192,92378,1,8,0:0:0:0:
352,192,92378,1,0,0:0:0:0:
160,192,92457,1,0,0:0:0:0:
288,192,92536,1,0,0:0:0:0:
96,192,92615,1,0,0:0:0:0:
480,192,92694,1,8,0:1:0:0:
288,192,92694,1,0,0:0:0:0:
160,192,92773,1,0,0:0:0:0:
352,192,92852,1,0,0:0:0:0:
96,192,92931,1,0,0:0:0:0:
32,192,93010,1,8,0:0:0:0:
288,192,93010,1,0,0:0:0:0:
160,192,93088,1,0,0:0:0:0:
480,192,93167,1,8,0:1:0:0:
352,192,93167,1,0,0:0:0:0:
224,192,93246,1,0,0:0:0:0:
288,192,93325,1,0,0:0:0:0:
160,192,93404,1,0,0:0:0:0:
288,192,93483,1,0,0:0:0:0:
32,192,93483,1,8,0:0:0:0:
96,192,93562,1,0,0:0:0:0:
480,192,93641,1,8,0:1:0:0:
288,192,93641,1,0,0:0:0:0:
160,192,93720,1,0,0:0:0:0:
352,192,93799,1,0,0:0:0:0:
160,192,93878,1,0,0:0:0:0:
224,192,93957,1,0,0:0:0:0:
32,192,93957,1,8,0:0:0:0:
416,192,94036,1,0,0:0:0:0:
96,192,94115,1,0,0:0:0:0:
480,192,94115,1,8,0:1:0:0:
288,192,94194,1,0,0:0:0:0:
160,192,94273,1,0,0:0:0:0:
352,192,94352,1,0,0:0:0:0:
480,192,94431,1,8,0:1:0:0:
96,192,94431,1,0,0:0:0:0:
160,192,94510,1,0,0:0:0:0:
288,192,94588,1,0,0:0:0:0:
352,192,94667,1,0,0:0:0:0:
416,192,94746,1,0,0:0:0:0:
480,192,94746,1,8,0:1:0:0:
32,192,94746,1,8,0:0:0:0:
352,192,94825,1,0,0:0:0:0:
32,192,94904,1,8,0:0:0:0:
224,192,94904,1,0,0:0:0:0:
160,192,94983,1,0,0:0:0:0:
352,192,95062,1,0,0:0:0:0:
288,192,95141,1,0,0:0:0:0:
32,192,95220,1,8,0:0:0:0:
160,192,95220,1,0,0:0:0:0:
480,192,95220,1,8,0:1:0:0:
96,192,95299,1,0,0:0:0:0:
224,192,95378,1,0,0:0:0:0:
160,192,95457,1,0,0:0:0:0:
32,192,95536,1,8,0:0:0:0:
288,192,95536,1,0,0:0:0:0:
224,192,95615,1,0,0:0:0:0:
480,192,95694,1,8,0:1:0:0:
352,192,95694,1,0,0:0:0:0:
160,192,95773,1,0,0:0:0:0:
352,192,95852,1,0,0:0:0:0:
416,192,95931,1,0,0:0:0:0:
32,192,96010,1,8,0:0:0:0:
96,192,96010,1,0,0:0:0:0:
160,192,96088,1,0,0:0:0:0:
288,192,96167,1,0,0:0:0:0:
480,192,96167,1,8,0:1:0:0:
224,192,96246,1,0,0:0:0:0:
352,192,96325,1,0,0:0:0:0:
416,192,96404,1,0,0:0:0:0:
32,192,96483,1,8,0:0:0:0:
160,192,96483,1,0,0:0:0:0:
352,192,96562,1,0,0:0:0:0:
96,192,96641,1,0,0:0:0:0:
480,192,96641,1,0,0:0:0:0:
288,192,96720,1,0,0:0:0:0:
160,192,96799,1,0,0:0:0:0:
352,192,96878,1,0,0:0:0:0:
32,192,96957,1,8,0:0:0:0:
480,192,96957,1,0,0:0:0:0:
224,192,96957,1,0,0:0:0:0:
352,192,97036,1,0,0:0:0:0:
160,192,97115,1,0,0:0:0:0:
288,192,97194,1,0,0:0:0:0:
32,192,97273,1,8,0:0:0:0:
224,192,97273,1,2,0:0:0:0:
416,192,97273,1,2,0:0:0:0:
480,192,97273,1,0,0:0:0:0:
32,192,97378,1,0,0:0:0:0:
224,192,97378,1,0,0:0:0:0:
416,192,97378,1,0,0:0:0:0:
480,192,97378,1,0,0:0:0:0:
32,192,97483,1,0,0:0:0:0:
224,192,97483,1,0,0:0:0:0:
416,192,97483,1,0,0:0:0:0:
480,192,97483,1,0,0:0:0:0:
32,192,97588,1,0,0:0:0:0:
160,192,97588,1,2,0:0:0:0:
352,192,97588,1,2,0:0:0:0:
480,192,97588,1,8,0:1:0:0:
32,192,97694,1,0,0:0:0:0:
352,192,97694,1,0,0:0:0:0:
480,192,97694,1,0,0:0:0:0:
160,192,97694,1,0,0:0:0:0:
480,192,97799,1,0,0:0:0:0:
160,192,97799,1,0,0:0:0:0:
32,192,97799,1,0,0:0:0:0:
352,192,97799,1,0,0:0:0:0:
32,192,97904,1,0,0:0:0:0:
160,192,97904,1,2,0:0:0:0:
288,192,97904,1,2,0:0:0:0:
480,192,97904,1,0,0:0:0:0:
32,192,98010,1,0,0:0:0:0:
288,192,98010,1,0,0:0:0:0:
480,192,98010,1,0,0:0:0:0:
160,192,98010,1,0,0:0:0:0:
480,192,98115,1,0,0:0:0:0:
160,192,98115,1,0,0:0:0:0:
32,192,98115,1,0,0:0:0:0:
288,192,98115,1,0,0:0:0:0:
32,192,98220,1,0,0:0:0:0:
96,192,98220,1,2,0:0:0:0:
288,192,98220,1,2,0:0:0:0:
480,192,98220,1,8,0:1:0:0:
32,192,98325,1,0,0:0:0:0:
288,192,98325,1,0,0:0:0:0:
480,192,98325,1,0,0:0:0:0:
96,192,98325,1,0,0:0:0:0:
480,192,98431,1,0,0:0:0:0:
96,192,98431,1,0,0:0:0:0:
32,192,98431,1,0,0:0:0:0:
288,192,98431,1,0,0:0:0:0:
32,192,98536,1,8,0:0:0:0:
160,192,98536,1,2,0:0:0:0:
352,192,98536,1,2,0:0:0:0:
480,192,98536,1,0,0:0:0:0:
32,192,98641,1,0,0:0:0:0:
352,192,98641,1,0,0:0:0:0:
480,192,98641,1,0,0:0:0:0:
160,192,98641,1,0,0:0:0:0:
480,192,98746,1,0,0:0:0:0:
160,192,98746,1,0,0:0:0:0:
32,192,98746,1,0,0:0:0:0:
352,192,98746,1,0,0:0:0:0:
32,192,98852,1,0,0:0:0:0:
224,192,98852,1,2,0:0:0:0:
288,192,98852,1,2,0:0:0:0:
480,192,98852,1,8,0:1:0:0:
32,192,98957,1,0,0:0:0:0:
224,192,98957,1,0,0:0:0:0:
480,192,98957,1,0,0:0:0:0:
288,192,98957,1,0,0:0:0:0:
480,192,99062,1,0,0:0:0:0:
288,192,99062,1,0,0:0:0:0:
32,192,99062,1,0,0:0:0:0:
224,192,99062,1,0,0:0:0:0:
96,192,99167,1,2,0:0:0:0:
160,192,99167,1,2,0:0:0:0:
480,192,99167,1,0,0:0:0:0:
480,192,99273,1,0,0:0:0:0:
288,192,99273,1,0,0:0:0:0:
224,192,99273,1,0,0:0:0:0:
480,192,99378,1,0,0:0:0:0:
224,192,99378,1,0,0:0:0:0:
160,192,99378,1,0,0:0:0:0:
480,192,99483,1,8,0:1:0:0:
416,192,99483,1,2,0:0:0:0:
352,192,99483,1,2,0:0:0:0:
480,192,99588,1,0,0:0:0:0:
352,192,99588,1,0,0:0:0:0:
288,192,99588,1,0,0:0:0:0:
480,192,99694,1,0,0:0:0:0:
288,192,99694,1,0,0:0:0:0:
224,192,99694,1,0,0:0:0:0:
480,192,99799,1,0,0:0:0:0:
160,192,99799,1,2,0:0:0:0:
96,192,99799,1,2,0:0:0:0:
32,192,99799,1,8,0:0:0:0:
160,192,99904,1,0,0:0:0:0:
32,192,99904,1,0,0:0:0:0:
96,192,99904,1,0,0:0:0:0:
480,192,99904,1,0,0:0:0:0:
96,192,100010,1,0,0:0:0:0:
480,192,100010,1,0,0:0:0:0:
160,192,100010,1,0,0:0:0:0:
32,192,100010,1,0,0:0:0:0:
32,192,100115,1,0,0:0:0:0:
224,192,100115,1,2,0:0:0:0:
288,192,100115,1,2,0:0:0:0:
480,192,100115,1,8,0:1:0:0:
32,192,100220,1,0,0:0:0:0:
224,192,100220,1,0,0:0:0:0:
480,192,100220,1,0,0:0:0:0:
288,192,100220,1,0,0:0:0:0:
480,192,100325,1,0,0:0:0:0:
288,192,100325,1,0,0:0:0:0:
32,192,100325,1,0,0:0:0:0:
224,192,100325,1,0,0:0:0:0:
32,192,100431,1,0,0:0:0:0:
352,192,100431,1,2,0:0:0:0:
416,192,100431,1,2,0:0:0:0:
480,192,100431,1,0,0:0:0:0:
32,192,100536,1,0,0:0:0:0:
416,192,100536,1,0,0:0:0:0:
480,192,100536,1,0,0:0:0:0:
352,192,100536,1,0,0:0:0:0:
480,192,100641,1,0,0:0:0:0:
352,192,100641,1,0,0:0:0:0:
32,192,100641,1,0,0:0:0:0:
416,192,100641,1,0,0:0:0:0:
32,192,100746,1,0,0:0:0:0:
224,192,100746,1,2,0:0:0:0:
288,192,100746,1,2,0:0:0:0:
480,192,100746,1,8,0:1:0:0:
32,192,100852,1,0,0:0:0:0:
288,192,100852,1,0,0:0:0:0:
480,192,100852,1,0,0:0:0:0:
224,192,100852,1,0,0:0:0:0:
480,192,100957,1,0,0:0:0:0:
224,192,100957,1,0,0:0:0:0:
32,192,100957,1,0,0:0:0:0:
288,192,100957,1,0,0:0:0:0:
32,192,101062,1,8,0:0:0:0:
160,192,101062,1,2,0:0:0:0:
352,192,101062,1,2,0:0:0:0:
480,192,101062,1,0,0:0:0:0:
32,192,101167,1,0,0:0:0:0:
352,192,101167,1,0,0:0:0:0:
480,192,101167,1,0,0:0:0:0:
160,192,101167,1,0,0:0:0:0:
480,192,101273,1,0,0:0:0:0:
160,192,101273,1,0,0:0:0:0:
32,192,101273,1,0,0:0:0:0:
352,192,101273,1,0,0:0:0:0:
32,192,101378,1,0,0:0:0:0:
96,192,101378,1,2,0:0:0:0:
288,192,101378,1,2,0:0:0:0:
480,192,101378,1,8,0:1:0:0:
32,192,101483,1,0,0:0:0:0:
96,192,101483,1,0,0:0:0:0:
480,192,101483,1,0,0:0:0:0:
288,192,101483,1,0,0:0:0:0:
480,192,101588,1,0,0:0:0:0:
288,192,101588,1,0,0:0:0:0:
32,192,101588,1,0,0:0:0:0:
96,192,101588,1,0,0:0:0:0:
480,192,101694,1,0,0:0:0:0:
288,192,101694,1,2,0:0:0:0:
224,192,101694,1,2,0:0:0:0:
480,192,101799,1,0,0:0:0:0:
224,192,101799,1,0,0:0:0:0:
160,192,101799,1,0,0:0:0:0:
480,192,101904,1,0,0:0:0:0:
160,192,101904,1,0,0:0:0:0:
96,192,101904,1,0,0:0:0:0:
480,192,102010,1,8,0:1:0:0:
224,192,102010,1,2,0:0:0:0:
160,192,102010,1,2,0:0:0:0:
480,192,102115,1,0,0:0:0:0:
288,192,102115,1,0,0:0:0:0:
224,192,102115,1,0,0:0:0:0:
480,192,102220,1,0,0:0:0:0:
352,192,102220,1,0,0:0:0:0:
288,192,102220,1,0,0:0:0:0:
480,192,102325,1,0,0:0:0:0:
416,192,102325,1,2,0:0:0:0:
352,192,102325,1,2,0:0:0:0:
32,192,102325,1,8,0:0:0:0:
32,192,102431,1,0,0:0:0:0:
352,192,102431,1,0,0:0:0:0:
416,192,102431,1,0,0:0:0:0:
480,192,102431,1,0,0:0:0:0:
32,192,102536,1,0,0:0:0:0:
352,192,102536,1,0,0:0:0:0:
416,192,102536,1,0,0:0:0:0:
480,192,102536,1,0,0:0:0:0:
480,192,102641,1,8,0:1:0:0:
352,192,102641,1,2,0:0:0:0:
224,192,102641,1,2,0:0:0:0:
32,192,102641,1,0,0:0:0:0:
32,192,102746,1,0,0:0:0:0:
224,192,102746,1,0,0:0:0:0:
352,192,102746,1,0,0:0:0:0:
480,192,102746,1,0,0:0:0:0:
32,192,102852,1,0,0:0:0:0:
224,192,102852,1,0,0:0:0:0:
352,192,102852,1,0,0:0:0:0:
480,192,102852,1,0,0:0:0:0:
32,192,102957,1,0,0:0:0:0:
160,192,102957,1,2,0:0:0:0:
288,192,102957,1,2,0:0:0:0:
480,192,102957,1,0,0:0:0:0:
32,192,103062,1,0,0:0:0:0:
160,192,103062,1,0,0:0:0:0:
288,192,103062,1,0,0:0:0:0:
480,192,103062,1,0,0:0:0:0:
32,192,103167,1,0,0:0:0:0:
160,192,103167,1,0,0:0:0:0:
288,192,103167,1,0,0:0:0:0:
480,192,103167,1,0,0:0:0:0:
32,192,103273,1,0,0:0:0:0:
96,192,103273,1,2,0:0:0:0:
160,192,103273,1,2,0:0:0:0:
480,192,103273,1,8,0:1:0:0:
32,192,103378,1,0,0:0:0:0:
96,192,103378,1,0,0:0:0:0:
160,192,103378,1,0,0:0:0:0:
480,192,103378,1,0,0:0:0:0:
32,192,103483,1,0,0:0:0:0:
96,192,103483,1,0,0:0:0:0:
160,192,103483,1,0,0:0:0:0:
480,192,103483,1,0,0:0:0:0:
32,192,103588,1,8,0:0:0:0:
224,192,103588,1,2,0:0:0:0:
416,192,103588,1,2,0:0:0:0:
480,192,103588,1,0,0:0:0:0:
480,192,103694,1,0,0:0:0:0:
416,192,103694,1,0,0:0:0:0:
224,192,103694,1,0,0:0:0:0:
32,192,103694,1,0,0:0:0:0:
32,192,103799,1,0,0:0:0:0:
224,192,103799,1,0,0:0:0:0:
416,192,103799,1,0,0:0:0:0:
480,192,103799,1,0,0:0:0:0:
32,192,103904,1,0,0:0:0:0:
160,192,103904,1,2,0:0:0:0:
352,192,103904,1,2,0:0:0:0:
480,192,103904,1,8,0:1:0:0:
32,192,104010,1,0,0:0:0:0:
160,192,104010,1,0,0:0:0:0:
352,192,104010,1,0,0:0:0:0:
480,192,104010,1,0,0:0:0:0:
32,192,104115,1,0,0:0:0:0:
160,192,104115,1,0,0:0:0:0:
352,192,104115,1,0,0:0:0:0:
480,192,104115,1,0,0:0:0:0:
480,192,104220,1,0,0:0:0:0:
96,192,104220,1,2,0:0:0:0:
224,192,104220,1,2,0:0:0:0:
480,192,104325,1,0,0:0:0:0:
160,192,104325,1,0,0:0:0:0:
288,192,104325,1,0,0:0:0:0:
480,192,104431,1,0,0:0:0:0:
224,192,104431,1,0,0:0:0:0:
96,192,104431,1,0,0:0:0:0:
480,192,104536,1,8,0:1:0:0:
416,192,104536,1,2,0:0:0:0:
352,192,104536,1,2,0:0:0:0:
480,192,104641,1,0,0:0:0:0:
352,192,104641,1,0,0:0:0:0:
288,192,104641,1,0,0:0:0:0:
480,192,104746,1,0,0:0:0:0:
288,192,104746,1,0,0:0:0:0:
224,192,104746,1,0,0:0:0:0:
480,192,104852,1,0,0:0:0:0:
160,192,104852,1,2,0:0:0:0:
96,192,104852,1,2,0:0:0:0:
32,192,104852,1,8,0:0:0:0:
32,192,104957,1,0,0:0:0:0:
96,192,104957,1,0,0:0:0:0:
160,192,104957,1,0,0:0:0:0:
480,192,104957,1,0,0:0:0:0:
32,192,105062,1,0,0:0:0:0:
96,192,105062,1,0,0:0:0:0:
160,192,105062,1,0,0:0:0:0:
480,192,105062,1,0,0:0:0:0:
32,192,105167,1,0,0:0:0:0:
160,192,105167,1,2,0:0:0:0:
288,192,105167,1,2,0:0:0:0:
480,192,105167,1,8,0:1:0:0:
32,192,105273,1,0,0:0:0:0:
160,192,105273,1,0,0:0:0:0:
288,192,105273,1,0,0:0:0:0:
480,192,105273,1,0,0:0:0:0:
32,192,105378,1,0,0:0:0:0:
160,192,105378,1,0,0:0:0:0:
480,192,105378,1,0,0:0:0:0:
288,192,105378,1,0,0:0:0:0:
32,192,105483,1,0,0:0:0:0:
224,192,105483,1,2,0:0:0:0:
352,192,105483,1,2,0:0:0:0:
480,192,105483,1,0,0:0:0:0:
480,192,105588,1,0,0:0:0:0:
352,192,105588,1,0,0:0:0:0:
224,192,105588,1,0,0:0:0:0:
32,192,105588,1,0,0:0:0:0:
32,192,105694,1,0,0:0:0:0:
224,192,105694,1,0,0:0:0:0:
352,192,105694,1,0,0:0:0:0:
480,192,105694,1,0,0:0:0:0:
32,192,105799,1,0,0:0:0:0:
352,192,105799,1,2,0:0:0:0:
416,192,105799,1,2,0:0:0:0:
480,192,105799,1,8,0:1:0:0:
32,192,105904,1,0,0:0:0:0:
352,192,105904,1,0,0:0:0:0:
416,192,105904,1,0,0:0:0:0:
480,192,105904,1,0,0:0:0:0:
32,192,106010,1,0,0:0:0:0:
352,192,106010,1,0,0:0:0:0:
416,192,106010,1,0,0:0:0:0:
480,192,106010,1,0,0:0:0:0:
32,192,106115,1,8,0:0:0:0:
96,192,106115,1,2,0:0:0:0:
416,192,106115,1,2,0:0:0:0:
480,192,106115,1,0,0:0:0:0:
32,192,106220,1,0,0:0:0:0:
96,192,106220,1,0,0:0:0:0:
416,192,106220,1,0,0:0:0:0:
480,192,106220,1,0,0:0:0:0:
32,192,106325,1,0,0:0:0:0:
96,192,106325,1,0,0:0:0:0:
416,192,106325,1,0,0:0:0:0:
480,192,106325,1,0,0:0:0:0:
32,192,106431,1,0,0:0:0:0:
160,192,106431,1,2,0:0:0:0:
352,192,106431,1,2,0:0:0:0:
480,192,106431,1,8,0:1:0:0:
32,192,106536,1,0,0:0:0:0:
160,192,106536,1,0,0:0:0:0:
352,192,106536,1,0,0:0:0:0:
480,192,106536,1,0,0:0:0:0:
32,192,106641,1,0,0:0:0:0:
160,192,106641,1,0,0:0:0:0:
352,192,106641,1,0,0:0:0:0:
480,192,106641,1,0,0:0:0:0:
480,192,106746,1,0,0:0:0:0:
416,192,106746,1,2,0:0:0:0:
288,192,106746,1,2,0:0:0:0:
480,192,106852,1,0,0:0:0:0:
352,192,106852,1,0,0:0:0:0:
224,192,106852,1,0,0:0:0:0:
480,192,106957,1,0,0:0:0:0:
288,192,106957,1,0,0:0:0:0:
160,192,106957,1,0,0:0:0:0:
480,192,107062,1,8,0:1:0:0:
224,192,107062,1,2,0:0:0:0:
96,192,107062,1,2,0:0:0:0:
480,192,107167,1,0,0:0:0:0:
352,192,107167,1,0,0:0:0:0:
224,192,107167,1,0,0:0:0:0:
480,192,107273,1,0,0:0:0:0:
416,192,107273,1,0,0:0:0:0:
288,192,107273,1,0,0:0:0:0:
480,192,107378,1,4,0:1:0:0:
352,192,107378,1,2,0:0:0:0:
32,192,107378,1,8,0:1:0:0:
32,192,117483,5,4,0:1:0:0:
