osu file format v14

[General]
AudioFilename: Nightmare.mp3
AudioLeadIn: 0
PreviewTime: 6348
Countdown: 0
SampleSet: None
StackLeniency: 0.7
Mode: 3
LetterboxInBreaks: 1
SpecialStyle: 0
WidescreenStoryboard: 1

[Editor]
Bookmarks: 26536,46746,66957,87167,97273
DistanceSpacing: 1
BeatDivisor: 4
GridSize: 16
TimelineZoom: 1.8

[Metadata]
Title:Nightmare
TitleUnicode:Nightmare
Artist:M2U
ArtistUnicode:M2U
Creator:Takos
Version:7K HD (LV. 17)
Source:DJMAX Trilogy
Tags:Nox
BeatmapID:756518
BeatmapSetID:157970

[Difficulty]
HPDrainRate:5
CircleSize:7
OverallDifficulty:8
ApproachRate:10
SliderMultiplier:1.2
SliderTickRate:1

[Events]
//Background and Video events
0,0,"SC.jpg",0,0
//Break Periods
//Storyboard Layer 0 (Background)
//Storyboard Layer 1 (Fail)
//Storyboard Layer 2 (Pass)
//Storyboard Layer 3 (Foreground)
//Storyboard Sound Samples

[TimingPoints]
10,315.789473684211,4,2,1,70,1,0

[HitObjects]
109,192,6246,5,0,0:0:0:0:
182,192,6286,1,0,0:0:0:0:
256,192,6325,1,0,0:0:0:0:
329,192,6325,1,0,0:0:0:0:
402,192,6799,1,0,0:0:0:0:
256,192,7273,1,0,0:0:0:0:
182,192,7746,1,0,0:0:0:0:
256,192,7904,1,0,0:0:0:0:
109,192,8062,1,0,0:0:0:0:
109,192,8773,1,0,0:0:0:0:
182,192,8812,1,0,0:0:0:0:
256,192,8852,1,0,0:0:0:0:
329,192,9010,1,0,0:0:0:0:
182,192,9167,1,0,0:0:0:0:
402,192,9325,1,0,0:0:0:0:
329,192,9641,1,0,0:0:0:0:
256,192,9957,1,0,0:0:0:0:
182,192,11299,1,0,0:0:0:0:
256,192,11338,1,0,0:0:0:0:
329,192,11378,1,0,0:0:0:0:
402,192,11378,1,0,0:0:0:0:
182,192,11852,1,0,0:0:0:0:
256,192,12167,1,0,0:0:0:0:
182,192,12325,1,0,0:0:0:0:
109,192,12483,1,0,0:0:0:0:
329,192,13115,1,0,0:0:0:0:
256,192,13431,1,0,0:0:0:0:
182,192,13746,1,0,0:0:0:0:
329,192,13904,1,0,0:0:0:0:
36,192,13904,1,0,0:0:0:0:
402,192,14062,1,0,0:0:0:0:
329,192,14220,1,0,0:0:0:0:
36,192,14378,1,0,0:0:0:0:
475,192,14536,1,0,0:0:0:0:
36,192,14694,1,0,0:0:0:0:
36,192,14852,1,0,0:0:0:0:
36,192,15325,1,0,0:0:0:0:
36,192,15483,1,0,0:0:0:0:
475,192,15799,1,0,0:0:0:0:
36,192,15957,1,0,0:0:0:0:
36,192,16273,1,0,0:0:0:0:
182,192,16352,1,0,0:0:0:0:
329,192,16391,1,0,0:0:0:0:
256,192,16431,1,0,0:0:0:0:
402,192,16431,1,0,0:0:0:0:
329,192,16746,1,0,0:0:0:0:
182,192,16904,1,0,0:0:0:0:
329,192,17062,1,0,0:0:0:0:
475,192,17062,1,0,0:0:0:0:
256,192,17220,1,0,0:0:0:0:
402,192,17378,1,0,0:0:0:0:
109,192,17378,1,0,0:0:0:0:
182,192,17536,1,0,0:0:0:0:
256,192,17694,1,0,0:0:0:0:
182,192,17852,1,0,0:0:0:0:
329,192,17852,1,0,0:0:0:0:
109,192,18010,1,0,0:0:0:0:
402,192,18010,1,0,0:0:0:0:
475,192,18325,1,0,0:0:0:0:
402,192,18325,1,0,0:0:0:0:
329,192,18483,1,0,0:0:0:0:
182,192,18483,1,0,0:0:0:0:
256,192,18641,1,0,0:0:0:0:
109,192,18799,1,0,0:0:0:0:
109,192,18957,1,0,0:0:0:0:
256,192,18957,1,0,0:0:0:0:
329,192,19273,1,0,0:0:0:0:
182,192,19431,1,0,0:0:0:0:
329,192,19588,1,0,0:0:0:0:
475,192,19588,1,0,0:0:0:0:
182,192,19746,1,0,0:0:0:0:
109,192,19904,1,0,0:0:0:0:
402,192,19904,1,0,0:0:0:0:
256,192,20062,1,0,0:0:0:0:
329,192,20220,1,0,0:0:0:0:
256,192,20378,1,0,0:0:0:0:
109,192,20378,1,0,0:0:0:0:
182,192,20536,1,0,0:0:0:0:
402,192,20536,1,0,0:0:0:0:
475,192,20852,1,0,0:0:0:0:
256,192,20852,1,0,0:0:0:0:
329,192,21010,1,0,0:0:0:0:
109,192,21167,1,0,0:0:0:0:
256,192,21325,1,0,0:0:0:0:
402,192,21325,1,0,0:0:0:0:
329,192,21483,1,0,0:0:0:0:
109,192,21483,1,0,0:0:0:0:
256,192,21799,1,0,0:0:0:0:
109,192,21957,1,0,0:0:0:0:
475,192,22115,1,0,0:0:0:0:
329,192,22273,1,0,0:0:0:0:
182,192,22431,1,0,0:0:0:0:
329,192,22431,1,0,0:0:0:0:
256,192,22588,1,0,0:0:0:0:
109,192,22746,1,0,0:0:0:0:
329,192,22904,1,0,0:0:0:0:
402,192,23062,1,0,0:0:0:0:
329,192,23220,1,0,0:0:0:0:
402,192,23378,1,0,0:0:0:0:
475,192,23378,1,0,0:0:0:0:
256,192,23536,1,0,0:0:0:0:
329,192,23536,1,0,0:0:0:0:
182,192,23694,1,0,0:0:0:0:
256,192,23852,1,0,0:0:0:0:
329,192,24010,1,0,0:0:0:0:
109,192,24010,1,0,0:0:0:0:
402,192,24167,1,0,0:0:0:0:
256,192,24325,1,0,0:0:0:0:
182,192,24483,1,0,0:0:0:0:
475,192,24641,1,0,0:0:0:0:
402,192,24641,1,0,0:0:0:0:
256,192,24799,1,0,0:0:0:0:
329,192,24957,1,0,0:0:0:0:
182,192,24957,1,0,0:0:0:0:
256,192,25115,1,0,0:0:0:0:
256,192,25273,1,0,0:0:0:0:
256,192,25431,1,0,0:0:0:0:
109,192,25431,1,0,0:0:0:0:
256,192,25588,1,0,0:0:0:0:
402,192,25746,1,0,0:0:0:0:
475,192,25904,1,0,0:0:0:0:
109,192,26062,1,0,0:0:0:0:
256,192,26220,1,0,0:0:0:0:
109,192,26378,1,0,0:0:0:0:
182,192,26417,1,0,0:0:0:0:
256,192,26457,1,0,0:0:0:0:
329,192,26496,1,0,0:0:0:0:
475,192,26536,1,0,0:0:0:0:
402,192,26536,1,0,0:0:0:0:
109,192,26852,1,0,0:0:0:0:
36,192,26852,1,0,0:0:0:0:
329,192,27167,1,0,0:0:0:0:
402,192,27483,1,0,0:0:0:0:
475,192,27483,1,0,0:0:0:0:
36,192,27799,1,0,0:0:0:0:
109,192,27799,1,0,0:0:0:0:
329,192,27957,1,0,0:0:0:0:
182,192,28115,1,0,0:0:0:0:
402,192,28431,1,0,0:0:0:0:
475,192,28431,1,0,0:0:0:0:
182,192,28588,1,0,0:0:0:0:
109,192,28746,1,0,0:0:0:0:
36,192,28746,1,0,0:0:0:0:
329,192,28904,1,0,0:0:0:0:
329,192,29062,1,0,0:0:0:0:
109,192,29062,1,0,0:0:0:0:
475,192,29378,1,0,0:0:0:0:
256,192,29378,1,0,0:0:0:0:
329,192,29694,1,0,0:0:0:0:
182,192,29694,1,0,0:0:0:0:
36,192,29694,1,0,0:0:0:0:
109,192,30010,1,0,0:0:0:0:
256,192,30167,1,0,0:0:0:0:
475,192,30325,1,0,0:0:0:0:
402,192,30483,1,0,0:0:0:0:
329,192,30641,1,0,0:0:0:0:
36,192,30641,1,0,0:0:0:0:
109,192,30799,1,0,0:0:0:0:
256,192,30957,1,0,0:0:0:0:
475,192,30957,1,0,0:0:0:0:
402,192,31115,1,0,0:0:0:0:
109,192,31273,1,0,0:0:0:0:
36,192,31273,1,0,0:0:0:0:
256,192,31431,1,0,0:0:0:0:
256,192,31588,1,0,0:0:0:0:
182,192,31588,1,0,0:0:0:0:
475,192,31588,1,0,0:0:0:0:
36,192,31904,1,0,0:0:0:0:
329,192,32062,1,0,0:0:0:0:
402,192,32141,1,0,0:0:0:0:
329,192,32220,1,0,0:0:0:0:
256,192,32378,1,0,0:0:0:0:
475,192,32536,1,0,0:0:0:0:
182,192,32536,1,0,0:0:0:0:
109,192,32694,1,0,0:0:0:0:
256,192,32852,1,0,0:0:0:0:
36,192,32852,1,0,0:0:0:0:
329,192,33167,1,0,0:0:0:0:
256,192,33483,1,0,0:0:0:0:
182,192,33483,1,0,0:0:0:0:
256,192,33641,1,0,0:0:0:0:
329,192,33799,1,0,0:0:0:0:
256,192,33799,1,0,0:0:0:0:
36,192,33799,1,0,0:0:0:0:
402,192,33957,1,0,0:0:0:0:
109,192,34115,1,0,0:0:0:0:
182,192,34273,1,0,0:0:0:0:
256,192,34431,1,0,0:0:0:0:
475,192,34431,1,0,0:0:0:0:
329,192,34588,1,0,0:0:0:0:
256,192,34746,1,0,0:0:0:0:
36,192,34746,1,0,0:0:0:0:
329,192,34904,1,0,0:0:0:0:
182,192,35062,1,0,0:0:0:0:
402,192,35220,1,0,0:0:0:0:
182,192,35378,1,0,0:0:0:0:
475,192,35378,1,0,0:0:0:0:
256,192,35536,1,0,0:0:0:0:
329,192,35694,1,0,0:0:0:0:
36,192,35694,1,0,0:0:0:0:
402,192,35852,1,0,0:0:0:0:
475,192,36010,1,0,0:0:0:0:
182,192,36010,1,0,0:0:0:0:
256,192,36167,1,0,0:0:0:0:
329,192,36325,1,0,0:0:0:0:
36,192,36325,1,0,0:0:0:0:
402,192,36483,1,0,0:0:0:0:
475,192,36641,1,0,0:0:0:0:
329,192,36641,1,0,0:0:0:0:
182,192,36641,1,0,0:0:0:0:
182,192,36957,1,0,0:0:0:0:
36,192,36957,1,0,0:0:0:0:
256,192,37115,1,0,0:0:0:0:
329,192,37194,1,0,0:0:0:0:
182,192,37273,1,0,0:0:0:0:
256,192,37431,1,0,0:0:0:0:
329,192,37588,1,0,0:0:0:0:
475,192,37588,1,0,0:0:0:0:
402,192,37746,1,0,0:0:0:0:
329,192,37904,1,0,0:0:0:0:
36,192,37904,1,0,0:0:0:0:
256,192,38378,1,0,0:0:0:0:
475,192,38536,1,0,0:0:0:0:
329,192,38694,1,0,0:0:0:0:
182,192,38852,1,0,0:0:0:0:
36,192,38852,1,0,0:0:0:0:
109,192,39010,1,0,0:0:0:0:
182,192,39167,1,0,0:0:0:0:
475,192,39483,1,0,0:0:0:0:
329,192,39641,1,0,0:0:0:0:
256,192,39720,1,0,0:0:0:0:
182,192,39799,1,0,0:0:0:0:
36,192,39799,1,0,0:0:0:0:
256,192,39957,1,0,0:0:0:0:
329,192,40115,1,0,0:0:0:0:
402,192,40273,1,0,0:0:0:0:
109,192,40431,1,0,0:0:0:0:
256,192,40588,1,0,0:0:0:0:
182,192,40746,1,0,0:0:0:0:
329,192,40904,1,0,0:0:0:0:
256,192,41062,1,0,0:0:0:0:
475,192,41062,1,0,0:0:0:0:
329,192,41220,1,0,0:0:0:0:
256,192,41378,1,0,0:0:0:0:
36,192,41378,1,0,0:0:0:0:
109,192,41536,1,0,0:0:0:0:
182,192,41694,1,0,0:0:0:0:
475,192,41694,1,0,0:0:0:0:
36,192,42010,1,0,0:0:0:0:
329,192,42167,1,0,0:0:0:0:
182,192,42325,1,0,0:0:0:0:
329,192,42325,1,0,0:0:0:0:
402,192,42483,1,0,0:0:0:0:
256,192,42562,1,0,0:0:0:0:
182,192,42641,1,0,0:0:0:0:
475,192,42641,1,0,0:0:0:0:
256,192,42799,1,0,0:0:0:0:
182,192,42957,1,0,0:0:0:0:
36,192,42957,1,0,0:0:0:0:
256,192,43115,1,0,0:0:0:0:
329,192,43273,1,0,0:0:0:0:
402,192,43431,1,0,0:0:0:0:
475,192,43588,1,0,0:0:0:0:
329,192,43588,1,0,0:0:0:0:
182,192,43588,1,0,0:0:0:0:
256,192,43746,1,0,0:0:0:0:
36,192,43904,1,0,0:0:0:0:
182,192,43904,1,0,0:0:0:0:
256,192,44062,1,0,0:0:0:0:
329,192,44220,1,0,0:0:0:0:
109,192,44378,1,0,0:0:0:0:
256,192,44536,1,0,0:0:0:0:
475,192,44536,1,0,0:0:0:0:
109,192,44694,1,0,0:0:0:0:
36,192,44852,1,0,0:0:0:0:
182,192,44852,1,0,0:0:0:0:
329,192,44852,1,0,0:0:0:0:
256,192,45010,1,0,0:0:0:0:
329,192,45167,1,0,0:0:0:0:
402,192,45325,1,0,0:0:0:0:
475,192,45483,1,0,0:0:0:0:
109,192,45483,1,0,0:0:0:0:
182,192,45641,1,0,0:0:0:0:
36,192,45799,1,0,0:0:0:0:
329,192,45799,1,0,0:0:0:0:
402,192,45957,1,0,0:0:0:0:
475,192,46115,1,0,0:0:0:0:
109,192,46115,1,0,0:0:0:0:
182,192,46273,1,0,0:0:0:0:
329,192,46431,1,0,0:0:0:0:
36,192,46431,1,0,0:0:0:0:
402,192,46588,1,0,0:0:0:0:
109,192,46746,1,0,0:0:0:0:
329,192,46746,1,0,0:0:0:0:
109,192,46904,1,0,0:0:0:0:
329,192,46904,1,0,0:0:0:0:
256,192,47062,1,0,0:0:0:0:
475,192,47062,1,0,0:0:0:0:
182,192,47220,1,0,0:0:0:0:
329,192,47299,1,0,0:0:0:0:
256,192,47378,1,0,0:0:0:0:
329,192,47457,1,0,0:0:0:0:
109,192,47536,1,0,0:0:0:0:
256,192,47694,1,0,0:0:0:0:
475,192,47694,1,0,0:0:0:0:
402,192,47852,1,0,0:0:0:0:
256,192,47931,1,0,0:0:0:0:
329,192,48010,1,0,0:0:0:0:
109,192,48010,1,0,0:0:0:0:
109,192,48167,1,0,0:0:0:0:
402,192,48325,1,0,0:0:0:0:
475,192,48325,1,0,0:0:0:0:
256,192,48483,1,0,0:0:0:0:
329,192,48641,1,0,0:0:0:0:
182,192,48720,1,0,0:0:0:0:
329,192,48799,1,0,0:0:0:0:
475,192,48799,1,0,0:0:0:0:
329,192,48957,1,0,0:0:0:0:
182,192,49036,1,0,0:0:0:0:
256,192,49115,1,0,0:0:0:0:
182,192,49194,1,0,0:0:0:0:
256,192,49273,1,0,0:0:0:0:
109,192,49273,1,0,0:0:0:0:
182,192,49431,1,0,0:0:0:0:
329,192,49431,1,0,0:0:0:0:
402,192,49588,1,0,0:0:0:0:
475,192,49588,1,0,0:0:0:0:
182,192,49746,1,0,0:0:0:0:
109,192,49825,1,0,0:0:0:0:
402,192,49904,1,0,0:0:0:0:
475,192,49904,1,0,0:0:0:0:
182,192,50062,1,0,0:0:0:0:
329,192,50062,1,0,0:0:0:0:
256,192,50220,1,0,0:0:0:0:
109,192,50220,1,0,0:0:0:0:
402,192,50378,1,0,0:0:0:0:
475,192,50378,1,0,0:0:0:0:
109,192,50536,1,0,0:0:0:0:
329,192,50536,1,0,0:0:0:0:
256,192,50694,1,0,0:0:0:0:
402,192,50852,1,0,0:0:0:0:
475,192,50852,1,0,0:0:0:0:
109,192,51010,1,0,0:0:0:0:
256,192,51010,1,0,0:0:0:0:
329,192,51167,1,0,0:0:0:0:
182,192,51246,1,0,0:0:0:0:
402,192,51325,1,0,0:0:0:0:
475,192,51325,1,0,0:0:0:0:
182,192,51483,1,0,0:0:0:0:
329,192,51562,1,0,0:0:0:0:
182,192,51641,1,0,0:0:0:0:
329,192,51720,1,0,0:0:0:0:
256,192,51799,1,0,0:0:0:0:
109,192,51799,1,0,0:0:0:0:
109,192,51957,1,0,0:0:0:0:
256,192,51957,1,0,0:0:0:0:
475,192,52115,1,0,0:0:0:0:
402,192,52115,1,0,0:0:0:0:
109,192,52273,1,0,0:0:0:0:
182,192,52352,1,0,0:0:0:0:
256,192,52431,1,0,0:0:0:0:
182,192,52510,1,0,0:0:0:0:
109,192,52588,1,0,0:0:0:0:
402,192,52746,1,0,0:0:0:0:
475,192,52746,1,0,0:0:0:0:
402,192,52904,1,0,0:0:0:0:
109,192,53062,1,0,0:0:0:0:
329,192,53062,1,0,0:0:0:0:
109,192,53220,1,0,0:0:0:0:
402,192,53378,1,0,0:0:0:0:
475,192,53378,1,0,0:0:0:0:
182,192,53536,1,0,0:0:0:0:
329,192,53536,1,0,0:0:0:0:
256,192,53694,1,0,0:0:0:0:
182,192,53773,1,0,0:0:0:0:
402,192,53852,1,0,0:0:0:0:
475,192,53852,1,0,0:0:0:0:
256,192,54010,1,0,0:0:0:0:
329,192,54088,1,0,0:0:0:0:
256,192,54167,1,0,0:0:0:0:
329,192,54246,1,0,0:0:0:0:
182,192,54325,1,0,0:0:0:0:
109,192,54325,1,0,0:0:0:0:
109,192,54483,1,0,0:0:0:0:
182,192,54483,1,0,0:0:0:0:
402,192,54641,1,0,0:0:0:0:
475,192,54641,1,0,0:0:0:0:
182,192,54799,1,0,0:0:0:0:
109,192,54878,1,0,0:0:0:0:
329,192,54957,1,0,0:0:0:0:
182,192,55036,1,0,0:0:0:0:
256,192,55115,1,0,0:0:0:0:
475,192,55273,1,0,0:0:0:0:
329,192,55273,1,0,0:0:0:0:
402,192,55431,1,0,0:0:0:0:
475,192,55431,1,0,0:0:0:0:
256,192,55588,1,0,0:0:0:0:
109,192,55588,1,0,0:0:0:0:
402,192,55746,1,0,0:0:0:0:
475,192,55746,1,0,0:0:0:0:
402,192,55904,1,0,0:0:0:0:
475,192,55904,1,0,0:0:0:0:
256,192,56062,1,0,0:0:0:0:
256,192,56141,1,0,0:0:0:0:
402,192,56220,1,0,0:0:0:0:
475,192,56220,1,0,0:0:0:0:
402,192,56378,1,0,0:0:0:0:
475,192,56378,1,0,0:0:0:0:
256,192,56536,1,0,0:0:0:0:
256,192,56615,1,0,0:0:0:0:
402,192,56694,1,0,0:0:0:0:
475,192,56694,1,0,0:0:0:0:
109,192,56852,1,0,0:0:0:0:
36,192,56852,1,0,0:0:0:0:
109,192,57010,1,0,0:0:0:0:
36,192,57010,1,0,0:0:0:0:
402,192,57167,1,0,0:0:0:0:
475,192,57167,1,0,0:0:0:0:
109,192,57325,1,0,0:0:0:0:
329,192,57404,1,0,0:0:0:0:
256,192,57483,1,0,0:0:0:0:
329,192,57562,1,0,0:0:0:0:
109,192,57641,1,0,0:0:0:0:
36,192,57641,1,0,0:0:0:0:
402,192,57799,1,0,0:0:0:0:
475,192,57799,1,0,0:0:0:0:
256,192,57957,1,0,0:0:0:0:
402,192,58036,1,0,0:0:0:0:
182,192,58115,1,0,0:0:0:0:
36,192,58115,1,0,0:0:0:0:
182,192,58273,1,0,0:0:0:0:
402,192,58431,1,0,0:0:0:0:
475,192,58431,1,0,0:0:0:0:
182,192,58588,1,0,0:0:0:0:
36,192,58588,1,0,0:0:0:0:
182,192,58746,1,0,0:0:0:0:
329,192,58825,1,0,0:0:0:0:
402,192,58904,1,0,0:0:0:0:
475,192,58904,1,0,0:0:0:0:
329,192,59062,1,0,0:0:0:0:
182,192,59141,1,0,0:0:0:0:
329,192,59220,1,0,0:0:0:0:
182,192,59299,1,0,0:0:0:0:
36,192,59378,1,0,0:0:0:0:
109,192,59378,1,0,0:0:0:0:
36,192,59536,1,0,0:0:0:0:
109,192,59536,1,0,0:0:0:0:
402,192,59694,1,0,0:0:0:0:
475,192,59694,1,0,0:0:0:0:
36,192,59852,1,0,0:0:0:0:
109,192,59852,1,0,0:0:0:0:
329,192,59931,1,0,0:0:0:0:
402,192,60010,1,0,0:0:0:0:
475,192,60010,1,0,0:0:0:0:
36,192,60167,1,0,0:0:0:0:
109,192,60167,1,0,0:0:0:0:
329,192,60246,1,0,0:0:0:0:
36,192,60325,1,0,0:0:0:0:
109,192,60325,1,0,0:0:0:0:
402,192,60483,1,0,0:0:0:0:
475,192,60483,1,0,0:0:0:0:
36,192,60641,1,0,0:0:0:0:
109,192,60641,1,0,0:0:0:0:
109,192,60799,1,0,0:0:0:0:
329,192,60957,1,0,0:0:0:0:
475,192,60957,1,0,0:0:0:0:
109,192,61115,1,0,0:0:0:0:
36,192,61115,1,0,0:0:0:0:
182,192,61273,1,0,0:0:0:0:
109,192,61352,1,0,0:0:0:0:
256,192,61431,1,0,0:0:0:0:
475,192,61431,1,0,0:0:0:0:
36,192,61588,1,0,0:0:0:0:
109,192,61588,1,0,0:0:0:0:
329,192,61667,1,0,0:0:0:0:
182,192,61746,1,0,0:0:0:0:
329,192,61825,1,0,0:0:0:0:
256,192,61904,1,0,0:0:0:0:
36,192,61904,1,0,0:0:0:0:
256,192,62062,1,0,0:0:0:0:
36,192,62062,1,0,0:0:0:0:
402,192,62220,1,0,0:0:0:0:
475,192,62220,1,0,0:0:0:0:
256,192,62378,1,0,0:0:0:0:
329,192,62457,1,0,0:0:0:0:
182,192,62536,1,0,0:0:0:0:
329,192,62615,1,0,0:0:0:0:
256,192,62694,1,0,0:0:0:0:
36,192,62694,1,0,0:0:0:0:
402,192,62852,1,0,0:0:0:0:
475,192,62852,1,0,0:0:0:0:
182,192,63010,1,0,0:0:0:0:
329,192,63088,1,0,0:0:0:0:
256,192,63167,1,0,0:0:0:0:
36,192,63167,1,0,0:0:0:0:
256,192,63325,1,0,0:0:0:0:
402,192,63483,1,0,0:0:0:0:
475,192,63483,1,0,0:0:0:0:
256,192,63641,1,0,0:0:0:0:
36,192,63641,1,0,0:0:0:0:
256,192,63799,1,0,0:0:0:0:
256,192,63878,1,0,0:0:0:0:
402,192,63957,1,0,0:0:0:0:
475,192,63957,1,0,0:0:0:0:
329,192,64115,1,0,0:0:0:0:
182,192,64194,1,0,0:0:0:0:
256,192,64273,1,0,0:0:0:0:
182,192,64352,1,0,0:0:0:0:
109,192,64431,1,0,0:0:0:0:
36,192,64431,1,0,0:0:0:0:
109,192,64588,1,0,0:0:0:0:
36,192,64588,1,0,0:0:0:0:
329,192,64746,1,0,0:0:0:0:
475,192,64746,1,0,0:0:0:0:
256,192,64904,1,0,0:0:0:0:
36,192,64904,1,0,0:0:0:0:
182,192,64983,1,0,0:0:0:0:
329,192,65062,1,0,0:0:0:0:
182,192,65141,1,0,0:0:0:0:
256,192,65220,1,0,0:0:0:0:
36,192,65220,1,0,0:0:0:0:
329,192,65378,1,0,0:0:0:0:
475,192,65378,1,0,0:0:0:0:
402,192,65536,1,0,0:0:0:0:
475,192,65536,1,0,0:0:0:0:
36,192,65694,1,0,0:0:0:0:
109,192,65694,1,0,0:0:0:0:
402,192,65852,1,0,0:0:0:0:
475,192,65852,1,0,0:0:0:0:
402,192,66010,1,0,0:0:0:0:
475,192,66010,1,0,0:0:0:0:
36,192,66167,1,0,0:0:0:0:
109,192,66167,1,0,0:0:0:0:
329,192,66246,1,0,0:0:0:0:
256,192,66325,1,0,0:0:0:0:
402,192,66325,1,0,0:0:0:0:
256,192,66404,1,0,0:0:0:0:
402,192,66404,1,0,0:0:0:0:
256,192,66483,1,0,0:0:0:0:
402,192,66483,1,0,0:0:0:0:
36,192,66641,1,0,0:0:0:0:
109,192,66641,1,0,0:0:0:0:
256,192,66720,1,0,0:0:0:0:
402,192,66799,1,0,0:0:0:0:
402,192,66957,1,0,0:0:0:0:
36,192,66957,1,0,0:0:0:0:
256,192,67273,1,0,0:0:0:0:
329,192,67588,1,0,0:0:0:0:
475,192,67588,1,0,0:0:0:0:
182,192,67904,1,0,0:0:0:0:
36,192,67904,1,0,0:0:0:0:
329,192,68062,1,0,0:0:0:0:
182,192,68220,1,0,0:0:0:0:
329,192,68378,1,0,0:0:0:0:
256,192,68536,1,0,0:0:0:0:
329,192,68852,1,0,0:0:0:0:
475,192,68852,1,0,0:0:0:0:
256,192,69010,1,0,0:0:0:0:
329,192,69167,1,0,0:0:0:0:
36,192,69483,1,0,0:0:0:0:
182,192,69483,1,0,0:0:0:0:
256,192,69799,1,0,0:0:0:0:
329,192,70115,1,0,0:0:0:0:
475,192,70115,1,0,0:0:0:0:
36,192,70431,1,0,0:0:0:0:
182,192,70431,1,0,0:0:0:0:
329,192,70588,1,0,0:0:0:0:
182,192,70746,1,0,0:0:0:0:
256,192,70904,1,0,0:0:0:0:
182,192,71062,1,0,0:0:0:0:
329,192,71378,1,0,0:0:0:0:
475,192,71378,1,0,0:0:0:0:
329,192,71694,1,0,0:0:0:0:
329,192,71852,1,0,0:0:0:0:
109,192,72010,1,0,0:0:0:0:
36,192,72010,1,0,0:0:0:0:
256,192,72325,1,0,0:0:0:0:
402,192,72641,1,0,0:0:0:0:
475,192,72641,1,0,0:0:0:0:
36,192,72957,1,0,0:0:0:0:
109,192,72957,1,0,0:0:0:0:
402,192,73115,1,0,0:0:0:0:
109,192,73273,1,0,0:0:0:0:
256,192,73431,1,0,0:0:0:0:
256,192,73588,1,0,0:0:0:0:
402,192,73904,1,0,0:0:0:0:
475,192,73904,1,0,0:0:0:0:
256,192,74062,1,0,0:0:0:0:
256,192,74220,1,0,0:0:0:0:
36,192,74536,1,0,0:0:0:0:
109,192,74536,1,0,0:0:0:0:
256,192,74852,1,0,0:0:0:0:
402,192,75167,1,0,0:0:0:0:
475,192,75167,1,0,0:0:0:0:
36,192,75483,1,0,0:0:0:0:
109,192,75483,1,0,0:0:0:0:
402,192,75641,1,0,0:0:0:0:
109,192,75799,1,0,0:0:0:0:
256,192,75957,1,0,0:0:0:0:
402,192,76115,1,0,0:0:0:0:
402,192,76431,1,0,0:0:0:0:
475,192,76431,1,0,0:0:0:0:
329,192,76746,1,0,0:0:0:0:
36,192,76904,1,0,0:0:0:0:
402,192,76904,1,0,0:0:0:0:
36,192,77062,1,0,0:0:0:0:
109,192,77062,1,0,0:0:0:0:
182,192,77220,1,0,0:0:0:0:
402,192,77378,1,0,0:0:0:0:
109,192,77536,1,0,0:0:0:0:
182,192,77694,1,0,0:0:0:0:
475,192,77694,1,0,0:0:0:0:
402,192,77852,1,0,0:0:0:0:
182,192,78010,1,0,0:0:0:0:
256,192,78167,1,0,0:0:0:0:
402,192,78325,1,0,0:0:0:0:
109,192,78483,1,0,0:0:0:0:
182,192,78641,1,0,0:0:0:0:
402,192,78799,1,0,0:0:0:0:
182,192,78957,1,0,0:0:0:0:
475,192,78957,1,0,0:0:0:0:
256,192,79115,1,0,0:0:0:0:
402,192,79273,1,0,0:0:0:0:
329,192,79431,1,0,0:0:0:0:
109,192,79588,1,0,0:0:0:0:
256,192,79746,1,0,0:0:0:0:
402,192,79904,1,0,0:0:0:0:
182,192,80062,1,0,0:0:0:0:
329,192,80220,1,0,0:0:0:0:
475,192,80220,1,0,0:0:0:0:
402,192,80378,1,0,0:0:0:0:
182,192,80536,1,0,0:0:0:0:
109,192,80694,1,0,0:0:0:0:
402,192,80852,1,0,0:0:0:0:
109,192,81010,1,0,0:0:0:0:
182,192,81167,1,0,0:0:0:0:
256,192,81325,1,0,0:0:0:0:
329,192,81483,1,0,0:0:0:0:
475,192,81483,1,0,0:0:0:0:
402,192,81641,1,0,0:0:0:0:
329,192,81799,1,0,0:0:0:0:
182,192,81957,1,0,0:0:0:0:
109,192,82115,1,0,0:0:0:0:
256,192,82273,1,0,0:0:0:0:
402,192,82431,1,0,0:0:0:0:
182,192,82588,1,0,0:0:0:0:
256,192,82746,1,0,0:0:0:0:
36,192,82746,1,0,0:0:0:0:
402,192,82904,1,0,0:0:0:0:
109,192,83062,1,0,0:0:0:0:
256,192,83220,1,0,0:0:0:0:
402,192,83378,1,0,0:0:0:0:
109,192,83536,1,0,0:0:0:0:
329,192,83694,1,0,0:0:0:0:
256,192,83852,1,0,0:0:0:0:
402,192,84010,1,0,0:0:0:0:
36,192,84010,1,0,0:0:0:0:
329,192,84167,1,0,0:0:0:0:
256,192,84325,1,0,0:0:0:0:
109,192,84483,1,0,0:0:0:0:
256,192,84641,1,0,0:0:0:0:
329,192,84799,1,0,0:0:0:0:
402,192,84957,1,0,0:0:0:0:
256,192,85115,1,0,0:0:0:0:
329,192,85273,1,0,0:0:0:0:
36,192,85273,1,0,0:0:0:0:
402,192,85431,1,0,0:0:0:0:
256,192,85588,1,0,0:0:0:0:
329,192,85746,1,0,0:0:0:0:
256,192,85904,1,0,0:0:0:0:
329,192,86062,1,0,0:0:0:0:
256,192,86220,1,0,0:0:0:0:
402,192,86378,1,0,0:0:0:0:
36,192,86536,1,0,0:0:0:0:
109,192,86536,1,0,0:0:0:0:
182,192,86694,1,0,0:0:0:0:
256,192,86694,1,0,0:0:0:0:
329,192,86852,1,0,0:0:0:0:
402,192,87010,1,0,0:0:0:0:
256,192,87010,1,0,0:0:0:0:
475,192,87167,1,0,0:0:0:0:
402,192,87246,1,0,0:0:0:0:
329,192,87325,1,0,0:0:0:0:
256,192,87404,1,0,0:0:0:0:
182,192,87483,1,0,0:0:0:0:
329,192,87483,1,0,0:0:0:0:
256,192,87562,1,0,0:0:0:0:
182,192,87641,1,0,0:0:0:0:
109,192,87720,1,0,0:0:0:0:
329,192,87799,1,0,0:0:0:0:
256,192,87878,1,0,0:0:0:0:
182,192,87957,1,0,0:0:0:0:
109,192,88036,1,0,0:0:0:0:
256,192,88115,1,0,0:0:0:0:
402,192,88115,1,0,0:0:0:0:
182,192,88194,1,0,0:0:0:0:
109,192,88273,1,0,0:0:0:0:
36,192,88352,1,0,0:0:0:0:
109,192,88431,1,0,0:0:0:0:
182,192,88510,1,0,0:0:0:0:
256,192,88588,1,0,0:0:0:0:
329,192,88667,1,0,0:0:0:0:
402,192,88746,1,0,0:0:0:0:
256,192,88746,1,0,0:0:0:0:
475,192,88825,1,0,0:0:0:0:
402,192,88904,1,0,0:0:0:0:
329,192,88983,1,0,0:0:0:0:
36,192,89062,1,0,0:0:0:0:
256,192,89141,1,0,0:0:0:0:
475,192,89220,1,0,0:0:0:0:
182,192,89220,1,0,0:0:0:0:
329,192,89299,1,0,0:0:0:0:
475,192,89378,1,0,0:0:0:0:
329,192,89457,1,0,0:0:0:0:
182,192,89536,1,0,0:0:0:0:
36,192,89615,1,0,0:0:0:0:
109,192,89694,1,0,0:0:0:0:
36,192,89773,1,0,0:0:0:0:
109,192,89852,1,0,0:0:0:0:
182,192,89931,1,0,0:0:0:0:
256,192,90010,1,0,0:0:0:0:
402,192,90010,1,0,0:0:0:0:
182,192,90088,1,0,0:0:0:0:
256,192,90167,1,0,0:0:0:0:
329,192,90246,1,0,0:0:0:0:
402,192,90325,1,0,0:0:0:0:
182,192,90325,1,0,0:0:0:0:
256,192,90404,1,0,0:0:0:0:
329,192,90483,1,0,0:0:0:0:
402,192,90562,1,0,0:0:0:0:
475,192,90641,1,0,0:0:0:0:
256,192,90720,1,0,0:0:0:0:
329,192,90799,1,0,0:0:0:0:
182,192,90799,1,0,0:0:0:0:
402,192,90878,1,0,0:0:0:0:
475,192,90957,1,0,0:0:0:0:
402,192,91036,1,0,0:0:0:0:
329,192,91115,1,0,0:0:0:0:
256,192,91194,1,0,0:0:0:0:
329,192,91273,1,0,0:0:0:0:
36,192,91273,1,0,0:0:0:0:
182,192,91352,1,0,0:0:0:0:
256,192,91431,1,0,0:0:0:0:
329,192,91510,1,0,0:0:0:0:
256,192,91588,1,0,0:0:0:0:
329,192,91667,1,0,0:0:0:0:
402,192,91746,1,0,0:0:0:0:
109,192,91746,1,0,0:0:0:0:
256,192,91825,1,0,0:0:0:0:
402,192,91904,1,0,0:0:0:0:
256,192,91983,1,0,0:0:0:0:
182,192,92062,1,0,0:0:0:0:
36,192,92141,1,0,0:0:0:0:
402,192,92220,1,0,0:0:0:0:
475,192,92299,1,0,0:0:0:0:
329,192,92378,1,0,0:0:0:0:
402,192,92457,1,0,0:0:0:0:
256,192,92536,1,0,0:0:0:0:
109,192,92536,1,0,0:0:0:0:
329,192,92615,1,0,0:0:0:0:
182,192,92694,1,0,0:0:0:0:
256,192,92773,1,0,0:0:0:0:
402,192,92852,1,0,0:0:0:0:
256,192,92931,1,0,0:0:0:0:
329,192,93010,1,0,0:0:0:0:
182,192,93088,1,0,0:0:0:0:
256,192,93167,1,0,0:0:0:0:
109,192,93167,1,0,0:0:0:0:
182,192,93246,1,0,0:0:0:0:
109,192,93325,1,0,0:0:0:0:
36,192,93404,1,0,0:0:0:0:
475,192,93483,1,0,0:0:0:0:
109,192,93562,1,0,0:0:0:0:
182,192,93641,1,0,0:0:0:0:
256,192,93720,1,0,0:0:0:0:
329,192,93799,1,0,0:0:0:0:
182,192,93799,1,0,0:0:0:0:
109,192,93878,1,0,0:0:0:0:
182,192,93957,1,0,0:0:0:0:
256,192,94036,1,0,0:0:0:0:
329,192,94115,1,0,0:0:0:0:
36,192,94194,1,0,0:0:0:0:
109,192,94273,1,0,0:0:0:0:
256,192,94273,1,0,0:0:0:0:
182,192,94352,1,0,0:0:0:0:
256,192,94431,1,0,0:0:0:0:
329,192,94510,1,0,0:0:0:0:
402,192,94588,1,0,0:0:0:0:
475,192,94667,1,0,0:0:0:0:
256,192,94746,1,0,0:0:0:0:
329,192,94825,1,0,0:0:0:0:
182,192,94904,1,0,0:0:0:0:
402,192,94983,1,0,0:0:0:0:
329,192,95062,1,0,0:0:0:0:
109,192,95062,1,0,0:0:0:0:
182,192,95141,1,0,0:0:0:0:
256,192,95220,1,0,0:0:0:0:
109,192,95299,1,0,0:0:0:0:
475,192,95378,1,0,0:0:0:0:
329,192,95457,1,0,0:0:0:0:
256,192,95536,1,0,0:0:0:0:
182,192,95615,1,0,0:0:0:0:
329,192,95694,1,0,0:0:0:0:
402,192,95694,1,0,0:0:0:0:
256,192,95773,1,0,0:0:0:0:
182,192,95852,1,0,0:0:0:0:
109,192,95852,1,0,0:0:0:0:
36,192,95931,1,0,0:0:0:0:
109,192,96010,1,0,0:0:0:0:
182,192,96088,1,0,0:0:0:0:
256,192,96167,1,0,0:0:0:0:
402,192,96167,1,0,0:0:0:0:
182,192,96246,1,0,0:0:0:0:
256,192,96325,1,0,0:0:0:0:
402,192,96325,1,0,0:0:0:0:
329,192,96404,1,0,0:0:0:0:
402,192,96483,1,0,0:0:0:0:
256,192,96562,1,0,0:0:0:0:
109,192,96641,1,0,0:0:0:0:
329,192,96641,1,0,0:0:0:0:
182,192,96720,1,0,0:0:0:0:
256,192,96799,1,0,0:0:0:0:
402,192,96799,1,0,0:0:0:0:
329,192,96878,1,0,0:0:0:0:
402,192,96957,1,0,0:0:0:0:
182,192,97036,1,0,0:0:0:0:
329,192,97115,1,0,0:0:0:0:
402,192,97194,1,0,0:0:0:0:
475,192,97273,1,0,0:0:0:0:
36,192,97273,1,0,0:0:0:0:
475,192,97378,1,0,0:0:0:0:
36,192,97378,1,0,0:0:0:0:
36,192,97483,1,0,0:0:0:0:
475,192,97483,1,0,0:0:0:0:
109,192,97588,1,0,0:0:0:0:
402,192,97588,1,0,0:0:0:0:
109,192,97694,1,0,0:0:0:0:
402,192,97694,1,0,0:0:0:0:
109,192,97799,1,0,0:0:0:0:
402,192,97799,1,0,0:0:0:0:
182,192,97904,1,0,0:0:0:0:
329,192,97904,1,0,0:0:0:0:
182,192,98010,1,0,0:0:0:0:
329,192,98010,1,0,0:0:0:0:
182,192,98115,1,0,0:0:0:0:
329,192,98115,1,0,0:0:0:0:
256,192,98220,1,0,0:0:0:0:
256,192,98325,1,0,0:0:0:0:
256,192,98431,1,0,0:0:0:0:
182,192,98536,1,0,0:0:0:0:
329,192,98536,1,0,0:0:0:0:
182,192,98641,1,0,0:0:0:0:
329,192,98641,1,0,0:0:0:0:
182,192,98746,1,0,0:0:0:0:
329,192,98746,1,0,0:0:0:0:
256,192,98852,1,0,0:0:0:0:
256,192,98957,1,0,0:0:0:0:
256,192,99062,1,0,0:0:0:0:
256,192,99167,1,0,0:0:0:0:
329,192,99273,1,0,0:0:0:0:
402,192,99378,1,0,0:0:0:0:
329,192,99483,1,0,0:0:0:0:
256,192,99588,1,0,0:0:0:0:
182,192,99694,1,0,0:0:0:0:
109,192,99799,1,0,0:0:0:0:
256,192,99799,1,0,0:0:0:0:
109,192,99904,1,0,0:0:0:0:
256,192,99904,1,0,0:0:0:0:
109,192,100010,1,0,0:0:0:0:
256,192,100010,1,0,0:0:0:0:
182,192,100115,1,0,0:0:0:0:
329,192,100115,1,0,0:0:0:0:
182,192,100220,1,0,0:0:0:0:
329,192,100220,1,0,0:0:0:0:
182,192,100325,1,0,0:0:0:0:
329,192,100325,1,0,0:0:0:0:
256,192,100431,1,0,0:0:0:0:
402,192,100431,1,0,0:0:0:0:
256,192,100536,1,0,0:0:0:0:
402,192,100536,1,0,0:0:0:0:
256,192,100641,1,0,0:0:0:0:
402,192,100641,1,0,0:0:0:0:
329,192,100746,1,0,0:0:0:0:
182,192,100746,1,0,0:0:0:0:
329,192,100852,1,0,0:0:0:0:
182,192,100852,1,0,0:0:0:0:
329,192,100957,1,0,0:0:0:0:
182,192,100957,1,0,0:0:0:0:
256,192,101062,1,0,0:0:0:0:
402,192,101062,1,0,0:0:0:0:
256,192,101167,1,0,0:0:0:0:
402,192,101167,1,0,0:0:0:0:
256,192,101273,1,0,0:0:0:0:
402,192,101273,1,0,0:0:0:0:
109,192,101378,1,0,0:0:0:0:
36,192,101378,1,0,0:0:0:0:
182,192,101483,1,0,0:0:0:0:
329,192,101483,1,0,0:0:0:0:
402,192,101588,1,0,0:0:0:0:
475,192,101588,1,0,0:0:0:0:
402,192,101694,1,0,0:0:0:0:
329,192,101799,1,0,0:0:0:0:
182,192,101904,1,0,0:0:0:0:
329,192,102010,1,0,0:0:0:0:
182,192,102115,1,0,0:0:0:0:
109,192,102220,1,0,0:0:0:0:
402,192,102325,1,0,0:0:0:0:
475,192,102325,1,0,0:0:0:0:
402,192,102431,1,0,0:0:0:0:
475,192,102431,1,0,0:0:0:0:
402,192,102536,1,0,0:0:0:0:
475,192,102536,1,0,0:0:0:0:
329,192,102641,1,0,0:0:0:0:
256,192,102641,1,0,0:0:0:0:
329,192,102746,1,0,0:0:0:0:
256,192,102746,1,0,0:0:0:0:
329,192,102852,1,0,0:0:0:0:
256,192,102852,1,0,0:0:0:0:
256,192,102957,1,0,0:0:0:0:
182,192,102957,1,0,0:0:0:0:
256,192,103062,1,0,0:0:0:0:
182,192,103062,1,0,0:0:0:0:
256,192,103167,1,0,0:0:0:0:
182,192,103167,1,0,0:0:0:0:
109,192,103273,1,0,0:0:0:0:
36,192,103273,1,0,0:0:0:0:
109,192,103378,1,0,0:0:0:0:
36,192,103378,1,0,0:0:0:0:
109,192,103483,1,0,0:0:0:0:
36,192,103483,1,0,0:0:0:0:
182,192,103588,1,0,0:0:0:0:
329,192,103588,1,0,0:0:0:0:
182,192,103694,1,0,0:0:0:0:
329,192,103694,1,0,0:0:0:0:
182,192,103799,1,0,0:0:0:0:
329,192,103799,1,0,0:0:0:0:
256,192,103904,1,0,0:0:0:0:
256,192,104010,1,0,0:0:0:0:
256,192,104115,1,0,0:0:0:0:
109,192,104220,1,0,0:0:0:0:
402,192,104220,1,0,0:0:0:0:
182,192,104325,1,0,0:0:0:0:
329,192,104325,1,0,0:0:0:0:
256,192,104431,1,0,0:0:0:0:
402,192,104431,1,0,0:0:0:0:
329,192,104536,1,0,0:0:0:0:
182,192,104536,1,0,0:0:0:0:
256,192,104641,1,0,0:0:0:0:
109,192,104641,1,0,0:0:0:0:
182,192,104746,1,0,0:0:0:0:
329,192,104746,1,0,0:0:0:0:
36,192,104852,1,0,0:0:0:0:
256,192,104852,1,0,0:0:0:0:
36,192,104957,1,0,0:0:0:0:
256,192,104957,1,0,0:0:0:0:
36,192,105062,1,0,0:0:0:0:
256,192,105062,1,0,0:0:0:0:
182,192,105167,1,0,0:0:0:0:
329,192,105167,1,0,0:0:0:0:
182,192,105273,1,0,0:0:0:0:
329,192,105273,1,0,0:0:0:0:
182,192,105378,1,0,0:0:0:0:
329,192,105378,1,0,0:0:0:0:
256,192,105483,1,0,0:0:0:0:
475,192,105483,1,0,0:0:0:0:
256,192,105588,1,0,0:0:0:0:
475,192,105588,1,0,0:0:0:0:
256,192,105694,1,0,0:0:0:0:
475,192,105694,1,0,0:0:0:0:
182,192,105799,1,0,0:0:0:0:
329,192,105799,1,0,0:0:0:0:
182,192,105904,1,0,0:0:0:0:
329,192,105904,1,0,0:0:0:0:
182,192,106010,1,0,0:0:0:0:
329,192,106010,1,0,0:0:0:0:
256,192,106115,1,0,0:0:0:0:
402,192,106115,1,0,0:0:0:0:
182,192,106220,1,0,0:0:0:0:
329,192,106220,1,0,0:0:0:0:
109,192,106325,1,0,0:0:0:0:
256,192,106325,1,0,0:0:0:0:
329,192,106431,1,0,0:0:0:0:
182,192,106431,1,0,0:0:0:0:
256,192,106536,1,0,0:0:0:0:
109,192,106536,1,0,0:0:0:0:
182,192,106641,1,0,0:0:0:0:
329,192,106641,1,0,0:0:0:0:
256,192,106746,1,0,0:0:0:0:
109,192,106746,1,0,0:0:0:0:
182,192,106852,1,0,0:0:0:0:
329,192,106852,1,0,0:0:0:0:
256,192,106957,1,0,0:0:0:0:
402,192,106957,1,0,0:0:0:0:
36,192,107062,1,0,0:0:0:0:
109,192,107062,1,0,0:0:0:0:
182,192,107062,1,0,0:0:0:0:
36,192,107167,1,0,0:0:0:0:
182,192,107167,1,0,0:0:0:0:
329,192,107167,1,0,0:0:0:0:
329,192,107273,1,0,0:0:0:0:
402,192,107273,1,0,0:0:0:0:
475,192,107273,1,0,0:0:0:0:
402,192,107378,1,0,0:0:0:0:
475,192,107378,1,0,0:0:0:0:
109,192,107378,1,0,0:0:0:0:
329,192,107694,1,0,0:0:0:0:
256,192,108010,1,0,0:0:0:0:
182,192,108325,1,0,0:0:0:0:
329,192,108483,1,0,0:0:0:0:
109,192,108641,1,0,0:0:0:0:
109,192,108799,1,0,0:0:0:0:
256,192,108957,1,0,0:0:0:0:
329,192,109273,1,0,0:0:0:0:
182,192,109431,1,0,0:0:0:0:
329,192,109588,1,0,0:0:0:0:
109,192,109904,1,0,0:0:0:0:
329,192,110220,1,0,0:0:0:0:
402,192,110536,1,0,0:0:0:0:
182,192,110852,1,0,0:0:0:0:
329,192,111010,1,0,0:0:0:0:
109,192,111167,1,0,0:0:0:0:
109,192,111325,1,0,0:0:0:0:
256,192,111483,1,0,0:0:0:0:
329,192,111799,1,0,0:0:0:0:
182,192,112115,1,0,0:0:0:0:
256,192,112273,1,0,0:0:0:0:
109,192,112431,1,0,0:0:0:0:
329,192,112746,1,0,0:0:0:0:
402,192,113062,1,0,0:0:0:0:
182,192,113378,1,0,0:0:0:0:
402,192,113536,1,0,0:0:0:0:
109,192,113694,1,0,0:0:0:0:
109,192,113852,1,0,0:0:0:0:
256,192,114010,1,0,0:0:0:0:
329,192,114325,1,0,0:0:0:0:
182,192,114483,1,0,0:0:0:0:
256,192,114641,1,0,0:0:0:0:
256,192,114957,1,0,0:0:0:0:
109,192,115273,1,0,0:0:0:0:
329,192,115588,1,0,0:0:0:0:
182,192,115904,1,0,0:0:0:0:
256,192,116062,1,0,0:0:0:0:
109,192,116220,1,0,0:0:0:0:
109,192,116378,1,0,0:0:0:0:
256,192,116536,1,0,0:0:0:0:
402,192,116852,128,0,117088:0:0:0:0:
182,192,117167,1,0,0:0:0:0:
329,192,117325,1,0,0:0:0:0:
109,192,117483,1,0,0:0:0:0:
