osu file format v14

[General]
AudioFilename: Nightmare1.mp3
AudioLeadIn: 0
PreviewTime: 46669
Countdown: 0
SampleSet: Soft
StackLeniency: 0.7
Mode: 3
LetterboxInBreaks: 0
SpecialStyle: 0
WidescreenStoryboard: 1

[Editor]
DistanceSpacing: 1.4
BeatDivisor: 4
GridSize: 8
TimelineZoom: 2.5

[Metadata]
Title:Nightmare
TitleUnicode:Nightmare
Artist:M2U
ArtistUnicode:M2U
Creator:Luthfeh
Version:4K Hard
Source:DJMAX
Tags:djmax trilogy LucidKarn
BeatmapID:732682
BeatmapSetID:330645

[Difficulty]
HPDrainRate:7.5
CircleSize:4
OverallDifficulty:7.5
ApproachRate:5
SliderMultiplier:1.4
SliderTickRate:1

[Events]
//Background and Video events
0,0,"NM.jpg",0,0
//Break Periods
//Storyboard Layer 0 (Background)
//Storyboard Layer 1 (Fail)
//Storyboard Layer 2 (Pass)
//Storyboard Layer 3 (Foreground)
//Storyboard Sound Samples

[TimingPoints]
6331,315.789473684211,4,2,1,50,1,0
6331,-100,4,2,2,50,0,0
6409,-100,4,2,1,50,0,0
16436,-100,4,2,2,50,0,0
16515,-100,4,2,1,50,0,0
26541,-100,4,2,2,50,0,0
26620,-100,4,2,1,50,0,0
46752,-100,4,2,2,50,0,1
46831,-100,4,2,1,50,0,1
56857,-100,4,2,2,50,0,1
56936,-100,4,2,1,50,0,1
66962,-100,4,2,2,50,0,0
67041,-100,4,2,1,50,0,0
77067,-100,4,2,2,50,0,0
77146,-100,4,2,1,50,0,0
87173,-100,4,2,2,50,0,1
87252,-100,4,2,1,50,0,1
97278,-100,4,2,2,50,0,1
97357,-100,4,2,1,50,0,1
107383,-100,4,2,2,50,0,0
107462,-100,4,2,1,50,0,0
117488,-100,4,2,2,50,0,0

[HitObjects]
192,192,6252,5,0,0:0:0:0:
320,192,6291,1,0,0:0:0:0:
64,192,6331,5,4,0:0:0:0:
448,192,6331,1,8,0:0:0:0:
192,192,6804,1,0,0:0:0:0:
64,192,7120,1,0,0:0:0:0:
320,192,7436,1,0,0:0:0:0:
448,192,7752,1,0,0:0:0:0:
192,192,7909,1,0,0:0:0:0:
320,192,8067,1,0,0:0:0:0:
64,192,8383,1,0,0:0:0:0:
192,192,8541,1,0,0:0:0:0:
64,192,8857,1,8,0:0:0:0:
192,192,9015,1,0,0:0:0:0:
320,192,9173,1,0,0:0:0:0:
448,192,9331,1,0,0:0:0:0:
64,192,9331,1,0,0:0:0:0:
320,192,9646,1,0,0:0:0:0:
64,192,9646,1,0,0:0:0:0:
64,192,9962,1,0,0:0:0:0:
192,192,9962,1,0,0:0:0:0:
320,192,10436,1,0,0:0:0:0:
192,192,10752,1,0,0:0:0:0:
64,192,11067,1,0,0:0:0:0:
448,192,11225,1,0,0:0:0:0:
320,192,11383,1,4,0:0:0:0:
192,192,11383,1,4,0:0:0:0:
448,192,11857,1,0,0:0:0:0:
64,192,12331,1,4,0:0:0:0:
320,192,12804,1,0,0:0:0:0:
64,192,13120,1,0,0:0:0:0:
448,192,13120,1,0,0:0:0:0:
192,192,13436,1,0,0:0:0:0:
448,192,13436,1,0,0:0:0:0:
448,192,13752,1,0,0:0:0:0:
320,192,13752,1,0,0:0:0:0:
64,192,13909,1,4,0:0:0:0:
320,192,13909,1,8,0:0:0:0:
192,192,14067,1,0,0:0:0:0:
192,192,14225,1,0,0:0:0:0:
448,192,14383,1,2,0:0:0:0:
320,192,14541,1,8,0:0:0:0:
192,192,14541,1,8,0:0:0:0:
64,192,14699,1,2,0:0:0:0:
64,192,14857,1,2,0:0:0:0:
320,192,15015,1,0,0:0:0:0:
448,192,15331,1,2,0:0:0:0:
64,192,15646,1,0,0:0:0:0:
192,192,15962,1,2,0:0:0:0:
320,192,16278,1,2,0:0:0:0:
192,192,16436,1,4,0:0:0:0:
64,192,16436,1,8,0:0:0:0:
448,192,16436,1,0,0:0:0:0:
320,192,16909,1,2,0:0:0:0:
64,192,16909,1,0,0:0:0:0:
192,192,17225,1,0,0:0:0:0:
320,192,17541,1,0,0:0:0:0:
448,192,17857,1,2,0:0:0:0:
64,192,18015,1,0,0:0:0:0:
320,192,18173,1,0,0:0:0:0:
192,192,18488,1,0,0:0:0:0:
448,192,18646,1,0,0:0:0:0:
64,192,18962,1,0,0:0:0:0:
192,192,19120,1,0,0:0:0:0:
320,192,19278,1,2,0:0:0:0:
448,192,19436,1,0,0:0:0:0:
192,192,19436,1,2,0:0:0:0:
192,192,19752,1,0,0:0:0:0:
320,192,19752,1,2,0:0:0:0:
64,192,20067,1,0,0:0:0:0:
320,192,20067,1,0,0:0:0:0:
448,192,20541,1,2,0:0:0:0:
320,192,20857,1,8,0:0:0:0:
192,192,21173,1,0,0:0:0:0:
320,192,21331,1,0,0:0:0:0:
64,192,21488,1,2,0:0:0:0:
448,192,21488,1,6,0:0:0:0:
192,192,21962,1,2,0:0:0:0:
320,192,22436,1,2,0:0:0:0:
448,192,22909,1,2,0:0:0:0:
192,192,23225,1,0,0:0:0:0:
320,192,23225,1,0,0:0:0:0:
64,192,23541,1,0,0:0:0:0:
320,192,23541,1,2,0:0:0:0:
64,192,23857,1,2,0:0:0:0:
192,192,23857,1,0,0:0:0:0:
320,192,24015,1,2,0:0:0:0:
448,192,24173,1,0,0:0:0:0:
320,192,24331,1,0,0:0:0:0:
192,192,24488,1,0,0:0:0:0:
64,192,24962,1,2,0:0:0:0:
192,192,25120,1,0,0:0:0:0:
448,192,25436,1,0,0:0:0:0:
320,192,25436,1,0,0:0:0:0:
192,192,25752,1,0,0:0:0:0:
448,192,25752,1,0,0:0:0:0:
448,192,26067,1,0,0:0:0:0:
64,192,26067,1,2,0:0:0:0:
64,192,26462,1,0,0:0:0:70:Vipa-01.ogg
192,192,26488,1,0,0:0:0:70:Vipa-02.ogg
320,192,26515,1,0,0:0:0:70:Vipa-03.ogg
448,192,26541,1,0,0:0:0:70:Vipa-04.ogg
64,192,27015,1,2,0:0:0:70:Vipa-04.ogg
192,192,27488,1,2,0:0:0:70:Vipa-03.ogg
448,192,27646,1,0,0:0:0:70:Vipa-04.ogg
320,192,27804,1,0,0:0:0:70:Vipa-02.ogg
64,192,27962,1,0,0:0:0:0:
320,192,28120,1,0,0:0:0:0:
192,192,28278,1,0,0:0:0:0:
320,192,28752,1,0,0:0:0:70:Vipa-01.ogg
192,192,28909,1,2,0:0:0:70:Vipa-02.ogg
64,192,29067,1,2,0:0:0:70:Vipa-03.ogg
448,192,29225,1,0,0:0:0:0:
320,192,29383,1,0,0:0:0:0:
448,192,29541,1,0,0:0:0:0:
192,192,29541,1,2,0:0:0:0:
320,192,29857,1,2,0:0:0:0:
64,192,29857,1,0,0:0:0:0:
192,192,30173,1,0,0:0:0:0:
64,192,30173,1,0,0:0:0:0:
448,192,30488,1,2,0:0:0:70:Vipa-05.ogg
320,192,30646,1,2,0:0:0:70:Vipa-06.ogg
192,192,30804,1,0,0:0:0:70:Vipa-02.ogg
448,192,30962,1,8,0:0:0:70:Vipa-03.ogg
64,192,31120,1,2,0:0:0:70:Vipa-04.ogg
192,192,31278,1,0,0:0:0:70:Vipa-01.ogg
320,192,31436,1,2,0:0:0:70:Vipa-02.ogg
64,192,31594,1,2,0:0:0:0:
448,192,31594,1,2,0:0:0:70:Vipa-03.ogg
320,192,32067,1,2,0:0:0:70:Vipa-07.ogg
448,192,32146,1,0,0:0:0:70:Vipa-08.ogg
320,192,32225,1,8,0:0:0:70:Vipa-07.ogg
64,192,32383,1,2,0:0:0:70:Vipa-05.ogg
320,192,32541,1,2,0:0:0:70:Vipa-06.ogg
192,192,32699,1,0,0:0:0:70:Vipa-03.ogg
448,192,32857,1,0,0:0:0:70:Vipa-02.ogg
64,192,33331,1,0,0:0:0:0:
448,192,33331,1,0,0:0:0:0:
192,192,33646,1,2,0:0:0:0:
320,192,33646,1,0,0:0:0:0:
64,192,33804,1,0,0:0:0:70:Vipa-09.ogg
448,192,33962,1,2,0:0:0:70:Vipa-09.ogg
192,192,33962,1,2,0:0:0:70:Vipa-10.ogg
320,192,34120,1,2,0:0:0:70:Vipa-11.ogg
192,192,34278,1,0,0:0:0:70:Vipa-09.ogg
320,192,34436,1,0,0:0:0:70:Vipa-01.ogg
448,192,34594,1,2,0:0:0:70:Vipa-02.ogg
64,192,34752,1,8,0:0:0:70:Vipa-01.ogg
192,192,34909,1,2,0:0:0:70:Vipa-02.ogg
320,192,35067,1,2,0:0:0:70:Vipa-03.ogg
448,192,35225,1,0,0:0:0:70:Vipa-04.ogg
192,192,35383,1,0,0:0:0:70:Vipa-03.ogg
320,192,35541,1,2,0:0:0:70:Vipa-04.ogg
64,192,35699,1,2,0:0:0:70:Vipa-05.ogg
192,192,35857,1,0,0:0:0:70:Vipa-07.ogg
448,192,36015,1,8,0:0:0:70:Vipa-05.ogg
320,192,36173,1,2,0:0:0:70:Vipa-07.ogg
64,192,36331,1,0,0:0:0:70:Vipa-12.ogg
192,192,36488,1,2,0:0:0:70:Vipa-13.ogg
448,192,36646,1,2,0:0:0:70:Vipa-08.ogg
64,192,37120,1,2,0:0:0:70:Vipa-07.ogg
192,192,37199,1,0,0:0:0:70:Vipa-08.ogg
64,192,37278,1,8,0:0:0:70:Vipa-07.ogg
320,192,37594,1,2,0:0:0:70:Vipa-12.ogg
448,192,37752,1,0,0:0:0:70:Vipa-13.ogg
192,192,37909,1,0,0:0:0:70:Vipa-08.ogg
64,192,38383,1,0,0:0:0:70:Vipa-07.ogg
192,192,38699,1,2,0:0:0:70:Vipa-05.ogg
320,192,38857,1,0,0:0:0:70:Vipa-06.ogg
448,192,39015,1,2,0:0:0:70:Vipa-03.ogg
320,192,39173,1,2,0:0:0:70:Vipa-04.ogg
64,192,39331,1,0,0:0:0:0:
320,192,39488,1,0,0:0:0:0:
192,192,39646,1,2,0:0:0:70:Vipa-01.ogg
448,192,39646,1,0,0:0:0:0:
320,192,39725,1,0,0:0:0:70:Vipa-02.ogg
448,192,39804,1,8,0:0:0:70:Vipa-03.ogg
320,192,39962,1,2,0:0:0:70:Vipa-05.ogg
64,192,39962,1,0,0:0:0:0:
192,192,40120,1,2,0:0:0:70:Vipa-07.ogg
320,192,40278,1,0,0:0:0:70:Vipa-08.ogg
448,192,40278,1,0,0:0:0:0:
64,192,40436,1,0,0:0:0:70:Vipa-04.ogg
192,192,40594,1,2,0:0:0:70:Vipa-05.ogg
320,192,40752,1,2,0:0:0:70:Vipa-07.ogg
448,192,40909,1,0,0:0:0:70:Vipa-08.ogg
192,192,41067,1,8,0:0:0:70:Vipa-07.ogg
320,192,41225,1,2,0:0:0:70:Vipa-08.ogg
448,192,41383,1,0,0:0:0:70:Vipa-07.ogg
320,192,41541,1,2,0:0:0:70:Vipa-03.ogg
192,192,41699,1,2,0:0:0:70:Vipa-04.ogg
64,192,42173,1,2,0:0:0:70:Vipa-08.ogg
64,192,42331,1,8,0:0:0:70:Vipa-08.ogg
192,192,42488,1,2,0:0:0:70:Vipa-13.ogg
320,192,42567,1,0,0:0:0:70:Vipa-12.ogg
192,192,42646,1,2,0:0:0:70:Vipa-07.ogg
320,192,42804,1,0,0:0:0:70:Vipa-08.ogg
320,192,42962,1,0,0:0:0:70:Vipa-08.ogg
448,192,43120,1,2,0:0:0:70:Vipa-12.ogg
320,192,43278,1,2,0:0:0:70:Vipa-13.ogg
448,192,43436,1,0,0:0:0:70:Vipa-14.ogg
320,192,43594,1,8,0:0:0:70:Vipa-15.ogg
192,192,43752,1,2,0:0:0:70:Vipa-13.ogg
64,192,43909,1,0,0:0:0:70:Vipa-12.ogg
320,192,44067,1,2,0:0:0:70:Vipa-13.ogg
64,192,44225,1,2,0:0:0:70:Vipa-16.ogg
192,192,44383,1,0,0:0:0:70:Vipa-17.ogg
320,192,44541,1,0,0:0:0:70:Vipa-18.ogg
448,192,44699,1,2,0:0:0:70:Vipa-19.ogg
64,192,44857,1,8,0:0:0:70:Vipa-20.ogg
192,192,45015,1,2,0:0:0:70:Vipa-17.ogg
320,192,45173,1,2,0:0:0:70:Vipa-21.ogg
448,192,45331,1,0,0:0:0:70:Vipa-22.ogg
64,192,45488,1,0,0:0:0:70:Vipa-23.ogg
192,192,45646,1,2,0:0:0:70:Vipa-24.ogg
320,192,45804,1,2,0:0:0:70:Vipa-25.ogg
448,192,45962,1,0,0:0:0:70:Vipa-26.ogg
64,192,46120,1,8,0:0:0:70:Vipa-27.ogg
320,192,46278,1,0,0:0:0:70:Vipa-28.ogg
192,192,46436,1,0,0:0:0:70:Vipa-29.ogg
64,192,46594,1,2,0:0:0:70:Vipa-30.ogg
192,192,46752,1,4,0:0:0:0:
320,192,46752,1,8,0:0:0:0:
448,192,46752,1,0,0:0:0:0:
320,192,46909,1,2,0:0:0:0:
192,192,47067,1,8,0:0:0:0:
448,192,47067,1,8,0:0:0:0:
64,192,47146,1,0,0:0:0:0:
192,192,47225,1,0,0:0:0:0:
320,192,47304,1,0,0:0:0:0:
448,192,47383,1,0,0:0:0:0:
320,192,47462,1,0,0:0:0:0:
448,192,47541,1,2,0:0:0:0:
320,192,47699,1,8,0:0:0:0:
192,192,47699,1,8,0:0:0:0:
64,192,47778,1,0,0:0:0:0:
192,192,47857,1,0,0:0:0:0:
64,192,47936,1,0,0:0:0:0:
448,192,48015,1,2,0:0:0:0:
320,192,48173,1,0,0:0:0:0:
64,192,48331,1,8,0:0:0:0:
192,192,48331,1,8,0:0:0:0:
320,192,48488,1,2,0:0:0:0:
320,192,48646,1,0,0:0:0:0:
448,192,48725,1,0,0:0:0:0:
320,192,48804,1,8,0:0:0:0:
192,192,48804,1,8,0:0:0:0:
64,192,48962,1,0,0:0:0:0:
192,192,49041,1,0,0:0:0:0:
64,192,49120,1,0,0:0:0:0:
192,192,49278,1,2,0:0:0:0:
192,192,49436,1,2,0:0:0:0:
448,192,49594,1,8,0:0:0:0:
64,192,49594,1,8,0:0:0:0:
320,192,49673,1,0,0:0:0:0:
192,192,49752,1,2,0:0:0:0:
320,192,49831,1,0,0:0:0:0:
192,192,49909,1,8,0:0:0:0:
64,192,49909,1,8,0:0:0:0:
448,192,50067,1,2,0:0:0:0:
320,192,50146,1,0,0:0:0:0:
448,192,50225,1,2,0:0:0:0:
64,192,50383,1,8,0:0:0:0:
320,192,50383,1,8,0:0:0:0:
192,192,50541,1,2,0:0:0:0:
320,192,50857,1,8,0:0:0:0:
448,192,50857,1,8,0:0:0:0:
192,192,51015,1,2,0:0:0:0:
320,192,51173,1,0,0:0:0:0:
192,192,51252,1,0,0:0:0:0:
64,192,51331,1,8,0:0:0:0:
320,192,51331,1,8,0:0:0:0:
192,192,51488,1,2,0:0:0:0:
320,192,51567,1,0,0:0:0:0:
192,192,51646,1,0,0:0:0:0:
320,192,51725,1,0,0:0:0:0:
192,192,51804,1,2,0:0:0:0:
192,192,51962,1,2,0:0:0:0:
320,192,52120,1,8,0:0:0:0:
448,192,52120,1,8,0:0:0:0:
64,192,52199,1,0,0:0:0:0:
448,192,52278,1,0,0:0:0:0:
64,192,52357,1,0,0:0:0:0:
448,192,52436,1,0,0:0:0:0:
64,192,52515,1,0,0:0:0:0:
192,192,52594,1,2,0:0:0:0:
320,192,52752,1,8,0:0:0:0:
64,192,52752,1,8,0:0:0:0:
192,192,52909,1,0,0:0:0:0:
64,192,52988,1,0,0:0:0:0:
320,192,53067,1,2,0:0:0:0:
448,192,53225,1,0,0:0:0:0:
320,192,53383,1,8,0:0:0:0:
192,192,53383,1,8,0:0:0:0:
64,192,53541,1,2,0:0:0:0:
192,192,53620,1,0,0:0:0:0:
64,192,53699,1,0,0:0:0:0:
192,192,53778,1,0,0:0:0:0:
64,192,53857,1,8,0:0:0:0:
448,192,53857,1,8,0:0:0:0:
320,192,54015,1,0,0:0:0:0:
448,192,54094,1,0,0:0:0:0:
320,192,54173,1,0,0:0:0:0:
448,192,54252,1,0,0:0:0:0:
192,192,54331,1,2,0:0:0:0:
192,192,54488,1,2,0:0:0:0:
64,192,54646,1,8,0:0:0:0:
448,192,54646,1,8,0:0:0:0:
192,192,54804,1,2,0:0:0:0:
64,192,55120,1,2,0:0:0:0:
192,192,55278,1,8,0:0:0:0:
448,192,55278,1,8,0:0:0:0:
192,192,55436,1,8,0:0:0:0:
448,192,55436,1,8,0:0:0:0:
320,192,55594,1,2,0:0:0:0:
192,192,55752,1,8,0:0:0:0:
64,192,55752,1,8,0:0:0:0:
64,192,55909,1,8,0:0:0:0:
192,192,55909,1,8,0:0:0:0:
320,192,56067,1,2,0:0:0:0:
448,192,56225,1,8,0:0:0:0:
64,192,56225,1,0,0:0:0:0:
448,192,56383,1,8,0:0:0:0:
64,192,56383,1,0,0:0:0:0:
192,192,56541,1,2,0:0:0:0:
320,192,56699,1,8,0:0:0:0:
64,192,56699,1,8,0:0:0:0:
192,192,56857,1,4,0:0:0:0:
448,192,56857,1,8,0:0:0:0:
64,192,56857,1,0,0:0:0:0:
192,192,57015,1,2,0:0:0:0:
64,192,57173,1,8,0:0:0:0:
320,192,57173,1,8,0:0:0:0:
448,192,57252,1,0,0:0:0:0:
320,192,57331,1,0,0:0:0:0:
192,192,57409,1,0,0:0:0:0:
64,192,57488,1,0,0:0:0:0:
192,192,57567,1,0,0:0:0:0:
320,192,57646,1,2,0:0:0:0:
192,192,57804,1,8,0:0:0:0:
448,192,57804,1,8,0:0:0:0:
320,192,57883,1,0,0:0:0:0:
192,192,57962,1,0,0:0:0:0:
320,192,58041,1,0,0:0:0:0:
64,192,58120,1,2,0:0:0:0:
64,192,58278,1,0,0:0:0:0:
192,192,58357,1,0,0:0:0:0:
320,192,58436,1,8,0:0:0:0:
448,192,58436,1,8,0:0:0:0:
64,192,58594,1,2,0:0:0:0:
320,192,58752,1,0,0:0:0:0:
192,192,58831,1,0,0:0:0:0:
448,192,58909,1,8,0:0:0:0:
320,192,58909,1,8,0:0:0:0:
64,192,59067,1,0,0:0:0:0:
320,192,59146,1,0,0:0:0:0:
192,192,59225,1,0,0:0:0:0:
320,192,59383,1,2,0:0:0:0:
320,192,59541,1,2,0:0:0:0:
192,192,59699,1,8,0:0:0:0:
64,192,59699,1,8,0:0:0:0:
320,192,59857,1,0,0:0:0:0:
448,192,59936,1,0,0:0:0:0:
320,192,60015,1,8,0:0:0:0:
192,192,60015,128,8,60488:0:0:0:0:
448,192,60488,1,8,0:0:0:0:
320,192,60488,1,8,0:0:0:0:
192,192,60646,1,2,0:0:0:0:
320,192,60804,1,0,0:0:0:0:
64,192,60962,1,8,0:0:0:0:
448,192,60962,1,8,0:0:0:0:
320,192,61120,1,2,0:0:0:0:
192,192,61278,1,0,0:0:0:0:
320,192,61357,1,0,0:0:0:0:
64,192,61436,1,8,0:0:0:0:
448,192,61436,1,8,0:0:0:0:
192,192,61594,1,2,0:0:0:0:
448,192,61673,1,0,0:0:0:0:
320,192,61752,1,0,0:0:0:0:
448,192,61831,1,0,0:0:0:0:
192,192,61909,1,2,0:0:0:0:
192,192,62067,1,2,0:0:0:0:
320,192,62225,1,8,0:0:0:0:
448,192,62225,1,8,0:0:0:0:
192,192,62304,1,0,0:0:0:0:
64,192,62383,1,0,0:0:0:0:
192,192,62462,1,0,0:0:0:0:
64,192,62541,1,0,0:0:0:0:
192,192,62620,1,0,0:0:0:0:
448,192,62699,1,2,0:0:0:0:
320,192,62857,1,8,0:0:0:0:
64,192,62857,1,8,0:0:0:0:
448,192,62936,1,0,0:0:0:0:
320,192,63015,1,0,0:0:0:0:
448,192,63094,1,0,0:0:0:0:
192,192,63173,1,2,0:0:0:0:
64,192,63331,1,0,0:0:0:0:
192,192,63488,1,8,0:0:0:0:
448,192,63488,1,8,0:0:0:0:
320,192,63646,1,2,0:0:0:0:
64,192,63725,1,0,0:0:0:0:
192,192,63804,1,0,0:0:0:0:
64,192,63883,1,0,0:0:0:0:
448,192,63962,1,8,0:0:0:0:
320,192,63962,1,8,0:0:0:0:
192,192,64120,1,0,0:0:0:0:
320,192,64199,1,0,0:0:0:0:
192,192,64278,1,0,0:0:0:0:
320,192,64357,1,0,0:0:0:0:
448,192,64436,1,2,0:0:0:0:
448,192,64594,1,2,0:0:0:0:
192,192,64752,1,8,0:0:0:0:
64,192,64752,1,8,0:0:0:0:
320,192,64909,1,2,0:0:0:0:
448,192,64988,1,0,0:0:0:0:
320,192,65067,1,0,0:0:0:0:
448,192,65146,1,0,0:0:0:0:
64,192,65225,1,2,0:0:0:0:
192,192,65383,1,8,0:0:0:0:
448,192,65383,1,8,0:0:0:0:
192,192,65541,1,8,0:0:0:0:
448,192,65541,1,8,0:0:0:0:
320,192,65699,1,2,0:0:0:0:
64,192,65857,1,8,0:0:0:0:
192,192,65857,1,8,0:0:0:0:
320,192,66015,1,8,0:0:0:0:
448,192,66015,1,8,0:0:0:0:
192,192,66173,1,2,0:0:0:0:
64,192,66331,1,8,0:0:0:0:
448,192,66331,1,8,0:0:0:0:
192,192,66409,1,8,0:0:0:0:
320,192,66409,1,0,0:0:0:0:
448,192,66488,1,8,0:0:0:0:
64,192,66488,1,0,0:0:0:0:
192,192,66646,1,10,0:0:0:0:
64,192,66804,1,8,0:0:0:0:
448,192,66804,1,8,0:0:0:0:
64,192,66962,1,8,0:0:0:0:
448,192,66962,1,4,0:0:0:0:
320,192,66962,128,12,68857:0:0:0:0:
192,192,67278,1,0,0:0:0:0:
64,192,67594,1,8,0:0:0:0:
192,192,67909,1,4,0:0:0:0:
448,192,68225,1,0,0:0:0:0:
192,192,68541,1,0,0:0:0:0:
448,192,68857,128,8,69488:0:0:0:0:
64,192,68857,1,8,0:0:0:0:
192,192,69173,1,0,0:0:0:0:
192,192,69488,128,4,70120:0:0:0:0:
320,192,69488,1,4,0:0:0:0:
448,192,69804,1,0,0:0:0:0:
64,192,70120,128,8,72015:0:0:0:0:
320,192,70120,1,8,0:0:0:0:
192,192,70436,1,4,0:0:0:0:
320,192,70752,1,0,0:0:0:0:
448,192,71067,1,0,0:0:0:0:
320,192,71383,1,8,0:0:0:0:
192,192,71699,128,0,72015:0:0:0:0:
448,192,72015,128,4,72804:0:0:0:0:
320,192,72015,1,4,0:0:0:0:
192,192,72331,1,0,0:0:0:0:
64,192,72646,1,8,0:0:0:0:
320,192,72804,1,0,0:0:0:0:
192,192,72883,1,0,0:0:0:0:
64,192,72962,128,4,73120:0:0:0:0:
320,192,73120,128,0,73278:0:0:0:0:
192,192,73278,128,0,75173:0:0:0:0:
448,192,73594,1,0,0:0:0:0:
320,192,73909,1,8,0:0:0:0:
64,192,74225,1,0,0:0:0:0:
448,192,74541,1,4,0:0:0:0:
64,192,74857,1,0,0:0:0:0:
320,192,75173,128,8,75488:0:0:0:0:
448,192,75173,1,8,0:0:0:0:
448,192,75488,128,4,75804:0:0:0:0:
64,192,75488,1,4,0:0:0:0:
64,192,75804,128,0,76120:0:0:0:0:
192,192,75804,1,0,0:0:0:0:
320,192,76120,128,0,76752:0:0:0:0:
448,192,76120,1,0,0:0:0:0:
192,192,76436,1,8,0:0:0:0:
448,192,76752,128,0,77067:0:0:0:0:
64,192,76752,1,0,0:0:0:0:
192,192,76909,1,2,0:0:0:0:
64,192,77067,128,8,78962:0:0:0:0:
320,192,77067,1,4,0:0:0:0:
320,192,77541,1,4,0:0:0:0:
192,192,77699,1,8,0:0:0:0:
448,192,77699,1,8,0:0:0:0:
320,192,77857,1,2,0:0:0:0:
320,192,78015,1,2,0:0:0:0:
320,192,78488,1,2,0:0:0:0:
320,192,78646,1,2,0:0:0:0:
192,192,78962,128,8,79594:0:0:0:0:
320,192,78962,1,8,0:0:0:0:
448,192,79120,1,2,0:0:0:0:
64,192,79436,1,2,0:0:0:0:
320,192,79594,128,2,80225:0:0:0:0:
64,192,79594,1,0,0:0:0:0:
448,192,80067,1,2,0:0:0:0:
448,192,80225,128,8,82120:0:0:0:0:
192,192,80225,1,8,0:0:0:0:
64,192,80383,1,2,0:0:0:0:
64,192,80541,1,2,0:0:0:0:
320,192,81015,1,2,0:0:0:0:
320,192,81173,1,2,0:0:0:0:
320,192,81488,1,8,0:0:0:0:
64,192,81488,1,8,0:0:0:0:
192,192,81646,1,2,0:0:0:0:
320,192,81804,128,0,82120:0:0:0:0:
64,192,81962,1,2,0:0:0:0:
192,192,82120,128,2,85278:0:0:0:0:
64,192,82120,1,0,0:0:0:0:
320,192,82594,1,2,0:0:0:0:
448,192,82752,1,8,0:0:0:0:
64,192,82752,1,8,0:0:0:0:
320,192,82909,1,2,0:0:0:0:
320,192,83067,1,2,0:0:0:0:
320,192,83541,1,2,0:0:0:0:
320,192,83699,1,2,0:0:0:0:
64,192,84015,1,8,0:0:0:0:
448,192,84015,1,8,0:0:0:0:
320,192,84173,1,2,0:0:0:0:
320,192,84488,1,2,0:0:0:0:
320,192,84646,1,2,0:0:0:0:
320,192,85120,1,2,0:0:0:0:
64,192,85278,1,8,0:0:0:0:
448,192,85278,1,8,0:0:0:0:
320,192,85436,1,2,0:0:0:0:
192,192,85594,1,2,0:0:0:0:
64,192,85594,1,0,0:0:0:0:
448,192,85752,1,0,0:0:0:0:
192,192,86067,1,0,0:0:0:0:
320,192,86067,1,2,0:0:0:0:
64,192,86363,1,0,0:0:0:0:
192,192,86383,1,0,0:0:0:0:
320,192,86699,1,2,0:0:0:0:
448,192,86699,1,0,0:0:0:0:
192,192,86857,1,0,0:0:0:0:
64,192,87015,1,2,0:0:0:0:
192,192,87173,1,4,0:0:0:0:
448,192,87173,1,8,0:0:0:0:
320,192,87252,1,0,0:0:0:0:
192,192,87331,1,2,0:0:0:0:
64,192,87409,1,0,0:0:0:0:
448,192,87488,1,8,0:0:0:0:
320,192,87567,1,0,0:0:0:0:
64,192,87646,1,0,0:0:0:0:
448,192,87725,1,0,0:0:0:0:
192,192,87804,1,0,0:0:0:0:
64,192,87883,1,2,0:0:0:0:
320,192,87962,1,0,0:0:0:0:
192,192,88041,1,0,0:0:0:0:
64,192,88120,1,8,0:0:0:0:
448,192,88199,1,0,0:0:0:0:
320,192,88278,1,0,0:0:0:0:
64,192,88357,1,0,0:0:0:0:
192,192,88436,1,2,0:0:0:0:
320,192,88515,1,0,0:0:0:0:
448,192,88594,1,0,0:0:0:0:
64,192,88673,1,0,0:0:0:0:
192,192,88752,1,8,0:0:0:0:
320,192,88831,1,0,0:0:0:0:
64,192,88909,1,2,0:0:0:0:
192,192,88988,1,0,0:0:0:0:
448,192,89067,1,0,0:0:0:0:
64,192,89146,1,0,0:0:0:0:
192,192,89225,1,8,0:0:0:0:
320,192,89304,1,0,0:0:0:0:
448,192,89383,1,0,0:0:0:0:
64,192,89462,1,0,0:0:0:0:
192,192,89541,1,0,0:0:0:0:
320,192,89620,1,0,0:0:0:0:
192,192,89699,1,2,0:0:0:0:
64,192,89778,1,0,0:0:0:0:
448,192,89857,1,2,0:0:0:0:
320,192,89936,1,0,0:0:0:0:
64,192,90015,1,8,0:0:0:0:
320,192,90094,1,0,0:0:0:0:
192,192,90173,1,2,0:0:0:0:
64,192,90252,1,0,0:0:0:0:
320,192,90331,1,8,0:0:0:0:
192,192,90409,1,0,0:0:0:0:
448,192,90488,1,2,0:0:0:0:
320,192,90567,1,0,0:0:0:0:
192,192,90646,1,2,0:0:0:0:
448,192,90725,1,0,0:0:0:0:
192,192,90804,1,8,0:0:0:0:
64,192,90883,1,0,0:0:0:0:
448,192,90962,1,2,0:0:0:0:
320,192,91041,1,0,0:0:0:0:
192,192,91120,1,0,0:0:0:0:
320,192,91199,1,8,0:0:0:0:
192,192,91278,1,0,0:0:0:0:
64,192,91357,1,0,0:0:0:0:
448,192,91436,1,2,0:0:0:0:
320,192,91515,1,0,0:0:0:0:
192,192,91594,1,0,0:0:0:0:
64,192,91673,1,0,0:0:0:0:
448,192,91752,1,8,0:0:0:0:
320,192,91831,1,0,0:0:0:0:
448,192,91909,1,2,0:0:0:0:
320,192,91988,1,0,0:0:0:0:
192,192,92067,1,0,0:0:0:0:
448,192,92146,1,0,0:0:0:0:
64,192,92225,1,2,0:0:0:0:
320,192,92304,1,0,0:0:0:0:
192,192,92383,1,2,0:0:0:0:
448,192,92462,1,0,0:0:0:0:
192,192,92541,1,8,0:0:0:0:
320,192,92620,1,0,0:0:0:0:
64,192,92699,1,0,0:0:0:0:
320,192,92778,1,0,0:0:0:0:
192,192,92857,1,0,0:0:0:0:
448,192,92936,1,0,0:0:0:0:
320,192,93015,1,2,0:0:0:0:
64,192,93094,1,0,0:0:0:0:
192,192,93173,1,2,0:0:0:0:
320,192,93252,1,0,0:0:0:0:
448,192,93331,1,0,0:0:0:0:
320,192,93409,1,0,0:0:0:0:
192,192,93488,1,8,0:0:0:0:
320,192,93567,1,0,0:0:0:0:
192,192,93646,1,0,0:0:0:0:
64,192,93725,1,0,0:0:0:0:
448,192,93804,1,8,0:0:0:0:
320,192,93883,1,0,0:0:0:0:
64,192,93962,1,2,0:0:0:0:
448,192,94041,1,0,0:0:0:0:
320,192,94120,1,0,0:0:0:0:
192,192,94199,1,0,0:0:0:0:
448,192,94278,1,8,0:0:0:0:
192,192,94357,1,0,0:0:0:0:
320,192,94436,1,0,0:0:0:0:
64,192,94515,1,0,0:0:0:0:
320,192,94594,1,0,0:0:0:0:
192,192,94673,1,0,0:0:0:0:
448,192,94752,1,2,0:0:0:0:
320,192,94831,1,0,0:0:0:0:
192,192,94909,1,2,0:0:0:0:
64,192,94988,1,0,0:0:0:0:
320,192,95067,1,8,0:0:0:0:
192,192,95146,1,0,0:0:0:0:
448,192,95225,1,2,0:0:0:0:
320,192,95304,1,0,0:0:0:0:
64,192,95383,1,0,0:0:0:0:
320,192,95462,1,0,0:0:0:0:
192,192,95541,1,2,0:0:0:0:
448,192,95620,1,0,0:0:0:0:
192,192,95699,1,8,0:0:0:0:
64,192,95778,1,0,0:0:0:0:
320,192,95857,1,8,0:0:0:0:
192,192,95936,1,0,0:0:0:0:
448,192,96015,1,2,0:0:0:0:
320,192,96094,1,0,0:0:0:0:
64,192,96173,1,8,0:0:0:0:
320,192,96252,1,0,0:0:0:0:
192,192,96331,1,8,0:0:0:0:
448,192,96409,1,0,0:0:0:0:
320,192,96488,1,2,0:0:0:0:
192,192,96567,1,0,0:0:0:0:
64,192,96646,1,8,0:0:0:0:
448,192,96725,1,0,0:0:0:0:
320,192,96804,1,8,0:0:0:0:
192,192,96883,1,0,0:0:0:0:
64,192,96962,1,2,0:0:0:0:
192,192,97041,1,0,0:0:0:0:
320,192,97120,1,8,0:0:0:0:
448,192,97199,1,0,0:0:0:0:
320,192,97278,1,8,0:0:0:0:
64,192,97278,1,4,0:0:0:0:
192,192,97436,1,2,0:0:0:0:
320,192,97594,1,8,0:0:0:0:
448,192,97594,1,8,0:0:0:0:
64,192,97752,1,0,0:0:0:0:
192,192,97831,1,0,0:0:0:0:
64,192,97909,1,0,0:0:0:0:
192,192,97988,1,0,0:0:0:0:
448,192,98067,1,2,0:0:0:0:
320,192,98225,1,8,0:0:0:0:
64,192,98225,1,8,0:0:0:0:
192,192,98383,1,0,0:0:0:0:
448,192,98541,1,2,0:0:0:0:
320,192,98699,1,0,0:0:0:0:
64,192,98699,1,0,0:0:0:0:
64,192,98857,1,8,0:0:0:0:
320,192,98857,1,8,0:0:0:0:
192,192,99015,1,2,0:0:0:0:
64,192,99173,1,0,0:0:0:0:
192,192,99331,1,8,0:0:0:0:
448,192,99331,1,0,0:0:0:0:
320,192,99488,1,0,0:0:0:0:
448,192,99646,1,0,0:0:0:0:
320,192,99804,1,2,0:0:0:0:
320,192,99962,1,2,0:0:0:0:
192,192,100120,1,8,0:0:0:0:
448,192,100120,1,8,0:0:0:0:
64,192,100278,1,0,0:0:0:0:
192,192,100357,1,0,0:0:0:0:
64,192,100436,1,0,0:0:0:0:
320,192,100436,1,0,0:0:0:0:
448,192,100594,1,0,0:0:0:0:
320,192,100752,1,0,0:0:0:0:
192,192,100909,1,8,0:0:0:0:
448,192,101067,1,2,0:0:0:0:
320,192,101225,1,0,0:0:0:0:
192,192,101383,1,8,0:0:0:0:
64,192,101541,1,2,0:0:0:0:
320,192,101699,1,0,0:0:0:0:
192,192,101857,1,8,0:0:0:0:
320,192,102015,1,2,0:0:0:0:
448,192,102173,1,0,0:0:0:0:
192,192,102331,1,2,0:0:0:0:
192,192,102804,1,0,0:0:0:0:
192,192,102962,1,0,0:0:0:0:
448,192,103120,1,2,0:0:0:0:
320,192,103199,1,0,0:0:0:0:
192,192,103278,1,8,0:0:0:0:
64,192,103436,1,0,0:0:0:0:
320,192,103594,1,2,0:0:0:0:
192,192,103752,1,0,0:0:0:0:
64,192,103909,1,8,0:0:0:0:
448,192,104067,1,2,0:0:0:0:
320,192,104225,1,0,0:0:0:0:
192,192,104383,1,8,0:0:0:0:
448,192,104541,1,0,0:0:0:0:
64,192,104699,1,0,0:0:0:0:
192,192,104857,1,2,0:0:0:0:
320,192,105015,1,2,0:0:0:0:
448,192,105173,1,8,0:0:0:0:
192,192,105331,1,2,0:0:0:0:
320,192,105488,1,0,0:0:0:0:
448,192,105646,1,2,0:0:0:0:
64,192,105804,1,8,0:0:0:0:
192,192,105962,1,8,0:0:0:0:
320,192,106120,1,2,0:0:0:0:
448,192,106278,1,8,0:0:0:0:
64,192,106436,1,8,0:0:0:0:
192,192,106594,1,2,0:0:0:0:
320,192,106752,1,8,0:0:0:0:
448,192,106909,1,8,0:0:0:0:
64,192,107067,1,2,0:0:0:0:
320,192,107225,1,8,0:0:0:0:
192,192,107383,1,8,0:0:0:0:
448,192,107383,1,4,0:0:0:0:
64,192,107383,1,4,0:0:0:0:
320,192,107699,1,0,0:0:0:0:
192,192,108015,128,0,108331:0:0:0:0:
64,192,108331,1,0,0:0:0:0:
320,192,108962,1,0,0:0:0:0:
64,192,109278,1,0,0:0:0:0:
64,192,109436,1,0,0:0:0:0:
448,192,109594,1,0,0:0:0:0:
448,192,109752,1,0,0:0:0:0:
64,192,109909,1,2,0:0:0:0:
192,192,110225,1,0,0:0:0:0:
448,192,110541,128,0,110857:0:0:0:0:
320,192,110857,1,0,0:0:0:0:
320,192,111488,1,0,0:0:0:0:
192,192,111804,1,0,0:0:0:0:
192,192,111962,1,0,0:0:0:0:
448,192,112120,1,0,0:0:0:0:
448,192,112278,1,0,0:0:0:0:
64,192,112436,1,2,0:0:0:0:
320,192,112752,1,0,0:0:0:0:
192,192,113067,128,0,113383:0:0:0:0:
320,192,113383,1,0,0:0:0:0:
320,192,114015,1,0,0:0:0:0:
64,192,114331,1,0,0:0:0:0:
64,192,114488,1,0,0:0:0:0:
448,192,114646,1,0,0:0:0:0:
448,192,114804,1,0,0:0:0:0:
320,192,114962,1,2,0:0:0:0:
64,192,115278,1,0,0:0:0:0:
192,192,115594,128,0,115909:0:0:0:0:
64,192,115909,1,0,0:0:0:0:
64,192,116541,1,0,0:0:0:0:
448,192,116857,1,0,0:0:0:0:
448,192,117015,1,0,0:0:0:0:
192,192,117173,1,0,0:0:0:0:
192,192,117331,1,0,0:0:0:0:
320,192,117488,1,8,0:0:0:0:
448,192,117488,1,4,0:0:0:0:
64,192,117488,1,4,0:0:0:0:
