osu file format v14

[General]
AudioFilename: ---[M2U] Music to You.mp3
AudioLeadIn: 0
PreviewTime: 270820
Countdown: 0
SampleSet: None
StackLeniency: 0.7
Mode: 0
LetterboxInBreaks: 1
WidescreenStoryboard: 1

[Editor]
DistanceSpacing: 1
BeatDivisor: 2
GridSize: 8
TimelineZoom: 1

[Metadata]
Title:Music to You
TitleUnicode:Music to You
Artist:M2U
ArtistUnicode:M2U
Creator:Kevin97
Version:Normal
Source:
Tags:
BeatmapID:642141
BeatmapSetID:274529

[Difficulty]
HPDrainRate:3
CircleSize:2.5
OverallDifficulty:5
ApproachRate:5
SliderMultiplier:1.4
SliderTickRate:1

[Events]
//Background and Video events
0,0,"m2u.jpg",0,0
//Break Periods
2,31485,45089
2,46489,52589
2,53989,60089
2,76489,82589
//Storyboard Layer 0 (Background)
//Storyboard Layer 1 (Fail)
//Storyboard Layer 2 (Pass)
//Storyboard Layer 3 (Foreground)
//Storyboard Sound Samples

[TimingPoints]
1289,468.75,4,1,0,100,1,0
19101,-133.333333333333,4,1,0,100,0,0
28945,-200,4,1,0,100,0,0
46289,-100,4,3,0,100,0,0
61054,-100,4,1,0,100,0,0
74414,-55.5555555555556,4,1,0,100,0,0
76289,-50,4,1,0,100,0,0
82382,-66.6666666666667,4,1,0,100,0,0
83320,-50,4,1,0,100,0,0
91289,-100,4,1,0,100,0,0
93164,-83.3333333333333,4,1,0,100,0,0
96914,-66.6666666666667,4,1,0,100,0,0
98789,-100,4,1,0,100,0,0
100664,-83.3333333333333,4,1,0,100,0,0
104414,-66.6666666666667,4,1,0,100,0,0
162539,-200,4,1,0,100,0,0
171445,-100,4,1,0,100,0,0
211289,-100,4,1,0,100,0,0
224414,-66.6666666666667,4,1,0,100,0,0

[HitObjects]
136,96,12539,5,0,0:0:0:0:
136,96,13242,1,0,0:0:0:0:
256,192,13945,5,0,0:0:0:0:
256,192,14648,1,0,0:0:0:0:
136,296,15351,6,0,B|88:256|136:216|136:216|96:176,2,140
136,296,16992,1,0,0:0:0:0:
240,296,17695,1,0,0:0:0:0:
328,232,19101,6,0,L|400:232,3,52.5000020027161
424,232,20039,1,0,0:0:0:0:
328,232,20742,1,0,0:0:0:0:
272,192,21445,1,0,0:0:0:0:
200,232,22148,1,0,0:0:0:0:
104,240,22851,6,0,P|120:296|264:320,1,210.000008010865
200,256,24492,1,0,0:0:0:0:
304,144,25195,1,0,0:0:0:0:
184,56,26601,6,0,P|208:152|112:192,1,210.000008010865
144,120,28242,1,0,0:0:0:0:
256,192,28945,2,0,B|304:360|304:360|304:360|304:360|352:192|352:192|352:192,1,350
368,88,46289,5,0,0:0:0:0:
136,288,53789,5,0,0:0:0:0:
144,96,61289,6,0,L|288:96,2,140
144,96,62460,1,0,0:0:0:0:
224,168,62929,6,0,P|272:192|192:264,2,210
224,168,64570,1,0,0:0:0:0:
88,168,65039,1,0,0:0:0:0:
160,272,65507,5,0,0:0:0:0:
192,272,65742,1,0,0:0:0:0:
224,272,65976,1,0,0:0:0:0:
312,272,66445,5,0,0:0:0:0:
312,160,66914,1,0,0:0:0:0:
208,160,67382,1,0,0:0:0:0:
208,272,67851,1,0,0:0:0:0:
168,272,68085,1,0,0:0:0:0:
136,272,68320,1,0,0:0:0:0:
104,272,68554,2,0,L|32:272,1,70
112,104,69257,6,0,P|152:128|224:80,2,140
112,104,70429,1,0,0:0:0:0:
112,104,70664,1,0,0:0:0:0:
184,192,71132,5,0,0:0:0:0:
296,192,71601,1,0,0:0:0:0:
336,192,71835,1,0,0:0:0:0:
368,192,72070,1,0,0:0:0:0:
408,192,72304,2,0,L|480:192,1,70
488,248,72773,6,0,L|480:336,3,70
400,352,73710,2,0,L|393:282,3,70
400,200,74882,1,0,0:0:0:0:
264,312,75351,1,0,0:0:0:0:
144,200,75820,1,0,0:0:0:0:
264,80,76289,1,0,0:0:0:0:
256,192,83789,12,0,87539,0:0:0:0:
320,104,90820,5,0,0:0:0:0:
320,104,91289,6,0,B|344:136|344:136|336:104|336:104|352:112|352:112|336:160,2,140
248,104,92460,1,0,0:0:0:0:
176,104,92695,1,0,0:0:0:0:
176,176,92929,1,0,0:0:0:0:
248,176,93164,6,0,B|248:208|248:208|256:192|256:192|256:208|256:208|264:192|264:192|264:288,2,167.999994873047
248,96,94335,1,0,0:0:0:0:
320,96,94570,1,0,0:0:0:0:
320,168,94804,1,0,0:0:0:0:
248,168,95039,6,0,L|136:168,3,83.9999974365235
200,248,95976,2,0,L|88:248,3,83.9999974365235
152,328,96914,6,0,B|192:352|192:352|224:328|224:328|272:352|272:352|312:336|312:336|344:352,2,210.000008010865
88,272,98320,2,0,P|48:232|88:96,1,210.000008010865
192,96,99257,6,0,P|144:168|200:272,1,210
224,280,100195,1,0,0:0:0:0:
256,304,100429,1,0,0:0:0:0:
288,328,100664,1,0,0:0:0:0:
384,216,101132,5,0,0:0:0:0:
279,161,101601,1,0,0:0:0:0:
231,146,101835,1,0,0:0:0:0:
232,96,102070,1,0,0:0:0:0:
279,80,102304,1,0,0:0:0:0:
309,121,102539,1,0,0:0:0:0:
