osu file format v14

[General]
AudioFilename: ---[M2U] Music to You.mp3
AudioLeadIn: 0
PreviewTime: 270820
Countdown: 0
SampleSet: Normal
StackLeniency: 0.7
Mode: 0
LetterboxInBreaks: 1
WidescreenStoryboard: 1

[Editor]
DistanceSpacing: 1
BeatDivisor: 4
GridSize: 8
TimelineZoom: 1

[Metadata]
Title:Music to You
TitleUnicode:Music to You
Artist:M2U
ArtistUnicode:M2U
Creator:Kevin97
Version:Insane
Source:
Tags:
BeatmapID:627893
BeatmapSetID:274529

[Difficulty]
HPDrainRate:7
CircleSize:4
OverallDifficulty:7
ApproachRate:9
SliderMultiplier:2
SliderTickRate:1

[Events]
//Background and Video events
0,0,"m2u.jpg",0,0
//Break Periods
2,46489,60454
2,136489,161939
2,179145,180454
2,188988,195689
2,207738,270689
2,293519,298579
//Storyboard Layer 0 (Background)
//Storyboard Layer 1 (Fail)
//Storyboard Layer 2 (Pass)
//Storyboard Layer 3 (Foreground)
//Storyboard Sound Samples

[TimingPoints]
1289,468.75,4,1,0,100,1,0
31757,-200,4,2,0,100,0,0
46289,-100,4,3,0,100,0,0
61054,-66.6666666666667,4,1,0,100,0,0
82382,-66.6666666666667,4,1,0,100,0,0
83320,-50,4,1,0,100,0,0
91289,-66.6666666666667,4,1,0,100,0,0
93164,-66.6666666666667,4,1,0,100,0,0
96914,-66.6666666666667,4,1,0,100,0,0
98789,-100,4,1,0,100,0,0
103710,-66.6666666666667,4,1,0,100,0,0
104414,-66.6666666666667,4,1,0,100,0,0
113716,-50,4,1,0,100,0,0
114257,-100,4,1,0,100,0,0
115664,-50,4,1,0,100,0,0
116132,-100,4,1,0,100,0,0
118476,-66.6666666666667,4,1,0,100,0,0
126679,-50,4,1,0,100,0,0
128789,-66.6666666666667,4,1,0,100,0,0
162539,-50,4,1,0,100,0,0
163242,-200,4,1,0,100,0,0
163945,-50,4,1,0,100,0,0
164648,-133.333333333333,4,1,0,100,0,0
165820,-66.6666666666667,4,1,0,100,0,0
166289,-200,4,1,0,100,0,0
173320,-66.6666666666667,4,1,0,100,0,0
173789,-200,4,1,0,100,0,0
181054,-100,4,1,0,100,0,0
206367,-66.6666666666667,4,1,0,100,0,0
206835,-50,4,1,0,100,0,0
271289,-50,4,1,0,100,0,0
299179,-200,4,1,0,100,0,0
299414,-117.647058823529,4,1,0,100,0,0

[HitObjects]
112,96,12539,6,0,P|184:112|216:232,1,200
112,96,13242,1,0,0:0:0:0:
216,224,13945,6,0,P|288:208|320:88,1,200
216,224,14648,1,0,0:0:0:0:
344,272,15234,6,0,L|392:272,4,25
264,272,15585,1,0,0:0:0:0:
192,240,15703,1,0,0:0:0:0:
144,184,15820,1,0,0:0:0:0:
296,64,16054,1,0,0:0:0:0:
192,240,16289,6,0,B|240:264|240:264|208:352|208:352|144:320,1,200
72,240,16992,6,0,B|120:136|168:288|232:288|304:280|304:160,1,300
288,56,18867,5,0,0:0:0:0:
288,56,19101,2,0,P|184:80|112:144,1,200
115,139,19804,1,0,0:0:0:0:
168,240,20039,6,0,B|224:312|224:312|224:184,1,200
160,176,20742,2,0,B|68:177|68:177|168:97,1,200
152,109,21445,5,0,0:0:0:0:
328,72,21914,1,0,0:0:0:0:
328,72,22148,6,0,L|480:224,1,200
448,288,22734,6,0,L|424:336,1,50
392,240,22968,6,0,L|368:192,1,50
336,288,23203,6,0,L|312:336,1,50
176,304,23554,1,0,0:0:0:0:
96,240,23789,6,0,B|144:184|208:184|272:240,1,200
96,240,24492,1,0,0:0:0:0:
96,240,25195,1,0,0:0:0:0:
256,56,26367,5,0,0:0:0:0:
256,56,26601,2,0,B|304:112|304:112|264:192|264:192|336:192,1,200
336,192,27304,1,0,0:0:0:0:
256,304,27539,6,0,P|152:304|64:256,1,200
160,232,28242,2,0,P|240:232|368:192,1,200
256,80,28945,5,0,0:0:0:0:
256,192,29414,12,0,31289,0:0:0:0:
264,160,31757,6,0,B|304:160|304:160|304:96|304:96|360:96,1,150
264,160,32929,5,0,0:0:0:0:
216,304,33398,1,0,0:0:0:0:
264,160,33867,1,0,0:0:0:0:
376,72,34335,6,0,P|392:96|392:136,1,50
336,200,34804,2,0,P|320:176|320:136,1,50
296,48,35273,5,0,0:0:0:0:
296,48,35507,1,0,0:0:0:0:
208,112,35742,2,0,L|208:176,2,50
128,48,36679,6,0,P|96:136|120:200,1,150
111,186,37617,1,0,0:0:0:0:
257,188,38085,6,0,L|280:144,1,50
152,96,39257,5,0,0:0:0:0:
152,96,39726,2,0,L|152:168,1,50
152,288,40429,5,0,0:0:0:0:
360,288,40898,1,0,0:0:0:0:
360,96,41367,1,0,0:0:0:0:
152,96,41835,1,0,0:0:0:0:
152,96,42070,2,0,L|224:96,1,50
360,96,42773,2,0,L|296:96,1,50
152,96,43242,6,0,P|112:144|112:192,2,100
256,192,44648,1,0,0:0:0:0:
344,96,45117,1,0,0:0:0:0:
256,192,45585,1,0,0:0:0:0:
168,96,46054,1,0,0:0:0:0:
96,184,46289,5,0,0:0:0:0:
160,104,61054,5,0,0:0:0:0:
272,208,61289,2,0,P|272:256|168:304,1,150.000005722046
144,304,61640,1,0,0:0:0:0:
112,280,61757,2,0,P|64:208|64:144,1,150.000005722046
96,168,62109,1,0,0:0:0:0:
136,192,62226,2,0,P|224:184|280:112,2,150.000005722046
208,64,62929,5,0,0:0:0:0:
256,64,63046,1,0,0:0:0:0:
304,64,63164,1,0,0:0:0:0:
256,176,63398,1,0,0:0:0:0:
208,176,63515,1,0,0:0:0:0:
160,176,63632,1,0,0:0:0:0:
256,280,63867,1,0,0:0:0:0:
304,280,63984,1,0,0:0:0:0:
352,280,64101,1,0,0:0:0:0:
432,200,64335,5,0,0:0:0:0:
432,160,64453,1,0,0:0:0:0:
432,120,64570,1,0,0:0:0:0:
336,40,64804,5,0,0:0:0:0:
336,80,64921,1,0,0:0:0:0:
336,120,65039,1,0,0:0:0:0:
256,200,65273,6,0,L|192:256,1,75.0000028610231
176,264,65507,2,0,P|96:224|104:160,1,150.000005722046
176,264,65976,2,0,P|136:344|80:336,2,150.000005722046
80,184,66679,2,0,P|128:120|232:104,1,150.000005722046
232,168,67148,2,0,L|320:168,1,75.0000028610231
336,168,67382,2,0,P|384:232|336:288,1,150.000005722046
248,248,67851,2,0,P|200:192|232:104,1,150.000005722046
296,56,68320,5,0,0:0:0:0:
144,56,68554,1,0,0:0:0:0:
216,176,68789,5,0,0:0:0:0:
360,176,69023,2,0,L|360:256,1,75.0000028610231
360,280,69257,2,0,P|224:312|160:304,1,150.000005722046
152,288,69609,1,0,0:0:0:0:
168,224,69726,2,0,P|304:192|368:200,1,150.000005722046
248,56,70195,6,0,P|192:120|120:136,1,150.000005722046
40,184,70664,2,0,P|104:240|168:264,1,150.000005722046
216,200,71132,2,0,P|272:184|384:208,1,150.000005722046
216,288,71601,5,0,0:0:0:0:
216,200,71835,1,0,0:0:0:0:
304,336,72070,1,0,0:0:0:0:
304,136,72304,1,0,0:0:0:0:
304,240,72539,1,0,0:0:0:0:
144,240,72773,5,0,0:0:0:0:
272,184,73007,1,0,0:0:0:0:
32,136,73242,1,0,0:0:0:0:
288,32,73476,1,0,0:0:0:0:
288,32,73710,1,0,0:0:0:0:
144,240,73945,1,0,0:0:0:0:
256,192,74179,6,0,B|296:256|296:256|416:256,1,150.000005722046
256,192,74648,2,0,B|216:128|216:128|96:128,1,150.000005722046
26,192,75117,2,0,B|66:128|66:128|141:128,1,150.000005722046
26,192,75585,2,0,B|66:256|66:256|141:256,1,150.000005722046
254,192,76054,2,0,B|180:192|180:192|140:256,1,150.000005722046
256,344,76523,5,0,0:0:0:0:
256,344,76640,1,0,0:0:0:0:
256,344,76757,1,0,0:0:0:0:
400,192,76992,5,0,0:0:0:0:
400,192,77109,1,0,0:0:0:0:
400,192,77226,1,0,0:0:0:0:
256,40,77460,5,0,0:0:0:0:
256,40,77577,1,0,0:0:0:0:
256,40,77694,1,0,0:0:0:0:
256,192,77929,6,0,B|168:192|168:192|112:128,1,150.000005722046
56,40,78398,5,0,0:0:0:0:
56,40,78515,1,0,0:0:0:0:
56,40,78632,1,0,0:0:0:0:
96,192,78867,5,0,0:0:0:0:
96,192,78984,1,0,0:0:0:0:
96,192,79101,1,0,0:0:0:0:
256,192,79336,5,0,0:0:0:0:
256,192,79453,1,0,0:0:0:0:
256,192,79570,1,0,0:0:0:0:
312,40,79804,6,0,B|368:40|368:40|416:128,1,150.000005722046
448,200,80273,5,0,0:0:0:0:
448,200,80390,1,0,0:0:0:0:
448,200,80507,1,0,0:0:0:0:
336,328,80742,5,0,0:0:0:0:
336,328,80859,1,0,0:0:0:0:
336,328,80976,1,0,0:0:0:0:
232,192,81210,5,0,0:0:0:0:
232,192,81327,1,0,0:0:0:0:
232,192,81444,1,0,0:0:0:0:
160,40,81679,6,0,B|80:40|80:40|40:112,1,150.000005722046
160,192,82148,5,0,0:0:0:0:
160,192,82265,1,0,0:0:0:0:
160,192,82382,1,0,0:0:0:0:
360,200,82617,5,0,0:0:0:0:
360,200,82734,1,0,0:0:0:0:
360,200,82851,1,0,0:0:0:0:
256,328,83085,5,0,0:0:0:0:
256,328,83202,1,0,0:0:0:0:
256,328,83319,1,0,0:0:0:0:
160,192,83554,6,0,L|24:192,2,100
160,192,84023,2,0,L|64:144,2,100
160,192,84492,2,0,L|96:112,2,100
160,192,84960,2,0,L|136:88,2,100
160,192,85429,2,0,L|184:80,2,100
160,192,85898,2,0,L|224:112,2,100
224,224,86367,2,0,L|288:144,2,100
288,256,86835,2,0,L|352:176,2,100
352,288,87304,2,0,L|416:208,1,100
464,112,87539,1,0,0:0:0:0:
256,192,87773,12,0,90820,0:0:0:0:
208,136,91289,5,0,0:0:0:0:
256,88,91523,1,0,0:0:0:0:
328,88,91757,1,0,0:0:0:0:
368,144,91992,1,0,0:0:0:0:
360,224,92226,6,0,P|392:248|448:232,1,75.0000028610231
304,184,92460,2,0,P|264:192|224:232,1,75.0000028610231
304,256,92695,2,0,P|299:295|341:336,1,75.0000028610231
376,368,92929,1,0,0:0:0:0:
464,224,93164,5,0,0:0:0:0:
424,288,93398,1,0,0:0:0:0:
352,288,93632,1,0,0:0:0:0:
320,224,93867,1,0,0:0:0:0:
467,152,94101,6,0,L|392:152,1,75.0000028610231
317,152,94335,2,0,L|392:152,1,75.0000028610231
392,77,94570,2,0,L|392:152,1,75.0000028610231
392,240,94804,1,0,0:0:0:0:
184,304,95039,5,0,0:0:0:0:
256,304,95273,2,0,L|80:304,1,150.000005722046
105,304,95624,1,0,0:0:0:0:
105,304,95742,1,0,0:0:0:0:
328,80,95976,5,0,0:0:0:0:
256,80,96210,2,0,L|432:80,1,150.000005722046
406,80,96561,1,0,0:0:0:0:
406,80,96679,1,0,0:0:0:0:
416,192,96914,6,0,P|384:248|296:288,2,150.000005722046
416,168,97499,1,0,0:0:0:0:
416,136,97617,1,0,0:0:0:0:
416,104,97734,1,0,0:0:0:0:
416,64,97851,2,0,L|328:64,1,75.0000028610231
344,104,98085,2,0,L|240:104,1,75.0000028610231
272,144,98320,2,0,L|168:144,2,75.0000028610231
328,256,98789,6,0,P|264:264|208:320,1,100
112,296,99257,2,0,P|56:256|48:200,1,100
128,72,99726,6,0,L|160:144,1,50
288,72,99960,2,0,L|256:144,1,50
208,200,100195,2,0,L|208:272,1,50
208,344,100429,2,0,P|280:336|320:288,2,100
208,344,101132,2,0,P|136:336|96:288,2,100
280,304,101718,1,0,0:0:0:0:
336,248,101835,1,0,0:0:0:0:
384,184,101953,1,0,0:0:0:0:
416,112,102070,1,0,0:0:0:0:
376,40,102187,2,0,L|320:80,1,50
256,192,102539,6,0,B|256:136|256:136|200:136,2,100
208,248,103124,2,0,L|160:288,1,50
304,248,103359,2,0,L|352:288,1,50
256,304,103710,2,0,B|216:256|304:216|240:136,1,150
256,64,104179,6,0,L|104:96,1,150.000005722046
256,64,104648,2,0,L|408:96,1,150.000005722046
480,192,105117,6,0,L|400:192,1,75.0000028610231
328,256,105351,2,0,L|424:256,1,75.0000028610231
328,328,105585,2,0,L|232:328,1,75.0000028610231
176,256,105820,2,0,L|272:256,1,75.0000028610231
176,336,106054,1,0,0:0:0:0:
80,272,106289,6,0,P|56:200|88:112,1,150.000005722046
144,48,106757,2,0,P|232:104|320:80,1,150.000005722046
416,112,107226,6,0,L|416:192,1,75.0000028610231
264,184,107460,2,0,L|264:272,1,75.0000028610231
416,256,107695,2,0,L|416:352,1,75.0000028610231
264,336,107929,2,0,B|232:264|192:376|112:232,1,150.000005722046
139,274,108281,1,0,0:0:0:0:
139,274,108398,1,0,0:0:0:0:
40,176,108632,5,0,0:0:0:0:
40,176,108749,1,0,0:0:0:0:
40,176,108867,1,0,0:0:0:0:
128,88,109101,5,0,0:0:0:0:
136,144,109218,1,0,0:0:0:0:
176,184,109335,1,0,0:0:0:0:
232,184,109453,1,0,0:0:0:0:
272,144,109570,1,0,0:0:0:0:
288,200,109687,1,0,0:0:0:0:
328,240,109804,1,0,0:0:0:0:
400,272,110039,6,0,P|424:216|392:128,1,150.000005722046
336,80,110507,2,0,L|376:160,1,75.0000028610231
272,144,110742,2,0,L|232:224,1,75.0000028610231
192,280,110976,1,0,0:0:0:0:
400,272,111210,1,0,0:0:0:0:
248,208,111445,1,0,0:0:0:0:
336,208,111679,2,0,P|312:288|376:352,1,150.000005722046
237,338,112148,6,0,P|273:275|248:208,1,150.000005722046
216,184,112499,1,0,0:0:0:0:
176,168,112617,1,0,0:0:0:0:
144,144,112734,1,0,0:0:0:0:
128,104,112851,2,0,L|128:24,1,75.0000028610231
200,32,113085,2,0,L|200:112,1,75.0000028610231
272,112,113320,2,0,L|272:24,1,75.0000028610231
344,40,113554,1,0,0:0:0:0:
472,208,113789,6,0,P|384:304|304:312,1,200
312,220,114257,2,0,P|357:201|386:161,1,100
344,40,114726,6,0,L|292:88,1,50
168,40,114960,2,0,L|220:88,1,50
280,148,115195,5,0,0:0:0:0:
336,196,115312,1,0,0:0:0:0:
272,216,115429,1,0,0:0:0:0:
40,208,115664,6,0,P|128:304|208:312,1,200
200,220,116132,2,0,P|154:201|125:161,1,100
168,40,116601,6,0,L|220:88,1,50
344,40,116835,2,0,L|292:88,1,50
232,148,117070,5,0,0:0:0:0:
176,196,117187,1,0,0:0:0:0:
240,216,117304,1,0,0:0:0:0:
360,256,117539,5,0,0:0:0:0:
360,112,117773,1,0,0:0:0:0:
264,312,118007,6,0,L|328:312,1,50
360,224,118242,2,0,L|296:224,1,50
248,144,118476,2,0,P|200:160|248:152,2,150.000005722046
248,144,119179,6,0,L|288:144,5,25.0000009536744
256,192,119414,12,0,120820,0:0:0:0:
112,88,121054,5,0,0:0:0:0:
136,104,121171,1,0,0:0:0:0:
160,120,121289,2,0,B|232:176|232:176|192:248,1,150.000005722046
112,304,121757,6,0,P|128:272|176:248,1,75.0000028610231
232,272,121992,2,0,P|216:304|168:328,1,75.0000028610231
160,256,122226,2,0,P|192:192|160:120,1,150.000005722046
152,112,122578,1,0,0:0:0:0:
136,96,122695,1,0,0:0:0:0:
120,80,122812,1,0,0:0:0:0:
40,112,122929,6,0,L|112:184,2,75.0000028610231
152,112,123398,6,0,L|224:184,2,75.0000028610231
256,112,123867,6,0,L|328:184,2,75.0000028610231
392,216,124335,5,0,0:0:0:0:
416,280,124453,1,0,0:0:0:0:
360,320,124570,1,0,0:0:0:0:
304,280,124687,1,0,0:0:0:0:
328,216,124804,1,0,0:0:0:0:
360,264,125039,6,0,L|440:136,2,150.000005722046
344,280,125624,1,0,0:0:0:0:
328,296,125742,1,0,0:0:0:0:
312,312,125859,1,0,0:0:0:0:
296,328,125976,2,0,L|136:328,2,150.000005722046
296,328,126679,6,0,P|248:256|304:160,1,200
288,168,127148,2,0,P|206:217|123:170,1,200
123,170,127617,2,0,P|171:242|115:338,1,200
80,248,128085,5,0,0:0:0:0:
336,248,128320,1,0,0:0:0:0:
208,104,128554,1,0,0:0:0:0:
432,112,128789,6,0,L|360:160,1,75.0000028610231
312,112,129023,2,0,L|249:153,1,75.0000028610231
176,152,129257,6,0,B|192:240|192:240|112:304,1,150.000005722046
128,288,129609,1,0,0:0:0:0:
112,296,129726,1,0,0:0:0:0:
96,304,129843,1,0,0:0:0:0:
80,312,129960,2,0,L|248:312,1,150.000005722046
304,312,130429,5,0,0:0:0:0:
376,312,130664,2,0,L|208:312,1,150.000005722046
456,240,131132,2,0,L|288:240,1,150.000005722046
456,160,131601,1,0,0:0:0:0:
424,128,131718,1,0,0:0:0:0:
392,136,131835,1,0,0:0:0:0:
392,176,131953,1,0,0:0:0:0:
384,208,132070,1,0,0:0:0:0:
360,232,132187,1,0,0:0:0:0:
328,232,132304,1,0,0:0:0:0:
144,88,132539,5,0,0:0:0:0:
144,88,132773,2,0,L|256:192,1,150.000005722046
368,296,133242,2,0,L|256:192,1,150.000005722046
144,296,133710,2,0,L|256:192,1,150.000005722046
448,40,134179,6,0,B|401:44|387:72|420:115|420:115|406:144|406:144|348:151,1,150.000005722046
64,344,134648,2,0,B|110:339|124:311|91:268|91:268|105:239|105:239|163:232,1,150.000005722046
296,184,135117,2,0,P|315:248|247:275,1,150.000005722046
248,312,135468,5,0,0:0:0:0:
248,352,135585,2,0,L|248:264,1,75.0000028610231
176,232,135820,2,0,L|176:320,1,75.0000028610231
112,352,136054,5,0,0:0:0:0:
256,192,136289,1,0,0:0:0:0:
216,176,162539,6,0,P|128:248|216:184,1,400
148,180,163242,6,0,L|260:208,1,100
336,212,163945,6,0,P|424:140|336:204,1,400
408,208,164648,6,0,P|344:248|328:324,1,150.000005722046
320,296,165234,1,0,0:0:0:0:
300,276,165351,1,0,0:0:0:0:
272,268,165468,1,0,0:0:0:0:
244,272,165585,1,0,0:0:0:0:
228,296,165703,1,0,0:0:0:0:
220,320,165820,6,0,P|188:352|100:296,1,150.000005722046
220,168,166289,6,0,L|220:340,1,150.000005722046
220,320,167226,1,0,0:0:0:0:
320,236,167460,1,0,0:0:0:0:
216,168,167695,6,0,P|216:252|76:252,1,250
216,168,169101,6,0,L|380:168,1,150
216,168,170039,6,0,L|128:248,1,100
364,168,170742,2,0,L|452:88,1,100
288,264,171445,2,0,L|288:144,1,100
288,264,172148,6,0,B|263:168|216:260|184:184,1,125
192,168,172851,2,0,L|192:124,1,25
120,140,173085,2,0,L|120:168,1,25
48,172,173320,2,0,B|48:248|48:248|128:284,1,150.000005722046
276,300,173789,6,0,B|276:248|304:248|304:304|336:304|336:248|364:248|364:308,1,150
276,300,174726,1,0,0:0:0:0:
276,192,174960,1,0,0:0:0:0:
204,248,175195,6,0,B|144:248|72:208|144:160|208:160,1,200
204,248,176367,1,0,0:0:0:0:
112,208,176601,6,0,B|64:208|64:208|132:208,1,100
176,104,177304,1,0,0:0:0:0:
260,200,177539,6,0,P|264:264|180:312,2,150
176,64,181054,6,0,L|320:64,1,100
344,64,181523,1,0,0:0:0:0:
416,64,181640,1,0,0:0:0:0:
416,136,181757,1,0,0:0:0:0:
344,136,181992,5,0,0:0:0:0:
344,176,182109,1,0,0:0:0:0:
384,176,182226,1,0,0:0:0:0:
424,176,182343,1,0,0:0:0:0:
424,216,182460,1,0,0:0:0:0:
424,248,182578,1,0,0:0:0:0:
424,288,182695,1,0,0:0:0:0:
144,352,182929,5,0,0:0:0:0:
216,352,183046,1,0,0:0:0:0:
288,352,183164,1,0,0:0:0:0:
224,280,183398,5,0,0:0:0:0:
144,280,183515,1,0,0:0:0:0:
64,280,183632,1,0,0:0:0:0:
144,200,183867,5,0,0:0:0:0:
144,168,183984,1,0,0:0:0:0:
144,136,184101,1,0,0:0:0:0:
144,96,184218,1,0,0:0:0:0:
104,96,184335,1,0,0:0:0:0:
56,96,184453,1,0,0:0:0:0:
144,96,184570,1,0,0:0:0:0:
256,184,184804,1,0,0:0:0:0:
144,248,185039,1,0,0:0:0:0:
256,312,185273,5,0,0:0:0:0:
288,312,185390,1,0,0:0:0:0:
328,312,185507,1,0,0:0:0:0:
360,312,185624,1,0,0:0:0:0:
400,312,185742,2,0,L|400:208,1,100
327,136,186210,5,0,0:0:0:0:
280,121,186328,1,0,0:0:0:0:
280,71,186445,1,0,0:0:0:0:
328,56,186562,1,0,0:0:0:0:
352,96,186679,2,0,L|456:96,1,100
352,168,187148,2,0,L|232:168,1,100
360,248,187617,2,0,L|464:248,1,100
360,248,188085,5,0,0:0:0:0:
288,248,188203,1,0,0:0:0:0:
376,176,188320,1,0,0:0:0:0:
264,176,188437,1,0,0:0:0:0:
320,128,188554,2,0,L|320:232,1,100
224,168,196289,5,0,0:0:0:0:
224,168,196757,1,0,0:0:0:0:
224,168,197226,1,0,0:0:0:0:
456,344,197460,6,0,L|456:280,4,50
288,168,198164,5,0,0:0:0:0:
288,168,198632,1,0,0:0:0:0:
288,168,199101,1,0,0:0:0:0:
56,344,199335,6,0,L|56:280,4,50
288,216,200039,5,0,0:0:0:0:
288,216,200507,1,0,0:0:0:0:
288,216,200976,1,0,0:0:0:0:
56,40,201210,6,0,L|56:104,4,50
224,216,201914,5,0,0:0:0:0:
224,216,202382,1,0,0:0:0:0:
224,216,202851,1,0,0:0:0:0:
456,40,203085,6,0,L|456:104,4,50
256,192,203789,5,0,0:0:0:0:
32,192,204257,1,0,0:0:0:0:
480,200,204726,1,0,0:0:0:0:
256,352,205195,5,0,0:0:0:0:
256,40,205664,1,0,0:0:0:0:
256,200,205898,6,0,L|192:200,2,50
256,200,206367,6,0,L|176:200,2,75.0000028610231
256,200,206835,6,0,L|144:200,2,100
256,200,207304,6,0,L|320:200,4,50
144,192,271289,6,0,B|144:224|160:256|168:268|180:284|180:284|160:256|144:224|144:224|144:192,1,200
260,256,271757,2,0,B|260:224|244:192|236:180|224:164|224:164|244:192|260:224|260:224|260:256,1,200
367,325,272226,6,0,P|323:347|276:336,1,100
419,242,272460,2,0,P|400:288|367:325,1,100
416,152,272695,1,0,0:0:0:0:
416,152,272929,1,0,0:0:0:0:
336,76,273164,6,0,B|305:65|270:69|256:72|237:78|237:78|270:69|305:65|305:65|336:76,1,200
236,163,273632,2,0,B|266:173|301:169|315:166|334:160|334:160|301:169|266:173|266:173|236:163,1,200
110,157,274101,6,0,P|131:202|168:236,1,100
152,72,274335,2,0,P|114:107|110:157,1,100
240,40,274570,1,0,0:0:0:0:
240,40,274804,1,0,0:0:0:0:
304,120,275039,6,0,B|320:136|320:136|336:120|336:120|352:136|352:136|336:152|336:152|336:176|336:176|352:176|352:176|352:152|352:152|408:152,1,200
272,184,275507,2,0,B|256:168|256:168|240:184|240:184|224:168|224:168|240:152|240:152|240:128|240:128|224:128|224:128|224:152|224:152|168:152,1,200
280,264,275976,6,0,L|392:264,1,100
200,192,276210,2,0,L|328:192,1,100
128,264,276445,1,0,0:0:0:0:
280,264,276679,6,0,P|328:264|272:144,1,200
304,200,277148,2,0,P|256:200|312:320,2,200
304,200,277851,1,0,0:0:0:0:
376,296,278085,6,0,B|432:176|432:176|336:104,2,200
168,296,278789,6,0,L|368:296,1,200
72,296,279257,2,0,L|272:296,1,200
136,120,279726,5,0,0:0:0:0:
176,184,279843,1,0,0:0:0:0:
248,192,279960,1,0,0:0:0:0:
296,136,280078,1,0,0:0:0:0:
248,192,280195,1,0,0:0:0:0:
176,184,280312,1,0,0:0:0:0:
136,120,280429,1,0,0:0:0:0:
344,296,280664,6,0,L|144:296,1,200
440,296,281132,2,0,L|240:296,1,200
376,120,281601,5,0,0:0:0:0:
336,184,281718,1,0,0:0:0:0:
264,192,281835,1,0,0:0:0:0:
216,136,281953,1,0,0:0:0:0:
264,192,282070,1,0,0:0:0:0:
336,184,282187,1,0,0:0:0:0:
376,120,282304,1,0,0:0:0:0:
416,240,282539,6,0,B|416:288|416:288|360:192|336:352|280:224,1,200
176,256,283007,2,0,B|176:208|176:208|232:304|256:144|312:272,1,200
416,320,283476,5,0,0:0:0:0:
336,256,283593,1,0,0:0:0:0:
416,200,283710,1,0,0:0:0:0:
336,152,283828,1,0,0:0:0:0:
416,88,283945,1,0,0:0:0:0:
328,32,284179,6,0,L|112:32,1,200
32,48,284648,6,0,B|72:96|32:48|32:48|72:96|72:96|56:64|56:64|56:80|56:80|64:88|64:88|72:96|72:96|40:80|40:80|80:104|80:104,1,200
256,144,285117,2,0,B|216:192|256:144|256:144|216:192|216:192|232:160|232:160|232:176|232:176|224:184|224:184|216:192|216:192|248:176|248:176|208:200|208:200,1,200
56,232,285585,2,0,B|96:280|56:232|56:232|96:280|96:280|80:248|80:248|80:264|80:264|88:272|88:272|96:280|96:280|64:264|64:264|104:288|104:288,1,200
128,304,286054,1,0,0:0:0:0:
352,104,286289,2,0,B|320:200|216:200|160:200|184:88|288:56|280:128|320:240|200:256,1,400
128,304,286992,5,0,0:0:0:0:
64,216,287226,2,0,P|40:184|48:120,1,100
112,160,287460,2,0,P|136:192|128:256,1,100
64,216,287695,2,0,L|272:216,1,200
328,136,288164,5,0,0:0:0:0:
416,136,288398,1,0,0:0:0:0:
272,208,288632,1,0,0:0:0:0:
464,216,288867,1,0,0:0:0:0:
392,152,289101,6,0,P|345:166|320:208,1,100
319,279,289335,2,0,P|366:265|391:223,1,100
392,224,289570,2,0,L|392:16,1,200
184,248,290039,5,0,0:0:0:0:
96,248,290273,1,0,0:0:0:0:
240,176,290507,1,0,0:0:0:0:
48,168,290742,1,0,0:0:0:0:
120,232,290976,6,0,P|167:218|192:176,1,100
193,105,291210,2,0,P|146:119|121:161,1,100
120,160,291445,2,0,L|120:368,2,200
400,144,292148,6,0,L|168:144,2,200
120,240,292851,6,0,L|352:240,2,200
256,192,299179,5,0,0:0:0:0:
272,280,299414,2,0,P|240:280|296:272,1,510.000009727478
32,32,301289,5,0,0:0:0:0:
32,352,301757,5,0,0:0:0:0:
480,352,302226,5,0,0:0:0:0:
256,192,302695,5,0,0:0:0:0:
480,32,303164,1,0,0:0:0:0:
256,192,303632,1,0,0:0:0:0:
256,192,304101,1,0,0:0:0:0:
