osu file format v14

[General]
AudioFilename: ---[M2U] Music to You.mp3
AudioLeadIn: 0
PreviewTime: 270820
Countdown: 0
SampleSet: Normal
StackLeniency: 0.7
Mode: 0
LetterboxInBreaks: 1
WidescreenStoryboard: 0

[Editor]
DistanceSpacing: 1
BeatDivisor: 4
GridSize: 8
TimelineZoom: 1

[Metadata]
Title:Music to You
TitleUnicode:Music to You
Artist:M2U
ArtistUnicode:M2U
Creator:Kevin97
Version:Hard
Source:
Tags:
BeatmapID:623085
BeatmapSetID:274529

[Difficulty]
HPDrainRate:5
CircleSize:4
OverallDifficulty:5
ApproachRate:7
SliderMultiplier:1.4
SliderTickRate:1

[Events]
//Background and Video events
0,0,"m2u.jpg",0,0
//Break Periods
2,31489,45389
2,151289,161639
//Storyboard Layer 0 (Background)
//Storyboard Layer 1 (Fail)
//Storyboard Layer 2 (Pass)
//Storyboard Layer 3 (Foreground)
//Storyboard Sound Samples

[TimingPoints]
1289,468.75,4,1,0,100,1,0
46289,-100,4,3,0,100,0,0
61054,-66.6666666666667,4,1,0,100,0,0
74414,-55.5555555555556,4,1,0,100,0,0
76289,-50,4,1,0,100,0,0
82382,-66.6666666666667,4,1,0,100,0,0
83320,-50,4,1,0,100,0,0
91289,-100,4,1,0,100,0,0
93164,-83.3333333333333,4,1,0,100,0,0
96914,-66.6666666666667,4,1,0,100,0,0
98789,-100,4,1,0,100,0,0
100664,-83.3333333333333,4,1,0,100,0,0
104414,-66.6666666666667,4,1,0,100,0,0
162539,-200,4,1,0,100,0,0
171445,-100,4,1,0,100,0,0
211289,-100,4,1,0,100,0,0
224414,-66.6666666666667,4,1,0,100,0,0

[HitObjects]
384,88,12539,6,0,B|368:128|376:160|416:192|416:240,1,140
424,248,13242,1,8,0:0:0:0:
320,304,13945,6,0,B|277:313|247:300|222:256|174:248,1,140
168,239,14648,1,8,0:0:0:0:
152,160,15351,2,0,L|192:128,3,35
208,112,15820,6,0,B|248:72|296:72|296:72,1,70
368,168,16289,5,0,0:0:0:0:
368,168,16992,1,0,0:0:0:0:
368,168,17695,1,0,0:0:0:0:
320,304,18867,5,0,0:0:0:0:
320,304,19101,2,0,L|168:304,1,140,8|0,0:0|0:0,0:0:0:0:
180,304,19804,1,0,0:0:0:0:
104,240,20039,6,0,P|56:200|96:136,1,140
128,128,20742,2,0,P|168:136|248:72,1,140
244,82,21445,1,4,0:0:0:0:
392,192,22148,5,8,0:0:0:0:
344,264,22851,2,0,L|304:320,3,35
296,312,23320,6,0,P|256:296|200:296,1,70
128,296,23789,2,0,P|64:272|80:192,1,140
96,192,24492,2,0,P|160:192|208:128,1,140
206,137,25195,1,4,0:0:0:0:
328,136,26367,5,0,0:0:0:0:
328,136,26601,2,0,P|360:184|352:272,1,140,8|0,0:0|0:0,0:0:0:0:
356,263,27304,1,0,0:0:0:0:
256,304,27539,6,0,P|152:304|128:280,1,140
144,248,28242,2,0,P|208:232|264:168,1,140
144,120,28945,1,12,0:0:0:0:
256,192,29414,12,4,31289,0:0:0:0:
256,192,46289,5,0,0:0:0:0:
256,192,46757,2,0,B|256:264|256:264|200:304|200:304|104:304,1,210
80,200,47929,5,0,0:0:0:0:
176,112,48398,1,0,0:0:0:0:
192,240,48867,1,0,0:0:0:0:
104,296,49335,6,0,P|144:344|240:320,1,140
216,341,50039,1,0,0:0:0:0:
296,296,50273,2,0,P|320:280|360:312,1,70
354,295,50742,2,0,P|378:311|418:279,1,70
412,295,51210,2,0,L|416:112,1,140
328,80,52148,2,0,L|256:80,2,70
408,160,53085,1,0,0:0:0:0:
408,160,53320,1,0,0:0:0:0:
256,264,53789,5,0,0:0:0:0:
160,152,54257,2,0,L|64:288,1,140
79,266,54960,1,0,0:0:0:0:
256,352,55429,6,0,P|296:296|256:248,3,140
144,312,57070,5,0,0:0:0:0:
144,312,57304,2,0,L|56:176,1,140
32,136,58007,1,0,0:0:0:0:
80,80,58242,2,0,B|152:120|152:40|240:80,5,140
112,80,61054,5,0,0:0:0:0:
112,80,61289,2,0,L|216:136,1,105.000004005432
232,144,61640,1,0,0:0:0:0:
264,160,61757,2,0,P|288:216|264:256,1,105.000004005432
248,280,62109,1,0,0:0:0:0:
224,304,62226,2,0,P|160:296|128:272,2,105.000004005432
272,224,62929,6,0,P|328:216|384:160,1,105.000004005432
408,120,63398,2,0,P|370:84|298:84,1,105.000004005432
288,144,63867,2,0,P|216:136|192:112,1,105.000004005432
128,56,64335,5,0,0:0:0:0:
128,56,64453,1,0,0:0:0:0:
128,56,64570,1,0,0:0:0:0:
56,136,64804,5,0,0:0:0:0:
56,136,64921,1,0,0:0:0:0:
56,136,65039,1,0,0:0:0:0:
128,240,65273,6,0,L|152:352,2,105.000004005432
144,216,65859,1,0,0:0:0:0:
160,184,65976,2,0,L|272:184,2,105.000004005432
80,120,66679,6,0,P|144:104|176:64,1,105.000004005432
169,76,67148,2,0,P|216:112|272:104,1,105.000004005432
264,112,67617,2,0,P|264:176|296:216,2,105.000004005432
352,48,68320,1,0,0:0:0:0:
424,136,68554,1,0,0:0:0:0:
328,192,68789,1,0,0:0:0:0:
256,280,69023,5,0,0:0:0:0:
256,280,69140,1,0,0:0:0:0:
256,280,69257,2,0,L|128:280,1,105.000004005432
151,280,69609,1,0,0:0:0:0:
151,280,69726,2,0,L|32:224,1,105.000004005432
55,235,70078,1,0,0:0:0:0:
55,235,70195,2,0,L|56:112,1,105.000004005432
55,130,70546,1,0,0:0:0:0:
55,130,70664,2,0,L|160:56,1,105.000004005432
224,72,71132,6,0,P|208:128|232:200,1,105.000004005432
296,168,71601,2,0,P|312:224|296:280,1,105.000004005432
224,256,72070,2,0,P|224:304|288:344,2,105.000004005432
381,218,72773,5,0,0:0:0:0:
435,129,73007,1,0,0:0:0:0:
352,80,73242,1,0,0:0:0:0:
299,169,73476,1,0,0:0:0:0:
384,216,73710,5,0,0:0:0:0:
296,168,73945,1,0,0:0:0:0:
224,208,74179,1,0,0:0:0:0:
144,176,74414,2,0,B|144:248|144:248|112:272|72:272|40:248|40:248|40:176,2,251.999992309571
40,180,75585,5,0,0:0:0:0:
144,176,75820,1,0,0:0:0:0:
144,272,76054,1,0,0:0:0:0:
44,260,76289,6,0,B|44:192|44:192|96:240|96:240|144:192|144:192|144:308,3,280
208,196,78164,2,0,B|236:176|264:176|280:192|280:192|292:216|208:280|208:280|320:280,3,280
360,187,80039,2,0,B|360:272|360:272|392:296|432:296|464:272|464:272|464:188,3,280
358,244,81914,6,0,L|310:104,1,140
313,111,82382,2,0,L|254:207,1,105.000004005432
261,202,82851,2,0,L|206:112,1,105.000004005432
204,112,83320,2,0,L|158:244,1,140
204,112,83789,6,0,B|308:112|308:112|308:176,1,140
308,172,84257,2,0,B|308:208|308:208|192:208,1,140
208,236,84726,2,0,B|208:272|208:272|312:272,1,140
312,272,85195,6,0,L|172:272,1,140
172,272,85664,2,0,L|172:116,1,140
312,132,86132,2,0,L|312:272,1,140
128,272,86601,6,0,L|128:116,1,140
352,132,87070,2,0,L|352:272,1,140
256,196,87539,1,0,0:0:0:0:
256,192,87773,12,0,90820,0:0:0:0:
292,56,91289,6,0,L|208:56,1,70
192,60,91757,2,0,L|112:80,1,70
68,112,92226,1,0,0:0:0:0:
32,176,92460,1,0,0:0:0:0:
52,248,92695,1,0,0:0:0:0:
112,288,92929,1,0,0:0:0:0:
188,248,93164,6,0,P|156:208|168:160,1,83.9999974365235
224,96,93632,2,0,P|276:104|292:144,1,83.9999974365235
280,216,94101,1,0,0:0:0:0:
252,284,94335,1,0,0:0:0:0:
196,336,94570,1,0,0:0:0:0:
128,340,94804,1,0,0:0:0:0:
68,252,95039,6,0,P|124:260|168:224,1,83.9999974365235
188,160,95507,2,0,P|132:152|88:188,1,83.9999974365235
68,272,95976,6,0,P|124:280|168:244,1,83.9999974365235
188,144,96444,2,0,P|132:136|88:172,1,83.9999974365235
148,268,96914,6,0,B|190:276|190:276|196:316|196:316|232:318|232:318|232:318,1,105.000004005432
300,272,97382,2,0,B|257:263|257:263|251:223|251:223|215:221|215:221|215:221,1,105.000004005432
204,208,97734,1,0,0:0:0:0:
184,192,97851,1,0,0:0:0:0:
176,164,97968,1,0,0:0:0:0:
184,136,98085,2,0,P|208:96|260:72,2,105.000004005432
348,180,98789,6,0,L|292:243,1,70
280,253,99257,2,0,L|212:300,1,70
159,313,99726,1,0,0:0:0:0:
87,298,99960,1,0,0:0:0:0:
46,235,100195,1,0,0:0:0:0:
55,164,100429,1,0,0:0:0:0:
135,133,100664,6,0,P|144:183|190:197,1,83.9999974365235
245,202,101132,2,0,P|273:157|253:119,1,83.9999974365235
220,84,101601,1,0,0:0:0:0:
150,61,101835,1,0,0:0:0:0:
74,69,102070,1,0,0:0:0:0:
26,118,102304,1,0,0:0:0:0:
53,221,102539,6,0,P|83:173|139:163,1,83.9999974365235
202,191,103007,2,0,P|171:238|115:248,1,83.9999974365235
38,208,103476,6,0,P|68:160|124:150,1,83.9999974365235
214,201,103944,2,0,P|183:248|127:258,1,83.9999974365235
94,150,104414,6,0,B|115:112|115:112|89:82|89:82|111:52|111:52|111:52,1,105.000004005432
190,32,104882,2,0,B|168:69|168:69|194:99|194:99|172:129|172:129|172:129,1,105.000004005432
176,147,105234,1,0,0:0:0:0:
175,173,105351,1,0,0:0:0:0:
191,197,105468,1,0,0:0:0:0:
208,207,105585,2,0,P|253:215|306:191,2,105.000004005432
144,256,106289,6,0,P|72:304|72:320,1,105.000004005432
152,336,106757,2,0,P|216:328|256:280,1,105.000004005432
248,224,107226,2,0,L|296:184,2,52.5000020027161
184,168,107695,2,0,L|136:128,2,52.5000020027161
248,224,108164,6,0,P|272:288|304:304,1,105.000004005432
360,224,108632,2,0,P|336:288|304:304,1,105.000004005432
224,312,109101,6,0,L|160:312,3,52.5000020027161
224,312,109570,6,0,P|288:280|368:296,1,105.000004005432
360,352,110039,1,0,0:0:0:0:
360,352,110273,2,0,L|472:280,1,105.000004005432
352,224,110742,1,0,0:0:0:0:
352,224,110976,2,0,L|288:128,1,105.000004005432
448,136,111445,1,0,0:0:0:0:
336,56,111679,6,0,B|224:56|224:56|224:160,2,210.000008010865
360,56,112734,1,0,0:0:0:0:
376,72,112851,1,0,0:0:0:0:
384,96,112968,1,0,0:0:0:0:
376,120,113085,2,0,P|328:168|288:184,1,105.000004005432
208,144,113554,2,0,P|136:184|96:240,1,105.000004005432
121,199,114023,5,0,0:0:0:0:
48,272,114257,2,0,P|136:304|184:304,1,105.000004005432
240,304,114726,6,0,L|240:248,1,52.5000020027161
240,304,114960,2,0,L|272:248,1,52.5000020027161
240,304,115195,2,0,L|304:272,1,52.5000020027161
312,264,115429,1,0,0:0:0:0:
424,152,115664,6,0,P|368:152|296:128,1,105.000004005432
320,139,116132,2,0,P|248:176|184:168,1,105.000004005432
160,160,116601,2,0,L|160:224,3,52.5000020027161
160,248,117070,2,0,B|160:288|160:288|232:336|232:336|232:240,1,210.000008010865
232,252,117773,5,0,0:0:0:0:
152,152,118007,2,0,P|112:104|72:80,1,105.000004005432
72,176,118476,2,0,P|120:248|168:272,1,105.000004005432
224,272,118945,2,0,P|304:264|368:232,1,105.000004005432
256,192,119414,12,0,120820,0:0:0:0:
368,136,121054,5,0,0:0:0:0:
368,136,121289,2,0,P|312:176|304:208,1,105.000004005432
296,280,121757,2,0,P|352:312|392:312,1,105.000004005432
448,272,122226,2,0,P|416:216|432:152,1,105.000004005432
368,136,122695,2,0,P|304:176|248:176,1,105.000004005432
208,176,123164,2,0,B|144:176|144:176|144:272|144:272|208:272|208:272,1,210.000008010865
194,272,123867,1,0,0:0:0:0:
194,272,124101,6,0,P|272:216|336:288,1,210.000008010865
335,287,124804,1,0,0:0:0:0:
408,320,125039,6,0,L|464:224,1,105.000004005432
400,200,125507,2,0,L|400:88,1,105.000004005432
336,64,125976,2,0,L|280:160,1,105.000004005432
224,224,126445,1,0,0:0:0:0:
160,144,126679,6,0,B|120:144|120:144|128:160|128:160|112:144|112:144|120:168|120:168|112:152|112:152|120:184|120:184|32:184,1,210.000008010865
32,248,127382,2,0,P|72:280|96:344,1,105.000004005432
160,352,127851,2,0,P|216:320|256:264,1,105.000004005432
280,224,128320,2,0,P|344:192|384:192,1,105.000004005432
448,208,128789,2,0,P|480:128|480:72,1,105.000004005432
336,72,129257,6,0,B|296:96|296:96|296:176,1,105.000004005432
296,184,129609,1,0,0:0:0:0:
296,224,129726,2,0,L|184:224,1,105.000004005432
160,224,130078,1,0,0:0:0:0:
120,224,130195,2,0,B|88:224|88:224|88:304,2,105.000004005432
192,224,130898,2,0,P|216:136|184:120,1,105.000004005432
218,139,131367,2,0,P|256:184|304:176,1,105.000004005432
298,179,131835,2,0,P|304:256|336:272,1,105.000004005432
321,267,132304,2,0,P|264:304|272:336,1,105.000004005432
360,344,132773,5,0,0:0:0:0:
400,280,133007,1,0,0:0:0:0:
440,216,133242,1,0,0:0:0:0:
392,160,133476,1,0,0:0:0:0:
344,104,133710,1,0,0:0:0:0:
344,104,133945,1,0,0:0:0:0:
272,104,134179,6,0,B|232:104|232:104|240:120|240:120|224:104|224:104|232:128|232:128|224:112|224:112|232:144|232:144|144:144,3,210.000008010865
152,144,135703,1,0,0:0:0:0:
120,144,135820,1,0,0:0:0:0:
88,144,135937,1,0,0:0:0:0:
64,144,136054,1,0,0:0:0:0:
56,224,136289,6,0,L|168:224,1,105.000004005432
96,296,136757,2,0,L|208:296,1,105.000004005432
144,360,137226,2,0,L|256:360,1,105.000004005432
248,288,137695,2,0,L|136:288,1,105.000004005432
72,288,138164,2,0,P|48:232|112:88,1,210.000008010865
160,168,138867,1,0,0:0:0:0:
216,96,139101,1,0,0:0:0:0:
280,168,139335,1,0,0:0:0:0:
352,104,139570,1,0,0:0:0:0:
408,176,139804,1,0,0:0:0:0:
344,240,140039,6,0,L|344:352,2,105.000004005432
280,168,140742,2,0,L|280:56,2,105.000004005432
216,232,141445,1,0,0:0:0:0:
152,168,141679,6,0,B|112:168|112:168|120:184|120:184|104:168|104:168|112:192|112:192|104:176|104:176|112:208|112:208|24:208,3,210.000008010865
152,168,143320,2,0,L|232:88,2,105.000004005432
152,256,144023,5,0,0:0:0:0:
112,256,144257,5,0,0:0:0:0:
144,296,144374,1,0,0:0:0:0:
184,288,144491,1,0,0:0:0:0:
192,240,144608,1,0,0:0:0:0:
144,216,144725,1,0,0:0:0:0:
112,256,144960,2,0,P|64:240|56:176,1,105.000004005432
192,240,145429,2,0,P|224:192|216:144,1,105.000004005432
120,152,145898,2,0,L|88:48,2,105.000004005432
192,240,146601,2,0,P|272:216|296:184,1,105.000004005432
192,128,147070,2,0,P|120:120|88:88,1,105.000004005432
192,32,147539,2,0,L|336:32,1,105.000004005432
297,32,148007,1,0,0:0:0:0:
304,128,148242,1,0,0:0:0:0:
304,128,148476,1,0,0:0:0:0:
192,128,148710,1,0,0:0:0:0:
192,128,148945,1,0,0:0:0:0:
152,216,149179,6,0,B|312:216|312:216|344:272|168:272|168:272|208:352|272:352|296:272|296:272|248:272|248:272|248:328|248:272,1,630.000024032594
248,272,150820,1,0,0:0:0:0:
368,288,162539,5,0,0:0:0:0:
312,208,163007,2,0,L|272:184|272:184,1,35
120,112,163945,5,0,0:0:0:0:
120,112,164648,5,0,0:0:0:0:
320,200,165234,6,0,L|344:200,3,17.5
320,200,165820,5,0,0:0:0:0:
320,288,166054,1,0,0:0:0:0:
176,320,166289,6,0,B|176:288|176:288|208:264|208:264|176:248,1,105
64,192,167695,1,0,0:0:0:0:
184,64,168867,5,0,0:0:0:0:
184,64,169101,2,0,P|216:80|192:104,1,70
120,152,169804,1,0,0:0:0:0:
40,208,170039,2,0,L|96:264,1,70
144,312,170742,1,0,0:0:0:0:
280,272,171445,6,0,B|240:200|240:200|336:200|336:128|336:128,1,210
256,64,172734,6,0,L|208:64,5,35
256,64,173554,1,0,0:0:0:0:
168,120,173789,6,0,P|184:144|112:216,1,140
48,224,174492,1,0,0:0:0:0:
48,224,175195,5,0,0:0:0:0:
256,320,176367,5,0,0:0:0:0:
256,320,176601,2,0,L|256:176,1,140
256,180,177304,1,0,0:0:0:0:
104,176,177539,5,0,0:0:0:0:
408,176,178242,1,0,0:0:0:0:
256,352,178945,1,0,0:0:0:0:
256,192,179414,12,0,181054,0:0:0:0:
208,144,181289,6,0,L|160:144,2,35
232,216,181757,2,0,L|184:256,2,35
304,224,182226,2,0,L|304:280,2,35
352,160,182695,1,0,0:0:0:0:
424,136,182929,2,0,P|464:216|448:272,1,140
440,280,183515,1,0,0:0:0:0:
424,296,183632,1,0,0:0:0:0:
320,312,183867,5,0,0:0:0:0:
296,312,183984,1,0,0:0:0:0:
272,312,184101,1,0,0:0:0:0:
160,312,184335,5,0,0:0:0:0:
136,312,184453,1,0,0:0:0:0:
112,312,184570,1,0,0:0:0:0:
56,216,184804,5,0,0:0:0:0:
72,192,184921,1,0,0:0:0:0:
88,168,185039,1,0,0:0:0:0:
160,88,185273,6,0,P|200:112|232:96,2,70
219,106,185976,2,0,P|264:104|288:128,1,70
240,184,186445,2,0,P|280:208|320:200,1,70
360,168,186914,1,0,0:0:0:0:
360,240,187148,1,0,0:0:0:0:
256,312,187382,5,0,0:0:0:0:
256,240,187617,1,0,0:0:0:0:
168,160,187851,5,0,0:0:0:0:
168,232,188085,1,0,0:0:0:0:
88,312,188320,5,0,0:0:0:0:
88,240,188554,1,0,0:0:0:0:
168,160,188789,6,0,L|208:80,2,70
256,216,189492,2,0,L|211:216,2,35
312,288,189960,2,0,L|272:288,2,35
376,360,190429,2,0,L|336:360,2,35
312,288,190898,5,0,0:0:0:0:
238,288,191132,6,0,L|168:288,1,70
96,264,191601,2,0,L|24:224,1,70
40,160,192070,2,0,L|48:80,1,70
46,90,192539,1,0,0:0:0:0:
136,128,192773,5,0,0:0:0:0:
248,128,193007,1,0,0:0:0:0:
160,200,193242,1,0,0:0:0:0:
192,72,193476,1,0,0:0:0:0:
232,200,193710,1,0,0:0:0:0:
136,128,193945,1,0,0:0:0:0:
248,128,194179,6,0,P|360:184|336:320,2,280
176,128,196289,5,0,0:0:0:0:
96,240,196757,1,0,0:0:0:0:
176,128,197226,1,0,0:0:0:0:
256,248,197695,1,0,0:0:0:0:
256,248,197929,5,0,0:0:0:0:
368,352,198164,5,0,0:0:0:0:
464,248,198632,1,0,0:0:0:0:
360,152,199101,1,0,0:0:0:0:
208,152,199570,5,0,0:0:0:0:
112,152,199804,1,0,0:0:0:0:
112,240,200039,1,0,0:0:0:0:
160,80,200507,1,0,0:0:0:0:
232,240,200976,1,0,0:0:0:0:
232,240,201445,5,0,0:0:0:0:
296,152,201679,1,0,0:0:0:0:
168,144,201914,5,0,0:0:0:0:
96,48,202382,1,0,0:0:0:0:
232,240,202851,1,0,0:0:0:0:
416,48,203320,1,0,0:0:0:0:
424,240,203789,5,0,0:0:0:0:
256,128,204257,1,0,0:0:0:0:
88,240,204726,1,0,0:0:0:0:
88,240,205195,5,0,0:0:0:0:
416,240,205664,1,0,0:0:0:0:
416,240,206132,1,0,0:0:0:0:
256,320,206601,1,0,0:0:0:0:
256,320,207070,1,0,0:0:0:0:
40,192,207539,1,0,0:0:0:0:
256,192,207773,12,0,210820,0:0:0:0:
192,78,211289,6,0,P|218:100|242:73,1,70
154,147,211757,6,0,P|128:169|104:142,1,70
46,214,212226,5,0,0:0:0:0:
64,224,212343,1,0,0:0:0:0:
80,240,212460,1,0,0:0:0:0:
88,264,212578,1,0,0:0:0:0:
80,288,212695,1,0,0:0:0:0:
64,304,212812,1,0,0:0:0:0:
40,304,212929,1,0,0:0:0:0:
32,208,213164,6,0,L|32:128,1,70
32,64,213632,1,0,0:0:0:0:
104,64,213867,2,0,L|200:64,1,70
184,80,214218,5,0,0:0:0:0:
208,88,214335,1,0,0:0:0:0:
216,104,214453,1,0,0:0:0:0:
232,104,214570,1,0,0:0:0:0:
248,120,214687,1,0,0:0:0:0:
272,120,214804,1,0,0:0:0:0:
360,152,215039,6,0,L|304:224,1,70
360,80,215507,2,0,L|432:80,1,70
320,208,215976,6,0,L|272:272,1,70
432,80,216445,2,0,L|512:80,1,70
288,80,216914,6,0,P|232:80|192:104,1,70
184,192,217382,2,0,P|218:195|252:187,1,70
272,176,217734,1,0,0:0:0:0:
288,160,217851,1,0,0:0:0:0:
304,144,217968,1,0,0:0:0:0:
320,128,218085,1,0,0:0:0:0:
336,112,218203,1,0,0:0:0:0:
352,96,218320,1,0,0:0:0:0:
408,40,218554,1,0,0:0:0:0:
424,112,218789,6,0,P|424:160|440:192,1,70
392,320,219257,2,0,P|392:272|376:240,1,70
272,280,219726,6,0,L|240:312,2,35
328,216,220195,2,0,L|360:184,2,35
416,72,220664,6,0,P|360:80|328:64,1,70
216,136,221132,2,0,P|272:128|304:144,1,70
384,216,221601,5,0,0:0:0:0:
400,248,221718,1,0,0:0:0:0:
368,288,221835,1,0,0:0:0:0:
328,264,221953,1,0,0:0:0:0:
336,216,222070,1,0,0:0:0:0:
360,248,222304,5,0,0:0:0:0:
232,256,222539,6,0,L|152:256,1,70
120,160,223007,2,0,L|200:160,1,70
148,344,223476,2,0,L|78:344,1,70
160,80,223945,2,0,L|244:80,1,70
356,100,224414,6,0,B|380:148|380:148|352:216,1,105.000004005432
288,248,224882,2,0,B|264:200|264:200|292:132,1,105.000004005432
320,88,225351,6,0,L|380:92,1,52.5000020027161
320,88,225585,2,0,L|376:52,1,52.5000020027161
320,88,225820,2,0,L|352:36,2,52.5000020027161
256,188,226289,6,0,P|216:228|168:240,1,105.000004005432
84,180,226757,2,0,P|60:232|72:284,1,105.000004005432
144,336,227226,6,0,L|196:336,1,52.5000020027161
196,336,227460,2,0,L|264:328,1,52.5000020027161
248,329,227695,2,0,L|304:304,2,52.5000020027161
176,336,228164,6,0,P|104:316|64:268,1,105.000004005432
152,248,228632,2,0,P|192:180|204:120,1,105.000004005432
220,64,229101,6,0,P|248:40|276:44,1,52.5000020027161
220,64,229335,2,0,P|256:63|275:84,1,52.5000020027161
220,63,229570,2,0,P|244:91|240:119,2,52.5000020027161
124,32,230039,6,0,B|92:76|92:76|128:128,1,105.000004005432
180,184,230507,2,0,B|212:228|212:228|176:280,1,105.000004005432
96,316,230976,2,0,B|67:274|67:274|99:230,1,105.000004005432
192,100,231445,2,0,B|220:141|220:141|188:185,1,105.000004005432
144,284,231914,6,0,P|200:312|268:320,2,105.000004005432
120,272,232499,1,0,0:0:0:0:
108,248,232617,1,0,0:0:0:0:
112,216,232734,1,0,0:0:0:0:
140,200,232851,1,0,0:0:0:0:
224,248,233085,1,0,0:0:0:0:
304,200,233320,1,0,0:0:0:0:
384,244,233554,1,0,0:0:0:0:
384,88,233789,5,0,0:0:0:0:
304,136,234023,2,0,P|224:144|168:128,2,105.000004005432
376,184,234726,6,0,P|408:216|416:248,1,52.5000020027161
352,248,234960,2,0,P|360:288|336:304,1,52.5000020027161
288,280,235195,2,0,P|280:312|248:312,2,52.5000020027161
256,192,235664,6,0,L|160:128,1,105.000004005432
64,152,236132,2,0,L|160:224,1,105.000004005432
224,248,236601,6,0,L|224:320,1,52.5000020027161
272,252,236835,2,0,L|272:200,1,52.5000020027161
168,200,237070,2,0,L|168:252,2,52.5000020027161
256,120,237539,5,0,0:0:0:0:
256,120,237773,1,0,0:0:0:0:
368,192,238007,6,0,L|432:192,1,52.5000020027161
368,264,238242,2,0,L|272:264,1,52.5000020027161
376,336,238476,2,0,L|504:336,2,105.000004005432
256,344,239179,1,0,0:0:0:0:
256,192,239414,12,0,240820,0:0:0:0:
144,248,241054,5,0,0:0:0:0:
144,248,241289,2,0,P|200:208|208:176,1,105.000004005432
216,104,241757,2,0,P|160:72|120:72,1,105.000004005432
64,112,242226,2,0,P|96:168|80:232,1,105.000004005432
144,248,242695,2,0,P|208:208|264:208,1,105.000004005432
304,208,243164,2,0,B|368:208|368:208|368:112|368:112|304:112|304:112,1,210.000008010865
318,112,243867,1,0,0:0:0:0:
318,112,244101,6,0,P|240:168|176:96,1,210.000008010865
177,97,244804,1,0,0:0:0:0:
104,64,245039,6,0,L|48:160,1,105.000004005432
112,184,245507,2,0,L|112:296,1,105.000004005432
176,320,245976,2,0,L|232:224,1,105.000004005432
288,160,246445,1,0,0:0:0:0:
352,240,246679,6,0,B|392:240|392:240|384:224|384:224|400:240|400:240|392:216|392:216|400:232|400:232|392:200|392:200|480:200,1,210.000008010865
480,136,247382,2,0,P|440:104|416:40,1,105.000004005432
352,32,247851,2,0,P|296:64|256:120,1,105.000004005432
232,160,248320,2,0,P|168:192|128:192,1,105.000004005432
64,176,248789,2,0,P|32:256|32:312,1,105.000004005432
176,312,249257,6,0,B|216:288|216:288|216:208,1,105.000004005432
216,200,249609,1,0,0:0:0:0:
216,160,249726,2,0,L|328:160,1,105.000004005432
352,160,250078,1,0,0:0:0:0:
392,160,250195,2,0,B|424:160|424:160|424:80,2,105.000004005432
320,160,250898,2,0,P|296:248|328:264,1,105.000004005432
294,245,251367,6,0,P|256:200|208:208,1,105.000004005432
214,205,251835,6,0,P|208:128|176:112,1,105.000004005432
191,117,252304,6,0,P|248:80|240:48,1,105.000004005432
152,40,252773,5,0,0:0:0:0:
112,104,253007,1,0,0:0:0:0:
72,168,253242,1,0,0:0:0:0:
120,224,253476,1,0,0:0:0:0:
168,280,253710,1,0,0:0:0:0:
168,280,253945,1,0,0:0:0:0:
240,280,254179,6,0,B|280:280|280:280|272:264|272:264|288:280|288:280|280:256|280:256|288:272|288:272|280:240|280:240|368:240,3,210.000008010865
360,240,255703,5,0,0:0:0:0:
392,240,255820,1,0,0:0:0:0:
424,240,255937,1,0,0:0:0:0:
448,240,256054,1,0,0:0:0:0:
456,160,256289,6,0,L|344:160,1,105.000004005432
416,88,256757,2,0,L|304:88,1,105.000004005432
368,24,257226,2,0,L|256:24,1,105.000004005432
264,96,257695,2,0,L|376:96,1,105.000004005432
440,96,258164,2,0,P|464:152|400:296,1,210.000008010865
352,216,258867,1,0,0:0:0:0:
296,288,259101,1,0,0:0:0:0:
232,216,259335,1,0,0:0:0:0:
160,280,259570,1,0,0:0:0:0:
104,208,259804,1,0,0:0:0:0:
168,144,260039,6,0,L|168:32,2,105.000004005432
232,216,260742,2,0,L|232:328,2,105.000004005432
296,152,261445,1,0,0:0:0:0:
360,216,261679,6,0,B|400:216|400:216|392:200|392:200|408:216|408:216|400:192|400:192|408:208|408:208|400:176|400:176|488:176,3,210.000008010865
360,216,263320,2,0,L|280:296,2,105.000004005432
360,128,264023,5,0,0:0:0:0:
400,128,264257,5,0,0:0:0:0:
368,88,264374,1,0,0:0:0:0:
328,96,264491,1,0,0:0:0:0:
320,144,264608,1,0,0:0:0:0:
368,168,264725,1,0,0:0:0:0:
400,128,264960,2,0,P|448:144|456:208,1,105.000004005432
320,144,265429,2,0,P|288:192|296:240,1,105.000004005432
392,232,265898,2,0,L|424:336,2,105.000004005432
320,144,266601,2,0,P|240:168|216:200,1,105.000004005432
320,256,267070,2,0,P|392:264|424:296,1,105.000004005432
320,352,267539,2,0,L|176:352,1,105.000004005432
215,352,268007,1,0,0:0:0:0:
208,256,268242,1,0,0:0:0:0:
208,256,268476,1,0,0:0:0:0:
320,256,268710,5,0,0:0:0:0:
320,256,268945,1,0,0:0:0:0:
256,192,269179,12,0,270585,0:0:0:0:
256,192,270820,5,0,0:0:0:0:
