osu file format v12

[General]
AudioFilename: M2U - Memory of Beach - Copy.mp3
AudioLeadIn: 0
PreviewTime: 38829
Countdown: 0
SampleSet: None
StackLeniency: 0.7
Mode: 3
LetterboxInBreaks: 0
SpecialStyle: 0
WidescreenStoryboard: 1

[Editor]
DistanceSpacing: 1.2
BeatDivisor: 4
GridSize: 16

[Metadata]
Title:Memory of Beach
TitleUnicode:Memory of Beach
Artist:M2U
ArtistUnicode:M2U
Creator:YunoFanatic
Version:Normal Style
Source:DJMAX
Tags:Simple_Star
BeatmapID:342382
BeatmapSetID:136889

[Difficulty]
HPDrainRate:7
CircleSize:4
OverallDifficulty:8
ApproachRate:5
SliderMultiplier:1.4
SliderTickRate:1

[Events]
//Background and Video events
0,0,"NS.png",0,0
//Break Periods
//Storyboard Layer 0 (Background)
//Storyboard Layer 1 (Fail)
//Storyboard Layer 2 (Pass)
//Storyboard Layer 3 (Foreground)
//Storyboard Sound Samples
//Background Colour Transformations
3,100,163,162,255

[TimingPoints]
60,461.538461538462,4,3,1,50,1,0
9290,-100,4,1,0,60,0,1
9752,-100,4,3,1,60,0,1
38829,-100,4,3,1,50,0,0
97906,-100,4,1,0,60,0,1
98136,-100,4,3,1,60,0,1
129521,-100,4,3,1,50,0,0

[HitObjects]
64,192,60,1,8,0:0:0:0:
448,192,60,1,0,0:0:0:0:
192,192,290,1,0,0:0:0:0:
320,192,521,1,8,0:0:0:0:
448,192,752,1,0,0:0:0:0:
64,192,752,1,0,0:0:0:0:
320,192,1213,1,0,0:0:0:0:
64,192,1444,1,0,0:0:0:0:
192,192,1444,1,0,0:0:0:0:
320,192,1906,1,8,0:0:0:0:
448,192,1906,1,0,0:0:0:0:
192,192,2136,1,8,0:0:0:0:
64,192,2367,1,8,0:0:0:0:
192,192,2598,1,8,0:0:0:0:
320,192,2598,1,0,0:0:0:0:
448,192,3060,1,0,0:0:0:0:
320,192,3290,1,0,0:0:0:0:
192,192,3752,1,8,0:0:0:0:
64,192,3752,1,0,0:0:0:0:
448,192,3983,1,0,0:0:0:0:
320,192,4213,1,8,0:0:0:0:
192,192,4444,1,0,0:0:0:0:
64,192,4444,1,0,0:0:0:0:
320,192,4675,1,8,0:0:0:0:
448,192,4906,1,0,0:0:0:0:
192,192,5136,1,8,0:0:0:0:
64,192,5136,1,0,0:0:0:0:
320,192,5367,1,0,0:0:0:0:
448,192,5598,1,0,0:0:0:0:
192,192,5598,1,8,0:0:0:0:
64,192,5829,1,0,0:0:0:0:
320,192,5829,1,8,0:0:0:0:
192,192,6060,1,8,0:0:0:0:
448,192,6060,1,0,0:0:0:0:
320,192,6290,1,8,0:0:0:0:
64,192,6290,1,0,0:0:0:0:
192,192,6521,1,8,0:0:0:0:
320,192,6983,1,0,0:0:0:0:
448,192,7444,1,2,0:0:0:0:
320,192,7675,1,0,0:0:0:0:
192,192,7906,1,2,0:0:0:0:
64,192,8136,1,0,0:0:0:0:
192,192,8367,1,2,0:0:0:0:
320,192,8598,1,0,0:0:0:0:
448,192,8829,1,2,0:0:0:0:
320,192,9060,1,0,0:0:0:0:
192,192,9290,1,0,0:0:0:0:
64,192,9290,128,0,12983:0:0:0:0:
320,192,9752,1,8,0:0:0:0:
448,192,9752,1,0,0:0:0:0:
448,192,10213,1,8,0:0:0:0:
320,192,10675,1,8,0:0:0:0:
192,192,10675,1,0,0:0:0:0:
448,192,11136,1,8,0:0:0:0:
320,192,11598,1,0,0:0:0:0:
192,192,11598,1,8,0:0:0:0:
192,192,12060,1,8,0:0:0:0:
320,192,12521,1,8,0:0:0:0:
448,192,12521,1,0,0:0:0:0:
448,192,12983,1,8,0:0:0:0:
192,192,12983,128,0,14829:0:0:0:0:
320,192,13444,1,8,0:0:0:0:
448,192,13444,1,0,0:0:0:0:
64,192,13906,1,8,0:0:0:0:
320,192,14367,1,8,0:0:0:0:
448,192,14367,1,0,0:0:0:0:
64,192,14829,1,8,0:0:0:0:
448,192,14829,128,0,16675:0:0:0:0:
320,192,15060,1,0,0:0:0:0:
64,192,15290,1,0,0:0:0:0:
320,192,15521,1,0,0:0:0:0:
64,192,15752,1,0,0:0:0:0:
320,192,15983,1,0,0:0:0:0:
192,192,16213,1,8,0:0:0:0:
64,192,16444,1,0,0:0:0:0:
320,192,16675,128,0,18521:0:0:0:0:
448,192,17136,1,8,0:0:0:0:
64,192,17136,1,0,0:0:0:0:
192,192,17367,128,0,18521:0:0:0:0:
448,192,17829,1,0,0:0:0:0:
64,192,18060,1,8,0:0:0:0:
448,192,18290,1,0,0:0:0:0:
64,192,18521,128,0,20367:0:0:0:0:
448,192,18983,1,0,0:0:0:0:
192,192,18983,1,8,0:0:0:0:
320,192,19444,1,8,0:0:0:0:
192,192,19675,1,0,0:0:0:0:
448,192,19906,1,8,0:0:0:0:
320,192,20136,1,0,0:0:0:0:
448,192,20367,128,0,22213:0:0:0:0:
192,192,20367,1,8,0:0:0:0:
320,192,20829,1,0,0:0:0:0:
64,192,21060,1,0,0:0:0:0:
320,192,21290,1,0,0:0:0:0:
64,192,21521,1,0,0:0:0:0:
320,192,21752,1,8,0:0:0:0:
192,192,21983,1,0,0:0:0:0:
64,192,22213,1,8,0:0:0:0:
320,192,22213,128,0,24060:0:0:0:0:
192,192,22444,1,0,0:0:0:0:
448,192,22675,1,0,0:0:0:0:
64,192,22675,1,8,0:0:0:0:
192,192,22906,1,0,0:0:0:0:
448,192,23136,1,0,0:0:0:0:
64,192,23136,1,8,0:0:0:0:
192,192,23367,1,0,0:0:0:0:
448,192,23598,1,0,0:0:0:0:
64,192,23598,1,8,0:0:0:0:
192,192,23829,1,0,0:0:0:0:
448,192,24060,1,0,0:0:0:0:
64,192,24060,1,8,0:0:0:0:
192,192,24060,128,0,27752:0:0:0:0:
64,192,24521,1,8,0:0:0:0:
320,192,24521,1,0,0:0:0:0:
448,192,24983,1,0,0:0:0:0:
64,192,25444,1,8,0:0:0:0:
320,192,25444,1,0,0:0:0:0:
448,192,25906,1,8,0:0:0:0:
64,192,26136,1,0,0:0:0:0:
320,192,26367,1,8,0:0:0:0:
448,192,26598,1,0,0:0:0:0:
64,192,26829,1,8,0:0:0:0:
320,192,27060,1,0,0:0:0:0:
448,192,27290,1,8,0:0:0:0:
64,192,27521,1,8,0:0:0:0:
320,192,27752,1,8,0:0:0:0:
448,192,27752,128,0,29598:0:0:0:0:
64,192,27983,1,0,0:0:0:0:
64,192,28213,1,8,0:0:0:0:
192,192,28213,1,0,0:0:0:0:
320,192,28444,1,0,0:0:0:0:
64,192,28675,1,0,0:0:0:0:
192,192,28675,1,8,0:0:0:0:
320,192,28906,1,0,0:0:0:0:
64,192,29136,1,0,0:0:0:0:
192,192,29136,1,8,0:0:0:0:
192,192,29367,1,0,0:0:0:0:
320,192,29598,128,0,31444:0:0:0:0:
64,192,29598,1,8,0:0:0:0:
192,192,29829,1,0,0:0:0:0:
448,192,30060,1,8,0:0:0:0:
192,192,30290,1,0,0:0:0:0:
64,192,30521,1,8,0:0:0:0:
192,192,30752,1,8,0:0:0:0:
448,192,30983,1,8,0:0:0:0:
192,192,31213,1,8,0:0:0:0:
64,192,31444,1,8,0:0:0:0:
448,192,31444,128,0,31906:0:0:0:0:
192,192,31906,128,0,32367:0:0:0:0:
64,192,31906,1,8,0:0:0:0:
320,192,32367,128,0,32829:0:0:0:0:
448,192,32367,1,8,0:0:0:0:
64,192,32829,128,0,33290:0:0:0:0:
192,192,32829,1,8,0:0:0:0:
448,192,33290,128,0,33752:0:0:0:0:
320,192,33290,1,8,0:0:0:0:
192,192,33752,128,0,34213:0:0:0:0:
64,192,33752,1,8,0:0:0:0:
64,192,34213,128,0,34675:0:0:0:0:
320,192,34213,1,8,0:0:0:0:
320,192,34675,128,0,35136:0:0:0:0:
448,192,34675,1,8,0:0:0:0:
448,192,35136,128,0,35598:0:0:0:0:
64,192,35136,1,8,0:0:0:0:
64,192,35598,1,0,0:0:0:0:
192,192,35598,1,8,0:0:0:0:
320,192,36060,1,8,0:0:0:0:
448,192,36290,1,0,0:0:0:0:
192,192,36521,1,8,0:0:0:0:
320,192,36752,1,0,0:0:0:0:
64,192,36983,1,4,0:0:0:0:
448,192,36983,128,0,38829:0:0:0:0:
192,192,37213,1,4,0:0:0:0:
320,192,37444,1,12,0:0:0:0:
64,192,37675,1,4,0:0:0:0:
192,192,37906,1,4,0:0:0:0:
320,192,38136,1,4,0:0:0:0:
64,192,38367,1,4,0:0:0:0:
192,192,38598,1,4,0:0:0:0:
320,192,38829,1,12,0:0:0:0:
64,192,38829,128,0,39752:0:0:0:0:
320,192,39290,1,0,0:0:0:0:
192,192,39290,1,8,0:0:0:0:
448,192,39752,1,8,0:0:0:0:
320,192,40213,1,8,0:0:0:0:
448,192,40213,1,0,0:0:0:0:
192,192,40444,1,0,0:0:0:0:
64,192,40675,1,8,0:0:0:0:
320,192,41136,1,8,0:0:0:0:
448,192,41136,1,0,0:0:0:0:
192,192,41598,1,8,0:0:0:0:
448,192,42060,1,0,0:0:0:0:
320,192,42060,1,8,0:0:0:0:
192,192,42290,1,0,0:0:0:0:
64,192,42521,1,8,0:0:0:0:
448,192,42521,128,0,43444:0:0:0:0:
192,192,42752,1,0,0:0:0:0:
64,192,42983,1,0,0:0:0:0:
320,192,42983,1,8,0:0:0:0:
192,192,43213,1,0,0:0:0:0:
64,192,43444,1,8,0:0:0:0:
192,192,43906,1,8,0:0:0:0:
320,192,43906,1,0,0:0:0:0:
448,192,44136,1,0,0:0:0:0:
320,192,44367,1,8,0:0:0:0:
192,192,44598,1,0,0:0:0:0:
320,192,44829,1,0,0:0:0:0:
64,192,44829,1,8,0:0:0:0:
192,192,45060,1,0,0:0:0:0:
320,192,45290,1,8,0:0:0:0:
448,192,45521,1,0,0:0:0:0:
192,192,45752,1,8,0:0:0:0:
320,192,45752,1,0,0:0:0:0:
64,192,46213,1,0,0:0:0:0:
192,192,46213,1,8,0:0:0:0:
320,192,46675,1,8,0:0:0:0:
448,192,46675,1,0,0:0:0:0:
192,192,47136,1,8,0:0:0:0:
64,192,47136,1,0,0:0:0:0:
320,192,47598,1,8,0:0:0:0:
448,192,47598,1,0,0:0:0:0:
192,192,48060,1,8,0:0:0:0:
320,192,48060,1,0,0:0:0:0:
64,192,48521,1,8,0:0:0:0:
192,192,48521,1,0,0:0:0:0:
448,192,48983,1,0,0:0:0:0:
320,192,48983,1,8,0:0:0:0:
64,192,49444,1,8,0:0:0:0:
192,192,49444,1,0,0:0:0:0:
448,192,49906,1,0,0:0:0:0:
320,192,49906,1,8,0:0:0:0:
192,192,50136,1,8,0:0:0:0:
64,192,50367,1,0,0:0:0:0:
192,192,50367,1,8,0:0:0:0:
320,192,50598,1,8,0:0:0:0:
320,192,50829,1,8,0:0:0:0:
448,192,50829,1,0,0:0:0:0:
192,192,51060,1,8,0:0:0:0:
192,192,51290,1,8,0:0:0:0:
64,192,51290,1,0,0:0:0:0:
320,192,51521,1,8,0:0:0:0:
320,192,51752,1,8,0:0:0:0:
448,192,51752,1,0,0:0:0:0:
192,192,51983,1,0,0:0:0:0:
64,192,52213,1,8,0:0:0:0:
448,192,52213,1,0,0:0:0:0:
192,192,52444,1,0,0:0:0:0:
448,192,52675,1,0,0:0:0:0:
64,192,52675,1,8,0:0:0:0:
320,192,52906,1,0,0:0:0:0:
64,192,53136,1,8,0:0:0:0:
448,192,53136,1,0,0:0:0:0:
320,192,53367,1,0,0:0:0:0:
64,192,53598,1,8,0:0:0:0:
448,192,53598,128,0,54521:0:0:0:0:
192,192,53829,1,0,0:0:0:0:
64,192,54060,1,8,0:0:0:0:
192,192,54290,1,0,0:0:0:0:
320,192,54521,128,0,55444:0:0:0:0:
64,192,54521,1,8,0:0:0:0:
192,192,54752,1,0,0:0:0:0:
448,192,54983,1,8,0:0:0:0:
192,192,55213,1,0,0:0:0:0:
64,192,55444,1,8,0:0:0:0:
448,192,55444,1,0,0:0:0:0:
320,192,55675,1,0,0:0:0:0:
192,192,55906,1,8,0:0:0:0:
64,192,56136,1,0,0:0:0:0:
192,192,56367,1,8,0:0:0:0:
320,192,56598,1,0,0:0:0:0:
448,192,56829,1,8,0:0:0:0:
320,192,57060,1,0,0:0:0:0:
64,192,57290,1,8,0:0:0:0:
192,192,57290,1,0,0:0:0:0:
320,192,57521,1,0,0:0:0:0:
64,192,57752,1,0,0:0:0:0:
192,192,57752,1,8,0:0:0:0:
320,192,57983,1,0,0:0:0:0:
192,192,58213,1,8,0:0:0:0:
448,192,58213,1,0,0:0:0:0:
64,192,58444,1,0,0:0:0:0:
192,192,58675,1,8,0:0:0:0:
448,192,58675,1,0,0:0:0:0:
64,192,58906,1,0,0:0:0:0:
192,192,59136,1,8,0:0:0:0:
448,192,59136,1,0,0:0:0:0:
320,192,59136,128,0,60983:0:0:0:0:
64,192,59367,1,0,0:0:0:0:
192,192,59598,1,8,0:0:0:0:
448,192,59829,1,0,0:0:0:0:
192,192,60060,1,8,0:0:0:0:
64,192,60290,1,0,0:0:0:0:
192,192,60521,1,8,0:0:0:0:
448,192,60752,1,0,0:0:0:0:
64,192,60983,1,8,0:0:0:0:
448,192,61213,1,0,0:0:0:0:
192,192,61444,1,8,0:0:0:0:
64,192,61444,1,0,0:0:0:0:
448,192,61906,1,8,0:0:0:0:
64,192,62136,1,0,0:0:0:0:
192,192,62367,1,8,0:0:0:0:
320,192,62367,1,0,0:0:0:0:
448,192,62598,1,0,0:0:0:0:
64,192,62829,1,8,0:0:0:0:
448,192,63060,1,0,0:0:0:0:
192,192,63290,1,8,0:0:0:0:
320,192,63290,1,0,0:0:0:0:
64,192,63752,1,8,0:0:0:0:
448,192,63752,1,0,0:0:0:0:
192,192,63983,1,0,0:0:0:0:
192,192,64213,1,8,0:0:0:0:
320,192,64213,1,0,0:0:0:0:
320,192,64444,1,0,0:0:0:0:
448,192,64675,1,0,0:0:0:0:
64,192,64675,1,8,0:0:0:0:
320,192,64906,1,0,0:0:0:0:
192,192,65136,1,10,0:0:0:0:
64,192,65367,1,0,0:0:0:0:
192,192,65598,1,8,0:0:0:0:
320,192,65829,1,0,0:0:0:0:
448,192,66060,1,2,0:0:0:0:
320,192,66290,1,2,0:0:0:0:
64,192,66752,1,0,0:0:0:0:
192,192,66752,1,0,0:0:0:0:
448,192,67098,1,0,0:0:0:0:
320,192,67098,1,0,0:0:0:0:
192,192,67444,1,0,0:0:0:0:
64,192,67444,1,0,0:0:0:0:
320,192,67444,128,0,68367:0:0:0:0:
448,192,68367,1,0,0:0:0:0:
64,192,68367,1,8,0:0:0:0:
192,192,68829,1,0,0:0:0:0:
64,192,68829,1,8,0:0:0:0:
320,192,69060,1,0,0:0:0:0:
320,192,69290,1,8,0:0:0:0:
448,192,69290,1,0,0:0:0:0:
192,192,69521,1,0,0:0:0:0:
64,192,69752,1,0,0:0:0:0:
192,192,69752,1,8,0:0:0:0:
320,192,69983,1,0,0:0:0:0:
320,192,70213,1,8,0:0:0:0:
448,192,70213,1,0,0:0:0:0:
64,192,70213,128,0,72060:0:0:0:0:
192,192,70444,1,0,0:0:0:0:
320,192,70675,1,8,0:0:0:0:
448,192,70906,1,0,0:0:0:0:
192,192,71136,1,8,0:0:0:0:
320,192,71367,1,0,0:0:0:0:
448,192,71598,1,8,0:0:0:0:
320,192,71829,1,0,0:0:0:0:
448,192,72060,1,8,0:0:0:0:
192,192,72060,128,0,72521:0:0:0:0:
320,192,72521,1,8,0:0:0:0:
64,192,72752,1,0,0:0:0:0:
192,192,72983,1,8,0:0:0:0:
320,192,72983,1,0,0:0:0:0:
448,192,73213,1,0,0:0:0:0:
320,192,73444,1,0,0:0:0:0:
192,192,73444,1,8,0:0:0:0:
192,192,73790,1,8,0:0:0:0:
320,192,73790,1,0,0:0:0:0:
64,192,74136,1,0,0:0:0:0:
448,192,74367,1,8,0:0:0:0:
64,192,74598,1,0,0:0:0:0:
448,192,74829,1,8,0:0:0:0:
64,192,75060,1,0,0:0:0:0:
448,192,75290,1,8,0:0:0:0:
320,192,75290,128,0,75752:0:0:0:0:
192,192,75752,1,8,0:0:0:0:
64,192,75983,1,0,0:0:0:0:
192,192,76213,1,8,0:0:0:0:
448,192,76675,1,0,0:0:0:0:
320,192,76675,1,8,0:0:0:0:
448,192,77136,1,8,0:0:0:0:
320,192,77367,1,0,0:0:0:0:
64,192,77598,1,0,0:0:0:0:
192,192,77598,1,8,0:0:0:0:
320,192,77829,1,0,0:0:0:0:
448,192,78060,1,8,0:0:0:0:
192,192,78290,1,0,0:0:0:0:
64,192,78521,1,8,0:0:0:0:
320,192,78752,1,0,0:0:0:0:
448,192,78983,1,0,0:0:0:0:
192,192,79213,1,8,0:0:0:0:
320,192,79444,1,8,0:0:0:0:
64,192,79444,1,0,0:0:0:0:
192,192,79906,1,8,0:0:0:0:
448,192,79906,1,0,0:0:0:0:
320,192,80367,1,8,0:0:0:0:
64,192,80367,1,0,0:0:0:0:
192,192,80829,1,8,0:0:0:0:
448,192,80829,1,0,0:0:0:0:
64,192,81060,1,2,0:0:0:0:
192,192,81290,1,8,0:0:0:0:
448,192,81290,1,0,0:0:0:0:
320,192,81521,1,8,0:0:0:0:
192,192,81752,1,8,0:0:0:0:
64,192,81983,1,8,0:0:0:0:
320,192,82213,1,8,0:0:0:0:
192,192,82444,1,8,0:0:0:0:
64,192,82675,1,8,0:0:0:0:
320,192,82906,1,0,0:0:0:0:
448,192,83136,1,0,0:0:0:0:
64,192,83136,1,8,0:0:0:0:
320,192,83367,1,0,0:0:0:0:
64,192,83598,1,8,0:0:0:0:
448,192,83598,1,0,0:0:0:0:
192,192,83829,1,0,0:0:0:0:
64,192,84060,1,8,0:0:0:0:
448,192,84060,1,0,0:0:0:0:
320,192,84290,1,0,0:0:0:0:
64,192,84521,1,8,0:0:0:0:
448,192,84521,1,0,0:0:0:0:
192,192,84752,1,0,0:0:0:0:
64,192,84983,1,8,0:0:0:0:
448,192,84983,1,0,0:0:0:0:
320,192,85213,1,0,0:0:0:0:
192,192,85444,1,8,0:0:0:0:
64,192,85444,1,0,0:0:0:0:
320,192,85675,1,0,0:0:0:0:
192,192,85906,1,8,0:0:0:0:
64,192,85906,1,0,0:0:0:0:
448,192,86136,1,0,0:0:0:0:
320,192,86367,1,8,0:0:0:0:
192,192,86367,1,0,0:0:0:0:
448,192,86598,1,0,0:0:0:0:
320,192,86829,1,8,0:0:0:0:
192,192,86829,1,0,0:0:0:0:
64,192,87060,1,0,0:0:0:0:
192,192,87290,1,8,0:0:0:0:
320,192,87521,1,0,0:0:0:0:
448,192,87752,1,0,0:0:0:0:
64,192,87752,1,8,0:0:0:0:
192,192,87983,1,0,0:0:0:0:
320,192,88213,1,8,0:0:0:0:
448,192,88444,1,0,0:0:0:0:
64,192,88675,1,8,0:0:0:0:
192,192,88675,1,0,0:0:0:0:
320,192,88906,1,0,0:0:0:0:
448,192,89136,1,8,0:0:0:0:
320,192,89367,1,0,0:0:0:0:
192,192,89598,1,8,0:0:0:0:
64,192,89829,1,0,0:0:0:0:
192,192,90060,1,8,0:0:0:0:
320,192,90290,1,0,0:0:0:0:
448,192,90521,1,8,0:0:0:0:
64,192,90521,1,0,0:0:0:0:
192,192,90752,1,2,0:0:0:0:
448,192,90983,1,0,0:0:0:0:
64,192,90983,1,8,0:0:0:0:
320,192,91213,1,2,0:0:0:0:
448,192,91444,1,8,0:0:0:0:
64,192,91444,1,0,0:0:0:0:
192,192,91675,1,0,0:0:0:0:
64,192,91906,1,0,0:0:0:0:
448,192,91906,1,8,0:0:0:0:
320,192,92136,1,0,0:0:0:0:
64,192,92367,1,8,0:0:0:0:
448,192,92367,1,0,0:0:0:0:
192,192,92598,1,8,0:0:0:0:
320,192,92829,1,8,0:0:0:0:
448,192,93060,1,8,0:0:0:0:
64,192,93290,1,0,0:0:0:0:
192,192,93290,1,8,0:0:0:0:
320,192,93521,1,2,0:0:0:0:
448,192,93752,1,8,0:0:0:0:
192,192,93983,1,2,0:0:0:0:
320,192,94213,1,0,0:0:0:0:
64,192,94213,1,8,0:0:0:0:
192,192,94444,1,2,0:0:0:0:
320,192,94675,1,8,0:0:0:0:
448,192,94906,1,0,0:0:0:0:
192,192,94906,1,0,0:0:0:0:
64,192,95136,1,8,0:0:0:0:
320,192,95136,1,0,0:0:0:0:
192,192,95367,1,0,0:0:0:0:
448,192,95367,1,0,0:0:0:0:
320,192,95598,1,8,0:0:0:0:
64,192,95598,1,0,0:0:0:0:
192,192,95829,1,0,0:0:0:0:
448,192,95829,1,0,0:0:0:0:
192,192,96290,1,0,0:0:0:0:
320,192,96290,1,0,0:0:0:0:
64,192,96636,1,0,0:0:0:0:
192,192,96636,1,0,0:0:0:0:
320,192,96983,1,0,0:0:0:0:
448,192,96983,1,0,0:0:0:0:
64,192,97444,128,0,97906:0:0:0:0:
320,192,97906,1,4,0:0:0:0:
448,192,97906,128,0,99752:0:0:0:0:
192,192,98136,1,0,0:0:0:0:
64,192,98367,1,0,0:0:0:0:
192,192,98367,1,8,0:0:0:0:
320,192,98598,1,0,0:0:0:0:
192,192,98829,1,8,0:0:0:0:
64,192,98829,1,0,0:0:0:0:
320,192,99060,1,0,0:0:0:0:
192,192,99290,1,8,0:0:0:0:
64,192,99290,1,0,0:0:0:0:
320,192,99521,1,0,0:0:0:0:
64,192,99752,1,8,0:0:0:0:
192,192,99752,128,0,101598:0:0:0:0:
64,192,100213,1,8,0:0:0:0:
320,192,100213,1,2,0:0:0:0:
448,192,100675,1,2,0:0:0:0:
64,192,100675,1,8,0:0:0:0:
64,192,101136,1,8,0:0:0:0:
320,192,101136,1,2,0:0:0:0:
64,192,101598,1,8,0:0:0:0:
320,192,101598,128,0,103444:0:0:0:0:
448,192,101829,1,0,0:0:0:0:
192,192,102060,1,8,0:0:0:0:
64,192,102060,1,0,0:0:0:0:
448,192,102290,1,0,0:0:0:0:
192,192,102521,1,8,0:0:0:0:
64,192,102521,1,0,0:0:0:0:
448,192,102752,1,0,0:0:0:0:
192,192,102983,1,8,0:0:0:0:
64,192,102983,1,0,0:0:0:0:
448,192,103213,1,0,0:0:0:0:
192,192,103444,1,8,0:0:0:0:
64,192,103444,128,0,105290:0:0:0:0:
192,192,103675,1,0,0:0:0:0:
448,192,103906,1,8,0:0:0:0:
192,192,104136,1,0,0:0:0:0:
320,192,104367,1,8,0:0:0:0:
320,192,104598,1,0,0:0:0:0:
448,192,104829,1,8,0:0:0:0:
320,192,105060,1,0,0:0:0:0:
192,192,105290,1,8,0:0:0:0:
448,192,105290,128,0,107136:0:0:0:0:
320,192,105521,1,0,0:0:0:0:
64,192,105752,1,0,0:0:0:0:
192,192,105752,1,8,0:0:0:0:
320,192,105983,1,0,0:0:0:0:
64,192,106213,1,8,0:0:0:0:
192,192,106213,1,0,0:0:0:0:
320,192,106444,1,0,0:0:0:0:
192,192,106675,1,8,0:0:0:0:
64,192,106675,1,0,0:0:0:0:
320,192,106906,1,0,0:0:0:0:
64,192,107136,128,0,108983:0:0:0:0:
320,192,107136,1,0,0:0:0:0:
192,192,107367,1,0,0:0:0:0:
320,192,107598,1,8,0:0:0:0:
448,192,107829,1,0,0:0:0:0:
320,192,108060,1,8,0:0:0:0:
192,192,108290,1,0,0:0:0:0:
320,192,108521,1,8,0:0:0:0:
448,192,108752,1,0,0:0:0:0:
320,192,108983,1,8,0:0:0:0:
192,192,108983,128,0,110829:0:0:0:0:
448,192,109444,1,0,0:0:0:0:
64,192,109444,1,8,0:0:0:0:
320,192,109906,1,0,0:0:0:0:
64,192,109906,1,8,0:0:0:0:
448,192,110367,1,0,0:0:0:0:
64,192,110367,1,8,0:0:0:0:
320,192,110829,1,0,0:0:0:0:
64,192,110829,1,8,0:0:0:0:
448,192,111060,1,8,0:0:0:0:
320,192,111290,1,8,0:0:0:0:
192,192,111521,1,8,0:0:0:0:
64,192,111752,1,8,0:0:0:0:
192,192,111983,1,8,0:0:0:0:
320,192,112213,1,8,0:0:0:0:
448,192,112213,1,0,0:0:0:0:
192,192,112444,1,0,0:0:0:0:
64,192,112675,128,0,114521:0:0:0:0:
448,192,112675,1,8,0:0:0:0:
448,192,112906,1,0,0:0:0:0:
320,192,113136,1,8,0:0:0:0:
192,192,113136,1,0,0:0:0:0:
448,192,113598,1,8,0:0:0:0:
320,192,113598,1,0,0:0:0:0:
320,192,114060,1,0,0:0:0:0:
192,192,114060,1,8,0:0:0:0:
448,192,114521,128,0,116367:0:0:0:0:
320,192,114521,1,8,0:0:0:0:
192,192,114752,1,0,0:0:0:0:
64,192,114983,1,8,0:0:0:0:
320,192,115213,1,0,0:0:0:0:
192,192,115444,1,8,0:0:0:0:
64,192,115675,1,0,0:0:0:0:
320,192,115906,1,8,0:0:0:0:
192,192,116136,1,0,0:0:0:0:
64,192,116367,1,8,0:0:0:0:
320,192,116367,128,0,118213:0:0:0:0:
192,192,116598,1,0,0:0:0:0:
448,192,116829,1,0,0:0:0:0:
64,192,116829,1,8,0:0:0:0:
192,192,117060,1,0,0:0:0:0:
448,192,117290,1,0,0:0:0:0:
64,192,117290,1,8,0:0:0:0:
192,192,117521,1,0,0:0:0:0:
448,192,117752,1,0,0:0:0:0:
64,192,117752,1,8,0:0:0:0:
192,192,117983,1,0,0:0:0:0:
448,192,118213,128,0,120060:0:0:0:0:
64,192,118213,1,8,0:0:0:0:
192,192,118444,1,0,0:0:0:0:
320,192,118675,1,0,0:0:0:0:
192,192,118906,1,0,0:0:0:0:
64,192,119136,1,8,0:0:0:0:
192,192,119367,1,0,0:0:0:0:
320,192,119598,1,8,0:0:0:0:
192,192,119829,1,0,0:0:0:0:
64,192,120060,1,8,0:0:0:0:
320,192,120060,128,8,120521:0:0:0:0:
192,192,120521,128,0,120983:0:0:0:0:
448,192,120521,1,0,0:0:0:0:
64,192,120983,128,8,121444:0:0:0:0:
320,192,120983,1,0,0:0:0:0:
192,192,121444,128,0,121906:0:0:0:0:
320,192,121444,1,0,0:0:0:0:
320,192,121906,128,8,122367:0:0:0:0:
64,192,121906,1,0,0:0:0:0:
448,192,122367,128,8,122829:0:0:0:0:
192,192,122367,1,0,0:0:0:0:
320,192,122829,128,8,123290:0:0:0:0:
64,192,122829,1,0,0:0:0:0:
192,192,123290,128,8,123752:0:0:0:0:
448,192,123290,1,0,0:0:0:0:
64,192,123752,128,0,125598:0:0:0:0:
320,192,123752,1,8,0:0:0:0:
448,192,123983,1,0,0:0:0:0:
320,192,124213,1,8,0:0:0:0:
192,192,124213,1,0,0:0:0:0:
448,192,124444,1,0,0:0:0:0:
320,192,124675,1,8,0:0:0:0:
192,192,124675,1,0,0:0:0:0:
448,192,124906,1,0,0:0:0:0:
320,192,125136,1,8,0:0:0:0:
192,192,125136,1,0,0:0:0:0:
448,192,125367,1,0,0:0:0:0:
320,192,125598,1,8,0:0:0:0:
448,192,125598,1,0,0:0:0:0:
192,192,125829,1,0,0:0:0:0:
448,192,125829,1,0,0:0:0:0:
64,192,126175,1,0,0:0:0:0:
320,192,126175,1,0,0:0:0:0:
192,192,126521,128,0,129521:0:0:0:0:
448,192,126521,128,0,129521:0:0:0:0:
