osu file format v14

[General]
AudioFilename: 124-memory-of-beach.mp3
AudioLeadIn: 0
PreviewTime: -1
Countdown: 0
SampleSet: Soft
StackLeniency: 0.7
Mode: 2
LetterboxInBreaks: 1
WidescreenStoryboard: 1

[Editor]
DistanceSpacing: 1.2
BeatDivisor: 4
GridSize: 16
TimelineZoom: 4.099998

[Metadata]
Title:Memory of Beach
TitleUnicode:Memory of Beach
Artist:M2U
ArtistUnicode:M2U
Creator:Sovyat
Version:199.4
Source:DJMAX ONLINE
Tags:djmax m2u
BeatmapID:1625066
BeatmapSetID:658857

[Difficulty]
HPDrainRate:6
CircleSize:4
OverallDifficulty:9.4
ApproachRate:9.4
SliderMultiplier:1.4
SliderTickRate:1

[Events]
//Background and Video events
0,0,"sunlight-drawing-fantasy-art-sea-anime-girls-water-187277-wallhere.com.jpg",0,0
//Break Periods
//Storyboard Layer 0 (Background)
//Storyboard Layer 1 (Fail)
//Storyboard Layer 2 (Pass)
//Storyboard Layer 3 (Foreground)
//Storyboard Sound Samples

[TimingPoints]
12,461.538461538462,4,2,0,100,1,0

[HitObjects]
352,320,12,6,0,L|432:320,1,70
240,240,473,2,0,L|320:240,1,70
96,224,1165,2,0,L|96:160,1,61.25
256,336,1858,1,0,0:0:0:0:
352,288,2088,1,0,0:0:0:0:
256,160,2319,1,0,0:0:0:0:
112,112,2550,1,0,0:0:0:0:
304,64,2781,1,0,0:0:0:0:
128,32,3012,1,0,0:0:0:0:
432,144,3271,6,0,L|368:128,1,61.25
80,176,3704,2,0,L|160:176,1,70
416,96,4165,1,0,0:0:0:0:
48,96,4396,1,0,0:0:0:0:
320,128,4858,2,0,L|245:129,1,70
64,304,5781,1,0,0:0:0:0:
432,304,6012,1,0,0:0:0:0:
256,224,6704,2,0,L|216:224,2,35
384,288,7396,5,0,0:0:0:0:
432,240,7512,1,0,0:0:0:0:
464,208,7627,1,0,0:0:0:0:
160,208,7858,1,0,0:0:0:0:
112,160,7973,1,0,0:0:0:0:
64,112,8088,1,0,0:0:0:0:
144,48,8204,1,0,0:0:0:0:
272,48,8319,1,0,0:0:0:0:
64,32,8550,1,0,0:0:0:0:
352,112,8781,5,0,0:0:0:0:
416,80,8896,1,0,0:0:0:0:
352,48,9012,1,0,0:0:0:0:
416,32,9127,1,0,0:0:0:0:
480,32,9242,2,0,P|448:32|411:54,1,70
96,320,9704,2,0,P|96:304|52:304,1,70
400,320,10165,2,0,L|474:320,1,70
320,240,10512,1,0,0:0:0:0:
144,176,10627,2,0,L|215:175,1,70
64,96,10973,1,0,0:0:0:0:
192,32,11088,2,0,L|121:31,1,70
432,112,11550,6,0,P|384:112|368:96,1,70
160,96,12012,1,0,0:0:0:0:
336,80,12242,1,0,0:0:0:0:
48,224,12473,2,0,L|122:222,1,70
272,208,12819,1,0,0:0:0:0:
432,192,12935,1,0,0:0:0:0:
112,160,13165,1,0,0:0:0:0:
288,144,13396,1,0,0:0:0:0:
192,80,13627,1,0,0:0:0:0:
128,48,13742,1,0,0:0:0:0:
80,16,13858,1,0,0:0:0:0:
416,48,14088,5,0,0:0:0:0:
224,112,14319,2,0,L|288:80,1,70
224,176,14665,1,0,0:0:0:0:
336,208,14781,2,0,L|410:208,1,70
480,320,15127,1,0,0:0:0:0:
368,320,15242,2,0,P|323:324|302:314,1,70
160,272,15588,1,0,0:0:0:0:
288,224,15704,1,0,0:0:0:0:
160,160,15819,1,0,0:0:0:0:
48,112,15935,1,0,0:0:0:0:
176,64,16050,6,0,L|217:63,1,35
112,16,16396,2,0,L|37:17,1,70
352,176,16858,2,0,L|425:177,1,70
448,240,17204,1,0,0:0:0:0:
416,288,17319,1,0,0:0:0:0:
384,336,17435,1,0,0:0:0:0:
336,368,17550,1,0,0:0:0:0:
96,336,17781,2,0,L|97:295,1,35
384,240,18242,2,0,L|460:240,1,70
128,240,18704,2,0,L|57:240,1,70
64,176,19050,1,0,0:0:0:0:
96,128,19165,1,0,0:0:0:0:
144,96,19281,1,0,0:0:0:0:
192,64,19396,1,0,0:0:0:0:
256,96,19512,5,0,0:0:0:0:
336,112,19627,1,0,0:0:0:0:
416,144,19742,1,0,0:0:0:0:
448,208,19858,1,0,0:0:0:0:
416,272,19973,1,0,0:0:0:0:
352,320,20088,1,0,0:0:0:0:
288,352,20204,1,0,0:0:0:0:
128,224,20319,5,0,0:0:0:0:
224,144,20550,1,0,0:0:0:0:
368,144,20781,1,0,0:0:0:0:
160,176,21012,1,0,0:0:0:0:
416,192,21242,1,0,0:0:0:0:
112,208,21473,1,0,0:0:0:0:
464,224,21704,1,0,0:0:0:0:
112,240,21935,2,0,L|42:228,1,70
400,96,22396,1,0,0:0:0:0:
384,144,22512,1,0,0:0:0:0:
352,192,22627,1,0,0:0:0:0:
304,224,22742,5,0,0:0:0:0:
240,256,22858,1,0,0:0:0:0:
240,304,22973,1,0,0:0:0:0:
304,320,23088,1,0,0:0:0:0:
368,336,23204,1,0,0:0:0:0:
432,336,23319,2,0,L|471:337,2,35
112,240,23781,2,0,L|80:176,1,70
128,112,24127,1,0,0:0:0:0:
224,80,24242,1,0,0:0:0:0:
320,64,24358,1,0,0:0:0:0:
400,96,24473,5,0,0:0:0:0:
432,160,24588,1,0,0:0:0:0:
400,240,24704,1,0,0:0:0:0:
352,288,24819,1,0,0:0:0:0:
288,304,24935,2,0,L|287:234,1,70
464,192,25281,1,0,0:0:0:0:
400,240,25627,2,0,L|432:176,1,70
384,112,25973,1,0,0:0:0:0:
288,80,26088,1,0,0:0:0:0:
192,64,26204,1,0,0:0:0:0:
112,96,26319,5,0,0:0:0:0:
80,160,26434,1,0,0:0:0:0:
112,240,26550,1,0,0:0:0:0:
160,288,26665,1,0,0:0:0:0:
224,304,26781,2,0,L|225:234,1,70
48,192,27127,1,0,0:0:0:0:
464,304,27473,6,0,L|448:240,1,35
368,240,27704,1,0,0:0:0:0:
64,288,27935,1,0,0:0:0:0:
144,224,28050,2,0,L|144:176,1,35
368,160,28396,2,0,L|320:112,1,35
256,80,28627,1,0,0:0:0:0:
48,160,28858,2,0,L|112:144,1,35
32,80,29088,1,0,0:0:0:0:
384,320,29319,6,0,L|400:272,1,35
384,256,29550,2,0,P|416:224|432:176,1,70
368,128,29896,1,0,0:0:0:0:
288,64,30012,1,0,0:0:0:0:
64,240,30242,2,0,L|80:176,1,35
112,144,30473,1,0,0:0:0:0:
112,64,30588,1,0,0:0:0:0:
112,16,30704,1,0,0:0:0:0:
144,192,30819,1,0,0:0:0:0:
352,336,30935,6,0,L|416:288,1,70
416,256,31281,2,0,P|416:224|400:192,1,35
160,320,31627,6,0,L|112:272,1,35
80,224,31858,2,0,L|64:160,1,35
128,96,32088,2,0,L|176:64,1,35
336,240,32319,2,0,L|288:208,1,35
224,176,32550,1,0,0:0:0:0:
464,192,32665,1,0,0:0:0:0:
224,192,33012,5,0,0:0:0:0:
416,304,33242,2,0,P|464:272|480:240,1,70
352,224,33588,2,0,L|400:192,1,35
288,160,33819,2,0,L|304:112,1,35
176,144,34050,2,0,L|160:80,1,35
112,304,34281,2,0,L|64:272,1,35
176,240,34512,2,0,L|240:240,2,35
128,224,34858,5,0,0:0:0:0:
80,176,34973,1,0,0:0:0:0:
224,144,35088,1,0,0:0:0:0:
96,96,35319,1,0,0:0:0:0:
320,112,35550,1,0,0:0:0:0:
160,64,35781,1,0,0:0:0:0:
400,64,36012,1,0,0:0:0:0:
128,208,36242,1,0,0:0:0:0:
432,224,36473,1,0,0:0:0:0:
272,240,36704,6,0,L|240:208,2,35
320,224,37050,1,0,0:0:0:0:
368,192,37165,1,0,0:0:0:0:
384,144,37281,1,0,0:0:0:0:
384,80,37396,1,0,0:0:0:0:
96,288,37512,2,0,L|144:256,2,35
48,240,37858,1,0,0:0:0:0:
16,192,37973,1,0,0:0:0:0:
16,144,38088,1,0,0:0:0:0:
48,96,38204,1,0,0:0:0:0:
80,64,38319,1,0,0:0:0:0:
304,320,38781,6,0,L|384:320,1,70
208,256,39242,2,0,P|160:224|144:192,1,70
64,176,39588,1,0,0:0:0:0:
256,128,39704,2,0,P|304:112|320:80,1,70
464,96,40165,1,0,0:0:0:0:
272,64,40396,1,0,0:0:0:0:
416,32,40627,1,0,0:0:0:0:
192,192,40858,6,0,P|160:160|176:128,1,70
416,240,41319,2,0,P|432:192|400:160,1,70
224,256,41781,2,0,L|176:192,2,70
304,272,42358,1,0,0:0:0:0:
96,336,42473,2,0,P|48:304|32:272,1,70
240,208,42935,2,0,P|192:192|192:160,1,70
400,144,43396,1,0,0:0:0:0:
224,80,43627,1,0,0:0:0:0:
416,48,43858,1,0,0:0:0:0:
176,352,44088,6,0,B|256:336|256:272|128:272|64:272|16:256|16:208,1,280
400,240,45473,1,0,0:0:0:0:
208,208,45704,1,0,0:0:0:0:
320,128,45935,1,0,0:0:0:0:
48,112,46165,2,0,L|144:112,1,70
448,96,46627,2,0,L|352:96,1,70
192,48,46973,1,0,0:0:0:0:
80,304,47319,5,0,0:0:0:0:
240,256,47550,1,0,0:0:0:0:
96,160,47781,1,0,0:0:0:0:
416,144,48012,2,0,L|512:112,2,70
208,320,48704,2,0,L|256:320,1,35
80,256,49165,1,0,0:0:0:0:
256,192,49396,1,0,0:0:0:0:
480,176,49627,2,0,L|400:144,1,70
80,160,50088,2,0,L|80:80,1,70
336,352,50550,6,0,B|336:304|208:304|192:256|464:256|496:208|496:160|400:96|288:48,1,490
48,64,52396,6,0,L|128:32,2,70
224,96,53088,1,0,0:0:0:0:
256,128,53319,1,0,0:0:0:0:
432,48,53435,2,0,L|464:64,1,35
304,272,53781,6,0,L|224:272,1,70
112,224,54242,2,0,L|144:208,1,35
32,144,54473,1,0,0:0:0:0:
192,112,54704,2,0,L|272:112,1,70
336,64,55165,1,0,0:0:0:0:
432,128,55396,1,0,0:0:0:0:
144,320,55627,6,0,B|176:320|192:320|224:320,1,70
416,256,56088,2,0,B|416:240|432:224|416:208|400:176,1,70
224,160,56550,1,0,0:0:0:0:
352,96,56781,1,0,0:0:0:0:
96,80,57012,1,0,0:0:0:0:
208,32,57127,2,0,L|240:16,1,35
464,320,57473,2,0,L|368:320,1,70
192,288,57935,2,0,L|288:272,1,70
336,256,58396,5,0,0:0:0:0:
192,176,58627,1,0,0:0:0:0:
480,144,58858,1,0,0:0:0:0:
176,144,59088,2,0,L|226:87,2,70
45,225,59781,1,0,0:0:0:0:
268,228,60012,1,0,0:0:0:0:
432,336,60242,6,0,P|480:299|497:312,1,70
320,256,60704,1,0,0:0:0:0:
144,208,60935,2,0,L|217:177,2,70
80,208,61627,1,0,0:0:0:0:
32,160,61742,1,0,0:0:0:0:
400,320,62088,2,0,P|432:304|448:272,1,70
448,224,62435,1,0,0:0:0:0:
432,208,62550,1,0,0:0:0:0:
400,192,62665,1,0,0:0:0:0:
368,176,62781,1,0,0:0:0:0:
32,128,63012,5,0,0:0:0:0:
256,80,63242,1,0,0:0:0:0:
96,80,63473,2,0,L|96:32,1,35
288,144,63935,2,0,L|208:128,1,70
480,80,64396,2,0,L|400:64,1,70
96,144,64858,2,0,L|176:112,1,70
48,304,65319,2,0,L|128:272,1,70
256,224,65781,5,0,0:0:0:0:
432,240,66012,2,0,B|448:224|448:208|432:192,1,35
384,176,66242,1,0,0:0:0:0:
240,112,66358,1,0,0:0:0:0:
112,64,66473,1,0,0:0:0:0:
416,48,66704,5,0,0:0:0:0:
96,144,67050,1,0,0:0:0:0:
432,160,67396,1,0,0:0:0:0:
256,272,67627,6,0,P|224:240|224:208,1,70
288,176,67973,1,0,0:0:0:0:
384,128,68088,1,0,0:0:0:0:
464,80,68204,1,0,0:0:0:0:
416,240,68319,6,0,P|384:272|288:288,1,140
