osu file format v14

[General]
AudioFilename: Masquerade.mp3
AudioLeadIn: 0
PreviewTime: 65718
Countdown: 0
SampleSet: Normal
StackLeniency: 0.7
Mode: 1
LetterboxInBreaks: 0
WidescreenStoryboard: 0

[Editor]
DistanceSpacing: 1
BeatDivisor: 4
GridSize: 8
TimelineZoom: 1.8

[Metadata]
Title:Masquerade
TitleUnicode:Masquerade
Artist:M2U
ArtistUnicode:M2U
Creator:rgbeing
Version:Taiko Oni
Source:Cytus
Tags:
BeatmapID:656361
BeatmapSetID:290125

[Difficulty]
HPDrainRate:6
CircleSize:4
OverallDifficulty:7
ApproachRate:7
SliderMultiplier:1.4
SliderTickRate:1

[Events]
//Background and Video events
0,0,"Mq.jpg",0,0
//Break Periods
//Storyboard Layer 0 (Background)
//Storyboard Layer 1 (Fail)
//Storyboard Layer 2 (Pass)
//Storyboard Layer 3 (Foreground)
//Storyboard Sound Samples

[TimingPoints]
90,468.75,4,1,0,100,1,0
1261,-100,4,1,0,40,0,0
1965,-100,4,1,0,60,0,0
35715,-100,4,1,0,80,0,0
50715,-100,4,1,0,100,0,0
65715,-100,4,1,0,100,0,1
80715,-100,4,2,0,80,0,0
95715,-100,4,1,0,100,0,0
110715,-100,4,1,0,80,0,0
118215,-100,4,1,0,100,0,0
125715,-100,4,1,0,100,0,1
140246,-100,4,1,0,100,0,0

[Colours]
Combo1 : 128,0,64
Combo2 : 255,128,0
Combo3 : 18,124,255
Combo4 : 242,24,57

[HitObjects]
256,192,1261,5,0,0:0:0:0:
256,192,1340,1,0,0:0:0:0:
256,192,1418,1,0,0:0:0:0:
256,192,1496,1,8,0:0:0:0:
256,192,1965,1,0,0:0:0:0:
256,192,2199,1,0,0:0:0:0:
256,192,2433,1,8,0:0:0:0:
256,192,2902,1,0,0:0:0:0:
256,192,3136,1,0,0:0:0:0:
256,192,3370,1,8,0:0:0:0:
256,192,3840,1,0,0:0:0:0:
256,192,4074,1,0,0:0:0:0:
256,192,4308,1,8,0:0:0:0:
256,192,4777,1,0,0:0:0:0:
256,192,5011,1,0,0:0:0:0:
256,192,5245,1,8,0:0:0:0:
256,192,5715,1,0,0:0:0:0:
256,192,5949,1,0,0:0:0:0:
256,192,6183,1,8,0:0:0:0:
256,192,6652,1,0,0:0:0:0:
256,192,6886,1,0,0:0:0:0:
256,192,7120,1,8,0:0:0:0:
256,192,7590,1,0,0:0:0:0:
256,192,7824,1,0,0:0:0:0:
256,192,8058,1,8,0:0:0:0:
256,192,8527,1,0,0:0:0:0:
256,192,8761,1,0,0:0:0:0:
256,192,8879,1,0,0:0:0:0:
256,192,8995,1,8,0:0:0:0:
256,192,9230,1,0,0:0:0:0:
256,192,9308,1,0,0:0:0:0:
256,192,9386,1,0,0:0:0:0:
256,192,9465,1,0,0:0:0:0:
256,192,9699,1,0,0:0:0:0:
256,192,9933,1,8,0:0:0:0:
256,192,10402,1,0,0:0:0:0:
256,192,10636,1,0,0:0:0:0:
256,192,10870,1,8,0:0:0:0:
256,192,11340,1,0,0:0:0:0:
256,192,11574,1,0,0:0:0:0:
256,192,11808,1,8,0:0:0:0:
256,192,12277,1,0,0:0:0:0:
256,192,12511,1,0,0:0:0:0:
256,192,12745,1,8,0:0:0:0:
256,192,13215,1,0,0:0:0:0:
256,192,13449,1,0,0:0:0:0:
256,192,13683,1,8,0:0:0:0:
256,192,14152,1,0,0:0:0:0:
256,192,14386,1,0,0:0:0:0:
256,192,14620,1,8,0:0:0:0:
256,192,15090,1,0,0:0:0:0:
256,192,15441,1,0,0:0:0:0:
256,192,15558,1,8,0:0:0:0:
256,192,15793,1,0,0:0:0:0:
256,192,16027,1,0,0:0:0:0:
256,192,16144,1,0,0:0:0:0:
256,192,16261,1,8,0:0:0:0:
256,192,16379,1,0,0:0:0:0:
256,192,16496,1,8,0:0:0:0:
256,192,16730,1,0,0:0:0:0:
256,192,16847,1,0,0:0:0:0:
256,192,16965,1,0,0:0:0:0:
256,192,17199,1,8,0:0:0:0:
256,192,17433,1,8,0:0:0:0:
256,192,17668,1,0,0:0:0:0:
256,192,17785,1,0,0:0:0:0:
256,192,17902,1,0,0:0:0:0:
256,192,18136,1,8,0:0:0:0:
256,192,18370,1,8,0:0:0:0:
256,192,18605,1,0,0:0:0:0:
256,192,18840,1,0,0:0:0:0:
256,192,19074,1,8,0:0:0:0:
256,192,19308,1,0,0:0:0:0:
256,192,19543,1,0,0:0:0:0:
256,192,19777,1,8,0:0:0:0:
256,192,20246,1,4,0:0:0:0:
256,192,20715,1,0,0:0:0:0:
256,192,20949,1,8,0:0:0:0:
256,192,21183,1,8,0:0:0:0:
256,192,21418,1,0,0:0:0:0:
256,192,21535,1,0,0:0:0:0:
256,192,21652,1,0,0:0:0:0:
256,192,21886,1,8,0:0:0:0:
256,192,22121,1,0,0:0:0:0:
256,192,22355,1,8,0:0:0:0:
256,192,22590,1,0,0:0:0:0:
256,192,22824,1,8,0:0:0:0:
256,192,23058,1,8,0:0:0:0:
256,192,23175,1,0,0:0:0:0:
256,192,23293,1,8,0:0:0:0:
256,192,23527,1,0,0:0:0:0:
256,192,23761,1,8,0:0:0:0:
256,192,23878,1,0,0:0:0:0:
256,192,23996,1,8,0:0:0:0:
256,192,24230,1,0,0:0:0:0:
256,192,24465,1,0,0:0:0:0:
256,192,24699,1,8,0:0:0:0:
256,192,24933,1,8,0:0:0:0:
256,192,25168,1,0,0:0:0:0:
256,192,25285,1,0,0:0:0:0:
256,192,25402,1,0,0:0:0:0:
256,192,25636,1,0,0:0:0:0:
256,192,25754,1,0,0:0:0:0:
256,192,25871,1,8,0:0:0:0:
256,192,26105,1,0,0:0:0:0:
256,192,26340,1,0,0:0:0:0:
256,192,26691,1,0,0:0:0:0:
256,192,26808,1,8,0:0:0:0:
256,192,27043,1,0,0:0:0:0:
256,192,27277,1,8,0:0:0:0:
256,192,27511,1,0,0:0:0:0:
256,192,27629,1,0,0:0:0:0:
256,192,27746,1,8,0:0:0:0:
256,192,27980,1,0,0:0:0:0:
256,192,28215,1,0,0:0:0:0:
256,192,28566,1,0,0:0:0:0:
256,192,28683,1,8,0:0:0:0:
256,192,28918,1,0,0:0:0:0:
256,192,29152,1,0,0:0:0:0:
256,192,29269,1,0,0:0:0:0:
256,192,29386,1,0,0:0:0:0:
256,192,29504,1,0,0:0:0:0:
256,192,29621,1,8,0:0:0:0:
256,192,29855,1,0,0:0:0:0:
256,192,29972,1,0,0:0:0:0:
256,192,30090,1,0,0:0:0:0:
256,192,30324,1,8,0:0:0:0:
256,192,30558,1,0,0:0:0:0:
256,192,30793,1,8,0:0:0:0:
256,192,31027,1,8,0:0:0:0:
256,192,31379,1,0,0:0:0:0:
256,192,31496,1,8,0:0:0:0:
256,192,31730,1,8,0:0:0:0:
256,192,31965,1,0,0:0:0:0:
256,192,32316,1,0,0:0:0:0:
256,192,32433,1,8,0:0:0:0:
256,192,32668,1,0,0:0:0:0:
256,192,32902,1,0,0:0:0:0:
256,192,33136,1,0,0:0:0:0:
256,192,33215,1,0,0:0:0:0:
256,192,33293,1,0,0:0:0:0:
256,192,33371,1,8,0:0:0:0:
256,192,33605,1,0,0:0:0:0:
256,192,33840,1,0,0:0:0:0:
256,192,34074,1,8,0:0:0:0:
256,192,34308,1,0,0:0:0:0:
256,192,34543,1,0,0:0:0:0:
256,192,34777,1,8,0:0:0:0:
256,192,35246,1,6,0:0:0:0:
256,192,35715,5,0,0:0:0:0:
256,192,35949,1,8,0:0:0:0:
256,192,36183,1,8,0:0:0:0:
256,192,36418,1,0,0:0:0:0:
256,192,36535,1,0,0:0:0:0:
256,192,36652,1,0,0:0:0:0:
256,192,36886,1,8,0:0:0:0:
256,192,37121,1,8,0:0:0:0:
256,192,37355,1,0,0:0:0:0:
256,192,37472,1,0,0:0:0:0:
256,192,37590,1,0,0:0:0:0:
256,192,37824,1,8,0:0:0:0:
256,192,38058,1,8,0:0:0:0:
256,192,38293,1,0,0:0:0:0:
256,192,38410,1,0,0:0:0:0:
256,192,38527,1,0,0:0:0:0:
256,192,38761,1,0,0:0:0:0:
256,192,38879,1,0,0:0:0:0:
256,192,38996,1,8,0:0:0:0:
256,192,39113,1,0,0:0:0:0:
256,192,39230,1,0,0:0:0:0:
256,192,39347,1,0,0:0:0:0:
256,192,39465,1,0,0:0:0:0:
256,192,39699,1,8,0:0:0:0:
256,192,39933,1,8,0:0:0:0:
256,192,40168,1,0,0:0:0:0:
256,192,40285,1,0,0:0:0:0:
256,192,40402,1,0,0:0:0:0:
256,192,40754,1,0,0:0:0:0:
256,192,40871,1,8,0:0:0:0:
256,192,40988,1,0,0:0:0:0:
256,192,41105,1,0,0:0:0:0:
256,192,41222,1,0,0:0:0:0:
256,192,41340,1,0,0:0:0:0:
256,192,41574,1,8,0:0:0:0:
256,192,41808,1,8,0:0:0:0:
256,192,42043,1,0,0:0:0:0:
252,188,42160,1,0,0:0:0:0:
252,188,42277,1,0,0:0:0:0:
256,192,42511,1,0,0:0:0:0:
256,192,42629,1,0,0:0:0:0:
256,192,42746,1,8,0:0:0:0:
256,192,42863,1,0,0:0:0:0:
256,192,42980,1,0,0:0:0:0:
256,192,43097,1,0,0:0:0:0:
252,188,43215,1,0,0:0:0:0:
252,188,43449,1,8,0:0:0:0:
252,188,43683,1,8,0:0:0:0:
256,192,43918,1,0,0:0:0:0:
256,192,44035,1,0,0:0:0:0:
256,192,44152,1,0,0:0:0:0:
256,192,44386,1,8,0:0:0:0:
256,192,44621,1,0,0:0:0:0:
256,192,44855,1,8,0:0:0:0:
252,188,45090,1,0,0:0:0:0:
256,196,45441,1,0,0:0:0:0:
256,192,45558,1,8,0:0:0:0:
256,192,45793,1,0,0:0:0:0:
256,192,46027,1,0,0:0:0:0:
256,192,46261,1,8,0:0:0:0:
256,192,46496,1,8,0:0:0:0:
256,192,46730,1,0,0:0:0:0:
256,192,46847,1,0,0:0:0:0:
256,192,46965,1,0,0:0:0:0:
256,192,47316,1,8,0:0:0:0:
256,192,47433,1,0,0:0:0:0:
256,192,47550,1,0,0:0:0:0:
256,192,47668,1,8,0:0:0:0:
256,192,47785,1,0,0:0:0:0:
256,192,47902,1,0,0:0:0:0:
256,192,48019,1,0,0:0:0:0:
256,192,48136,1,2,0:0:0:0:
256,192,48254,1,0,0:0:0:0:
256,192,48371,1,0,0:0:0:0:
256,192,48488,1,0,0:0:0:0:
256,192,48605,1,8,0:0:0:0:
256,192,48722,1,0,0:0:0:0:
256,192,48840,1,0,0:0:0:0:
256,192,49074,1,8,0:0:0:0:
256,192,49308,1,8,0:0:0:0:
256,192,49543,1,0,0:0:0:0:
256,192,49777,1,0,0:0:0:0:
256,192,50246,1,6,0:0:0:0:
256,192,50715,5,0,0:0:0:0:
256,192,50949,1,8,0:0:0:0:
256,192,51183,1,8,0:0:0:0:
256,192,51418,1,0,0:0:0:0:
256,192,51535,1,0,0:0:0:0:
256,192,51652,1,0,0:0:0:0:
256,192,51886,1,0,0:0:0:0:
256,192,52004,1,0,0:0:0:0:
256,192,52121,1,8,0:0:0:0:
256,192,52355,1,0,0:0:0:0:
256,192,52590,1,0,0:0:0:0:
256,192,52824,1,8,0:0:0:0:
256,192,53058,1,8,0:0:0:0:
256,192,53293,1,0,0:0:0:0:
256,192,53410,1,0,0:0:0:0:
256,192,53527,1,0,0:0:0:0:
256,192,53761,1,0,0:0:0:0:
256,192,53879,1,0,0:0:0:0:
256,192,53996,1,8,0:0:0:0:
256,192,54230,1,0,0:0:0:0:
256,192,54465,1,0,0:0:0:0:
256,192,54699,1,0,0:0:0:0:
256,192,54816,1,0,0:0:0:0:
256,192,54933,1,8,0:0:0:0:
256,192,55050,1,0,0:0:0:0:
256,192,55168,1,0,0:0:0:0:
256,192,55285,1,0,0:0:0:0:
256,192,55402,1,0,0:0:0:0:
256,192,55636,1,8,0:0:0:0:
256,192,55754,1,0,0:0:0:0:
256,192,55871,1,8,0:0:0:0:
256,192,56105,1,0,0:0:0:0:
256,192,56222,1,0,0:0:0:0:
256,192,56340,1,0,0:0:0:0:
256,192,56574,1,8,0:0:0:0:
256,192,56808,1,8,0:0:0:0:
256,192,57043,1,0,0:0:0:0:
256,192,57160,1,0,0:0:0:0:
256,192,57277,1,0,0:0:0:0:
256,192,57394,1,0,0:0:0:0:
256,192,57511,1,8,0:0:0:0:
256,192,57629,1,0,0:0:0:0:
256,192,57746,1,8,0:0:0:0:
256,192,57980,1,0,0:0:0:0:
256,192,58215,1,0,0:0:0:0:
256,192,58449,1,8,0:0:0:0:
256,192,58683,1,8,0:0:0:0:
256,192,58918,1,0,0:0:0:0:
256,192,59035,1,0,0:0:0:0:
256,192,59152,1,0,0:0:0:0:
256,192,59386,1,0,0:0:0:0:
256,192,59504,1,0,0:0:0:0:
256,192,59621,1,8,0:0:0:0:
256,192,59855,1,0,0:0:0:0:
256,192,60090,1,0,0:0:0:0:
256,192,60324,1,8,0:0:0:0:
256,192,60558,1,8,0:0:0:0:
256,192,60793,1,0,0:0:0:0:
256,192,60910,1,0,0:0:0:0:
256,192,61027,1,0,0:0:0:0:
256,192,61261,1,0,0:0:0:0:
256,192,61379,1,0,0:0:0:0:
256,192,61496,1,8,0:0:0:0:
256,192,61730,1,0,0:0:0:0:
256,192,61847,1,0,0:0:0:0:
256,192,61965,1,8,0:0:0:0:
256,192,62199,1,0,0:0:0:0:
256,192,62316,1,0,0:0:0:0:
256,192,62433,1,8,0:0:0:0:
256,192,62550,1,0,0:0:0:0:
256,192,62668,1,0,0:0:0:0:
256,192,62785,1,0,0:0:0:0:
256,192,62902,1,0,0:0:0:0:
256,192,63136,1,8,0:0:0:0:
256,192,63371,1,8,0:0:0:0:
256,192,63605,1,0,0:0:0:0:
256,192,63722,1,0,0:0:0:0:
256,192,63840,1,0,0:0:0:0:
256,192,64191,1,0,0:0:0:0:
256,192,64308,1,8,0:0:0:0:
256,192,64543,1,0,0:0:0:0:
256,192,64660,1,0,0:0:0:0:
256,192,64777,1,0,0:0:0:0:
256,192,65011,1,12,0:0:0:0:
256,192,65246,1,12,0:0:0:0:
256,192,65480,1,0,0:0:0:0:
256,192,65597,1,8,2:0:0:0:
256,192,65715,5,0,0:0:0:0:
256,192,65949,1,8,0:0:0:0:
256,192,66183,1,12,0:0:0:0:
256,192,66418,1,0,0:0:0:0:
256,192,66535,1,0,0:0:0:0:
256,192,66652,1,0,0:0:0:0:
256,192,66886,1,0,0:0:0:0:
256,192,67004,1,0,0:0:0:0:
256,192,67121,1,8,0:0:0:0:
256,192,67355,1,0,0:0:0:0:
256,192,67590,1,0,0:0:0:0:
256,192,67824,1,8,0:0:0:0:
256,192,68058,1,12,0:0:0:0:
256,192,68293,1,0,0:0:0:0:
256,192,68410,1,0,0:0:0:0:
256,192,68527,1,0,0:0:0:0:
256,192,68761,1,0,0:0:0:0:
256,192,68879,1,0,0:0:0:0:
256,192,68996,1,8,0:0:0:0:
256,192,69230,1,0,0:0:0:0:
256,192,69465,1,0,0:0:0:0:
256,192,69699,1,0,0:0:0:0:
256,192,69816,1,0,0:0:0:0:
256,192,69933,1,8,0:0:0:0:
256,192,70050,1,0,0:0:0:0:
256,192,70168,1,0,0:0:0:0:
256,192,70285,1,0,0:0:0:0:
256,192,70402,1,0,0:0:0:0:
256,192,70636,1,8,0:0:0:0:
256,192,70754,1,0,0:0:0:0:
256,192,70871,1,8,0:0:0:0:
256,192,71105,1,0,0:0:0:0:
256,192,71222,1,0,0:0:0:0:
256,192,71340,1,0,0:0:0:0:
256,192,71574,1,8,0:0:0:0:
256,192,71808,1,8,0:0:0:0:
256,192,72043,1,0,0:0:0:0:
256,192,72160,1,0,0:0:0:0:
256,192,72277,1,0,0:0:0:0:
256,192,72394,1,0,0:0:0:0:
256,192,72511,1,8,0:0:0:0:
256,192,72629,1,0,0:0:0:0:
256,192,72746,1,8,0:0:0:0:
256,192,72980,1,0,0:0:0:0:
256,192,73215,1,0,0:0:0:0:
256,192,73449,1,8,0:0:0:0:
256,192,73683,1,12,0:0:0:0:
256,192,73918,1,0,0:0:0:0:
256,192,74035,1,0,0:0:0:0:
256,192,74152,1,0,0:0:0:0:
256,192,74386,1,0,0:0:0:0:
256,192,74504,1,0,0:0:0:0:
256,192,74621,1,8,0:0:0:0:
256,192,74855,1,0,0:0:0:0:
256,192,75090,1,0,0:0:0:0:
256,192,75324,1,8,0:0:0:0:
256,192,75558,1,12,0:0:0:0:
256,192,75793,1,0,0:0:0:0:
256,192,75910,1,0,0:0:0:0:
256,192,76027,1,0,0:0:0:0:
256,192,76261,1,0,0:0:0:0:
256,192,76379,1,0,0:0:0:0:
256,192,76496,1,8,0:0:0:0:
256,192,76730,1,8,0:0:0:0:
256,192,76847,1,0,0:0:0:0:
256,192,76965,1,8,0:0:0:0:
256,192,77199,1,0,0:0:0:0:
256,192,77316,1,0,0:0:0:0:
256,192,77433,1,8,0:0:0:0:
256,192,77550,1,0,0:0:0:0:
256,192,77668,1,8,0:0:0:0:
256,192,77785,1,0,0:0:0:0:
256,192,77902,1,0,0:0:0:0:
256,192,78136,1,8,0:0:0:0:
256,192,78371,1,8,0:0:0:0:
256,192,78605,1,0,0:0:0:0:
256,192,78722,1,0,0:0:0:0:
256,192,78840,1,0,0:0:0:0:
256,192,79074,1,8,0:0:0:0:
256,192,79308,1,0,0:0:0:0:
256,192,79543,1,8,0:0:0:0:
256,192,79777,1,0,0:0:0:0:
256,192,80246,1,12,0:0:0:0:
256,192,80715,5,0,0:0:0:0:
256,192,81066,1,0,0:0:0:0:
256,192,81183,1,8,0:0:0:0:
256,192,81418,1,0,0:0:0:0:
256,192,81652,1,0,0:0:0:0:
256,192,82004,1,0,0:0:0:0:
256,192,82121,1,0,0:0:0:0:
256,192,82355,1,0,0:0:0:0:
256,192,82590,1,0,0:0:0:0:
256,192,82941,1,0,0:0:0:0:
256,192,83058,1,8,0:0:0:0:
256,192,83293,1,0,0:0:0:0:
256,192,83527,1,0,0:0:0:0:
256,192,83879,1,0,0:0:0:0:
256,192,83996,1,0,0:0:0:0:
256,192,84230,1,0,0:0:0:0:
256,192,84465,1,0,0:0:0:0:
256,192,84816,1,0,0:0:0:0:
256,192,84933,1,8,0:0:0:0:
256,192,85168,1,0,0:0:0:0:
256,192,85402,1,0,0:0:0:0:
256,192,85754,1,0,0:0:0:0:
256,192,85871,1,0,0:0:0:0:
256,192,86105,1,8,0:0:0:0:
256,192,86340,1,0,0:0:0:0:
256,192,86574,1,0,0:0:0:0:
256,192,86808,1,8,0:0:0:0:
256,192,87043,1,0,0:0:0:0:
256,192,87160,1,0,0:0:0:0:
256,192,87277,1,0,0:0:0:0:
256,192,87394,1,0,0:0:0:0:
256,192,87511,1,8,0:0:0:0:
256,192,87629,1,0,0:0:0:0:
256,192,87746,1,8,0:0:0:0:
256,192,87980,1,8,0:0:0:0:
256,192,88058,1,0,0:0:0:0:
256,192,88136,1,0,0:0:0:0:
256,192,88215,1,0,0:0:0:0:
256,192,88566,1,0,0:0:0:0:
256,192,88683,1,8,0:0:0:0:
256,192,88918,1,0,0:0:0:0:
256,192,89152,1,0,0:0:0:0:
256,192,89504,1,0,0:0:0:0:
256,192,89621,1,0,0:0:0:0:
256,192,89855,1,0,0:0:0:0:
256,192,90090,1,8,0:0:0:0:
256,192,90441,1,8,0:0:0:0:
256,192,90793,1,8,0:0:0:0:
256,192,91027,1,0,0:0:0:0:
256,192,91144,1,8,0:0:0:0:
256,192,91261,1,8,0:0:0:0:
256,192,91379,1,8,0:0:0:0:
256,192,91496,1,8,0:0:0:0:
256,192,91965,1,0,0:0:0:0:
256,192,92316,1,0,0:0:0:0:
256,192,92433,1,8,0:0:0:0:
256,192,92668,1,0,0:0:0:0:
256,192,92902,1,0,0:0:0:0:
256,192,93254,1,0,0:0:0:0:
256,192,93371,1,0,0:0:0:0:
256,192,93605,1,0,0:0:0:0:
256,192,93840,1,0,0:0:0:0:
256,192,94074,1,0,0:0:0:0:
256,192,94308,1,8,0:0:0:0:
256,192,94543,1,0,0:0:0:0:
256,192,94777,1,0,0:0:0:0:
256,192,94855,1,8,0:0:0:0:
256,192,94933,1,8,0:0:0:0:
256,192,95011,1,8,0:0:0:0:
256,192,95090,1,8,0:0:0:0:
256,192,95168,1,8,0:0:0:0:
256,192,95246,1,0,0:0:0:0:
256,192,95363,1,0,0:0:0:0:
256,192,95480,1,8,0:0:0:0:
256,192,95597,1,8,0:0:0:0:
256,192,95715,5,0,0:0:0:0:
256,192,95949,1,0,0:0:0:0:
256,192,96183,1,8,0:0:0:0:
256,192,96418,1,0,0:0:0:0:
256,192,96535,1,0,0:0:0:0:
256,192,96652,1,0,0:0:0:0:
256,192,96886,1,0,0:0:0:0:
256,192,97004,1,0,0:0:0:0:
256,192,97121,1,8,0:0:0:0:
256,192,97238,1,8,0:0:0:0:
256,192,97355,1,0,0:0:0:0:
256,192,97472,1,0,0:0:0:0:
256,192,97590,1,0,0:0:0:0:
256,192,97824,1,0,0:0:0:0:
256,192,97941,1,0,0:0:0:0:
256,192,98058,1,8,0:0:0:0:
256,192,98175,1,0,0:0:0:0:
256,192,98293,1,0,0:0:0:0:
256,192,98410,1,0,0:0:0:0:
256,192,98527,1,0,0:0:0:0:
256,192,98761,1,8,0:0:0:0:
256,192,98996,1,0,0:0:0:0:
256,192,99113,1,0,0:0:0:0:
256,192,99230,1,8,0:0:0:0:
256,192,99347,1,0,0:0:0:0:
256,192,99465,1,0,0:0:0:0:
256,192,99816,1,8,0:0:0:0:
256,192,99933,1,8,0:0:0:0:
256,192,100168,1,0,0:0:0:0:
256,192,100402,1,0,0:0:0:0:
256,192,100519,1,0,0:0:0:0:
256,192,100636,1,8,0:0:0:0:
256,192,100754,1,0,0:0:0:0:
256,192,100871,1,8,0:0:0:0:
256,192,100988,1,0,0:0:0:0:
256,192,101105,1,0,0:0:0:0:
256,192,101222,1,0,0:0:0:0:
256,192,101340,1,0,0:0:0:0:
256,192,101457,1,0,0:0:0:0:
256,192,101574,1,8,0:0:0:0:
256,192,101691,1,0,0:0:0:0:
256,192,101808,1,8,0:0:0:0:
256,192,101925,1,0,0:0:0:0:
256,192,102043,1,0,0:0:0:0:
256,192,102160,1,0,0:0:0:0:
256,192,102277,1,0,0:0:0:0:
256,192,102394,1,0,0:0:0:0:
256,192,102511,1,8,0:0:0:0:
256,192,102629,1,0,0:0:0:0:
256,192,102746,1,8,0:0:0:0:
256,192,102980,1,0,0:0:0:0:
256,192,103215,1,0,0:0:0:0:
256,192,103449,1,0,0:0:0:0:
256,192,103566,1,0,0:0:0:0:
256,192,103683,1,8,0:0:0:0:
256,192,103918,1,0,0:0:0:0:
256,192,104152,1,0,0:0:0:0:
256,192,104269,1,0,0:0:0:0:
256,192,104386,1,8,0:0:0:0:
256,192,104504,1,0,0:0:0:0:
256,192,104621,1,8,0:0:0:0:
256,192,104855,1,0,0:0:0:0:
256,192,105090,1,0,0:0:0:0:
256,192,105207,1,8,0:0:0:0:
256,192,105324,1,0,0:0:0:0:
256,192,105441,1,8,0:0:0:0:
256,192,105558,1,0,0:0:0:0:
256,192,105675,1,0,0:0:0:0:
256,192,105793,1,8,0:0:0:0:
256,192,105910,1,0,0:0:0:0:
256,192,106027,1,0,0:0:0:0:
256,192,106261,1,8,0:0:0:0:
256,192,106496,1,8,0:0:0:0:
256,192,106730,1,0,0:0:0:0:
256,192,106847,1,0,0:0:0:0:
256,192,106965,1,0,0:0:0:0:
256,192,107316,1,8,0:0:0:0:
256,192,107433,1,0,0:0:0:0:
256,192,107550,1,0,0:0:0:0:
256,192,107668,1,8,0:0:0:0:
256,192,107785,1,0,0:0:0:0:
256,192,107902,1,0,0:0:0:0:
256,192,108019,1,0,0:0:0:0:
256,192,108136,1,8,0:0:0:0:
256,192,108254,1,0,0:0:0:0:
256,192,108371,1,8,0:0:0:0:
256,192,108488,1,0,0:0:0:0:
256,192,108605,1,0,0:0:0:0:
256,192,108722,1,0,0:0:0:0:
256,192,108840,1,0,0:0:0:0:
256,192,109074,1,8,0:0:0:0:
256,192,109308,1,8,0:0:0:0:
256,192,109543,1,0,0:0:0:0:
256,192,109777,1,0,0:0:0:0:
256,192,110246,1,6,0:0:0:0:
256,192,110715,5,0,0:0:0:0:
256,192,110949,1,8,0:0:0:0:
256,192,111183,1,8,0:0:0:0:
256,192,111418,1,0,0:0:0:0:
256,192,111535,1,0,0:0:0:0:
256,192,111652,1,0,0:0:0:0:
256,192,111886,1,0,0:0:0:0:
256,192,112004,1,0,0:0:0:0:
256,192,112121,1,8,0:0:0:0:
256,192,112355,1,0,0:0:0:0:
256,192,112590,1,0,0:0:0:0:
256,192,112824,1,8,0:0:0:0:
256,192,113058,1,8,0:0:0:0:
256,192,113293,1,0,0:0:0:0:
256,192,113410,1,0,0:0:0:0:
256,192,113527,1,0,0:0:0:0:
256,192,113761,1,0,0:0:0:0:
256,192,113879,1,0,0:0:0:0:
256,192,113996,1,8,0:0:0:0:
256,192,114230,1,0,0:0:0:0:
256,192,114465,1,0,0:0:0:0:
256,192,114699,1,0,0:0:0:0:
256,192,114816,1,0,0:0:0:0:
256,192,114933,1,8,0:0:0:0:
256,192,115050,1,0,0:0:0:0:
256,192,115168,1,8,0:0:0:0:
256,192,115285,1,0,0:0:0:0:
256,192,115402,1,0,0:0:0:0:
256,192,115636,1,0,0:0:0:0:
256,192,115754,1,0,0:0:0:0:
256,192,115871,1,8,0:0:0:0:
256,192,116105,1,0,0:0:0:0:
256,192,116222,1,0,0:0:0:0:
256,192,116340,1,0,0:0:0:0:
256,192,116574,1,8,0:0:0:0:
256,192,116808,1,8,0:0:0:0:
256,192,117043,1,0,0:0:0:0:
256,192,117160,1,0,0:0:0:0:
256,192,117277,1,0,0:0:0:0:
256,192,117394,1,0,0:0:0:0:
256,192,117511,1,8,0:0:0:0:
256,192,117629,1,0,0:0:0:0:
256,192,117746,1,8,0:0:0:0:
256,192,117980,1,8,0:0:0:0:
256,192,118215,1,0,0:0:0:0:
256,192,118449,1,8,0:0:0:0:
256,192,118683,1,12,0:0:0:0:
256,192,118918,1,0,0:0:0:0:
256,192,119035,1,0,0:0:0:0:
256,192,119152,1,8,0:0:0:0:
256,192,119386,1,0,0:0:0:0:
256,192,119504,1,0,0:0:0:0:
256,192,119621,1,8,0:0:0:0:
256,192,119855,1,0,0:0:0:0:
256,192,120090,1,0,0:0:0:0:
256,192,120324,1,8,0:0:0:0:
256,192,120558,1,12,0:0:0:0:
256,192,120793,1,0,0:0:0:0:
256,192,120910,1,0,0:0:0:0:
256,192,121027,1,8,0:0:0:0:
256,192,121261,1,0,0:0:0:0:
256,192,121379,1,0,0:0:0:0:
256,192,121496,1,8,0:0:0:0:
256,192,121730,1,0,0:0:0:0:
256,192,121965,1,8,0:0:0:0:
256,192,122199,1,0,0:0:0:0:
256,192,122316,1,0,0:0:0:0:
256,192,122433,1,8,0:0:0:0:
256,192,122550,1,0,0:0:0:0:
256,192,122668,1,8,0:0:0:0:
256,192,122785,1,0,0:0:0:0:
256,192,122902,1,0,0:0:0:0:
256,192,123136,1,8,0:0:0:0:
256,192,123371,1,8,0:0:0:0:
256,192,123605,1,0,0:0:0:0:
256,192,123722,1,0,0:0:0:0:
256,192,123840,1,0,0:0:0:0:
256,192,124191,1,0,0:0:0:0:
256,192,124308,1,8,0:0:0:0:
256,192,124543,1,0,0:0:0:0:
256,192,124660,1,0,0:0:0:0:
256,192,124777,1,0,0:0:0:0:
256,192,125011,1,8,0:0:0:0:
256,192,125246,1,8,0:0:0:0:
256,192,125480,1,0,0:0:0:0:
256,192,125597,1,0,0:0:0:0:
256,192,125715,5,0,0:0:0:0:
256,192,125949,1,8,0:0:0:0:
256,192,126183,1,12,0:0:0:0:
256,192,126418,1,0,0:0:0:0:
256,192,126535,1,0,0:0:0:0:
256,192,126652,1,8,0:0:0:0:
256,192,126886,1,0,0:0:0:0:
256,192,127004,1,0,0:0:0:0:
256,192,127121,1,8,0:0:0:0:
256,192,127355,1,0,0:0:0:0:
256,192,127590,1,0,0:0:0:0:
256,192,127824,1,8,0:0:0:0:
256,192,128058,1,12,0:0:0:0:
256,192,128293,1,0,0:0:0:0:
256,192,128410,1,0,0:0:0:0:
256,192,128527,1,8,0:0:0:0:
256,192,128761,1,0,0:0:0:0:
256,192,128879,1,0,0:0:0:0:
256,192,128996,1,8,0:0:0:0:
256,192,129230,1,0,0:0:0:0:
256,192,129465,1,0,0:0:0:0:
256,192,129699,1,0,0:0:0:0:
256,192,129816,1,0,0:0:0:0:
256,192,129933,1,8,0:0:0:0:
256,192,130050,1,0,0:0:0:0:
256,192,130168,1,0,0:0:0:0:
256,192,130285,1,0,0:0:0:0:
256,192,130402,1,0,0:0:0:0:
256,192,130636,1,8,0:0:0:0:
256,192,130754,1,0,0:0:0:0:
256,192,130871,1,0,0:0:0:0:
256,192,131105,1,8,0:0:0:0:
256,192,131222,1,0,0:0:0:0:
256,192,131340,1,0,0:0:0:0:
256,192,131574,1,8,0:0:0:0:
256,192,131808,1,8,0:0:0:0:
256,192,132043,1,0,0:0:0:0:
256,192,132160,1,8,0:0:0:0:
256,192,132277,1,0,0:0:0:0:
256,192,132394,1,0,0:0:0:0:
256,192,132511,1,8,0:0:0:0:
256,192,132629,1,0,0:0:0:0:
256,192,132746,1,8,0:0:0:0:
256,192,132980,1,0,0:0:0:0:
256,192,133215,1,0,0:0:0:0:
256,192,133449,1,8,0:0:0:0:
256,192,133683,1,12,0:0:0:0:
256,192,133918,1,0,0:0:0:0:
256,192,134035,1,0,0:0:0:0:
256,192,134152,1,8,0:0:0:0:
256,192,134386,1,0,0:0:0:0:
256,192,134504,1,0,0:0:0:0:
256,192,134621,1,8,0:0:0:0:
256,192,134855,1,0,0:0:0:0:
256,192,135090,1,0,0:0:0:0:
256,192,135324,1,8,0:0:0:0:
256,192,135558,1,12,0:0:0:0:
256,192,135793,1,0,0:0:0:0:
256,192,135910,1,0,0:0:0:0:
256,192,136027,1,8,0:0:0:0:
256,192,136261,1,0,0:0:0:0:
256,192,136379,1,0,0:0:0:0:
256,192,136496,1,8,0:0:0:0:
256,192,136730,1,8,0:0:0:0:
256,192,136847,1,0,0:0:0:0:
256,192,136965,1,8,0:0:0:0:
256,192,137199,1,0,0:0:0:0:
256,192,137316,1,0,0:0:0:0:
256,192,137433,1,8,0:0:0:0:
256,192,137550,1,0,0:0:0:0:
256,192,137668,1,0,0:0:0:0:
256,192,137785,1,0,0:0:0:0:
256,192,137902,1,0,0:0:0:0:
256,192,138136,1,8,0:0:0:0:
256,192,138371,1,8,0:0:0:0:
256,192,138605,1,0,0:0:0:0:
256,192,138722,1,0,0:0:0:0:
256,192,138840,1,0,0:0:0:0:
256,192,139074,1,8,0:0:0:0:
256,192,139308,1,0,0:0:0:0:
256,192,139543,1,0,0:0:0:0:
256,192,139777,1,0,0:0:0:0:
256,192,140246,1,12,0:0:0:0:
