osu file format v14

[General]
AudioFilename: Masquerade.mp3
AudioLeadIn: 0
PreviewTime: 65718
Countdown: 0
SampleSet: Normal
StackLeniency: 0.7
Mode: 1
LetterboxInBreaks: 0
WidescreenStoryboard: 0

[Editor]
DistanceSpacing: 1
BeatDivisor: 4
GridSize: 4
TimelineZoom: 1.4

[Metadata]
Title:Masquerade
TitleUnicode:Masquerade
Artist:M2U
ArtistUnicode:M2U
Creator:rgbeing
Version:Taiko Muzukashii
Source:Cytus
Tags:
BeatmapID:656360
BeatmapSetID:290125

[Difficulty]
HPDrainRate:5
CircleSize:4
OverallDifficulty:6
ApproachRate:9
SliderMultiplier:1.4
SliderTickRate:1

[Events]
//Background and Video events
0,0,"Mq.jpg",0,0
//Break Periods
//Storyboard Layer 0 (Background)
//Storyboard Layer 1 (Fail)
//Storyboard Layer 2 (Pass)
//Storyboard Layer 3 (Foreground)
//Storyboard Sound Samples

[TimingPoints]
90,468.75,4,1,0,100,1,0
1965,-100,4,1,0,80,0,0
50715,-100,4,1,0,100,0,0
65715,-100,4,1,0,100,0,1
80715,-100,4,2,0,80,0,0
95715,-100,4,1,0,100,0,0
110715,-100,4,1,0,80,0,0
118215,-100,4,1,0,100,0,0
125715,-100,4,1,0,100,0,1
140246,-100,4,1,0,100,0,0

[Colours]
Combo1 : 128,0,64
Combo2 : 255,128,0
Combo3 : 18,124,255
Combo4 : 242,24,57

[HitObjects]
264,240,1965,5,0,0:0:0:0:
264,240,2199,1,0,0:0:0:0:
264,240,2433,1,8,0:0:0:0:
264,240,2902,5,0,0:0:0:0:
264,240,3136,1,0,0:0:0:0:
264,240,3371,1,8,0:0:0:0:
264,244,3840,1,0,0:0:0:0:
264,244,4074,1,0,0:0:0:0:
264,244,4308,1,8,0:0:0:0:
264,244,4777,1,0,0:0:0:0:
264,244,5011,1,0,0:0:0:0:
264,244,5246,1,8,0:0:0:0:
264,244,5715,1,0,0:0:0:0:
264,244,5949,1,0,0:0:0:0:
264,244,6183,1,8,0:0:0:0:
264,244,6652,1,0,0:0:0:0:
264,244,6886,1,0,0:0:0:0:
264,244,7121,1,8,0:0:0:0:
264,244,7590,1,0,0:0:0:0:
264,244,7824,1,0,0:0:0:0:
264,244,8058,1,8,0:0:0:0:
264,244,8527,1,0,0:0:0:0:
264,244,8761,1,0,0:0:0:0:
264,244,8996,1,8,0:0:0:0:
264,244,9230,1,0,0:0:0:0:
264,244,9347,1,0,0:0:0:0:
264,244,9465,5,0,0:0:0:0:
264,244,9699,1,0,0:0:0:0:
264,244,9933,1,8,0:0:0:0:
264,244,10402,1,0,0:0:0:0:
264,244,10636,1,0,0:0:0:0:
264,244,10871,1,8,0:0:0:0:
264,244,11340,1,0,0:0:0:0:
264,244,11574,1,0,0:0:0:0:
264,244,11808,1,8,0:0:0:0:
264,244,12277,1,0,0:0:0:0:
264,244,12511,1,0,0:0:0:0:
264,244,12746,1,8,0:0:0:0:
264,244,13215,1,0,0:0:0:0:
264,244,13449,1,0,0:0:0:0:
264,244,13683,1,8,0:0:0:0:
264,244,14152,1,0,0:0:0:0:
264,244,14386,1,0,0:0:0:0:
264,244,14621,1,8,0:0:0:0:
264,244,15090,1,8,0:0:0:0:
264,244,15324,1,0,0:0:0:0:
264,244,15558,1,8,0:0:0:0:
264,244,16027,1,0,0:0:0:0:
264,244,16261,1,8,0:0:0:0:
264,244,16496,1,8,0:0:0:0:
264,244,16965,1,0,0:0:0:0:
264,244,17199,1,8,0:0:0:0:
264,244,17433,1,8,0:0:0:0:
264,244,17668,1,0,0:0:0:0:
264,244,17785,1,0,0:0:0:0:
264,244,17902,1,0,0:0:0:0:
264,244,18136,1,8,0:0:0:0:
264,244,18371,1,8,0:0:0:0:
264,244,18840,1,0,0:0:0:0:
264,244,19074,1,8,0:0:0:0:
264,244,19308,1,0,0:0:0:0:
264,244,19543,1,0,0:0:0:0:
264,244,19777,1,8,0:0:0:0:
264,244,20246,1,6,0:0:0:0:
264,244,20715,5,0,0:0:0:0:
264,244,20949,1,8,0:0:0:0:
264,244,21183,1,8,0:0:0:0:
264,244,21418,1,0,0:0:0:0:
264,244,21535,1,0,0:0:0:0:
264,244,21652,1,0,0:0:0:0:
264,244,21886,1,8,0:0:0:0:
264,244,22121,1,0,0:0:0:0:
264,244,22355,1,8,0:0:0:0:
264,244,22590,1,0,0:0:0:0:
264,244,22824,1,8,0:0:0:0:
264,244,23058,1,8,0:0:0:0:
264,244,23527,1,0,0:0:0:0:
264,244,23761,1,8,0:0:0:0:
264,244,23996,1,0,0:0:0:0:
264,244,24230,1,8,0:0:0:0:
264,244,24465,1,0,0:0:0:0:
264,244,24699,1,8,0:0:0:0:
264,244,24933,1,8,0:0:0:0:
264,244,25168,1,0,0:0:0:0:
264,244,25285,1,0,0:0:0:0:
264,244,25402,1,0,0:0:0:0:
264,244,25636,1,8,0:0:0:0:
264,244,25871,1,0,0:0:0:0:
264,244,26105,1,8,0:0:0:0:
264,244,26340,1,0,0:0:0:0:
264,244,26574,1,8,0:0:0:0:
264,244,26808,1,8,0:0:0:0:
264,244,27043,1,0,0:0:0:0:
264,244,27160,1,0,0:0:0:0:
264,244,27277,1,0,0:0:0:0:
264,244,27511,1,8,0:0:0:0:
264,244,27629,1,8,0:0:0:0:
264,244,27746,1,8,0:0:0:0:
264,244,28215,1,0,0:0:0:0:
264,244,28449,1,0,0:0:0:0:
264,244,28683,1,8,0:0:0:0:
264,244,29152,1,0,0:0:0:0:
264,244,29386,1,0,0:0:0:0:
264,244,29621,1,8,0:0:0:0:
264,244,29855,1,0,0:0:0:0:
264,244,30090,1,0,0:0:0:0:
264,244,30324,1,8,0:0:0:0:
264,244,30558,1,0,0:0:0:0:
264,244,30793,1,8,0:0:0:0:
264,244,31027,1,8,0:0:0:0:
264,244,31496,1,8,0:0:0:0:
264,244,31730,1,0,0:0:0:0:
264,244,31965,1,0,0:0:0:0:
264,244,32433,1,8,0:0:0:0:
264,244,32668,1,0,0:0:0:0:
264,244,32902,1,0,0:0:0:0:
264,244,33136,1,2,0:0:0:0:
264,244,33254,1,2,0:0:0:0:
264,244,33371,1,8,0:0:0:0:
264,244,33605,1,0,0:0:0:0:
264,244,33840,1,0,0:0:0:0:
264,244,34074,1,8,0:0:0:0:
264,244,34308,1,0,0:0:0:0:
264,244,34543,1,0,0:0:0:0:
264,244,34777,1,8,0:0:0:0:
264,244,35246,1,6,0:0:0:0:
264,244,35480,1,0,0:0:0:0:
264,244,35597,1,0,0:0:0:0:
264,244,35715,5,0,0:0:0:0:
264,244,35949,1,8,0:0:0:0:
264,244,36183,1,8,0:0:0:0:
264,244,36418,1,0,0:0:0:0:
264,244,36535,1,0,0:0:0:0:
264,244,36652,1,0,0:0:0:0:
264,244,36886,1,8,0:0:0:0:
264,244,37121,1,8,0:0:0:0:
264,244,37355,1,0,0:0:0:0:
264,244,37472,1,0,0:0:0:0:
264,244,37590,1,0,0:0:0:0:
264,244,37824,1,8,0:0:0:0:
264,244,38058,1,8,0:0:0:0:
264,244,38293,1,0,0:0:0:0:
264,244,38410,1,0,0:0:0:0:
264,244,38527,1,0,0:0:0:0:
264,244,38761,1,8,0:0:0:0:
264,244,38879,1,8,0:0:0:0:
264,244,38996,1,8,0:0:0:0:
264,244,39230,1,0,0:0:0:0:
264,244,39347,1,0,0:0:0:0:
264,244,39465,1,0,0:0:0:0:
264,244,39699,1,8,0:0:0:0:
264,244,39933,1,8,0:0:0:0:
264,244,40168,1,0,0:0:0:0:
264,244,40285,1,0,0:0:0:0:
264,244,40402,1,0,0:0:0:0:
264,244,40871,1,8,0:0:0:0:
264,244,41105,1,0,0:0:0:0:
264,244,41340,1,0,0:0:0:0:
264,244,41574,1,8,0:0:0:0:
264,244,41808,1,8,0:0:0:0:
264,244,42043,1,0,0:0:0:0:
264,244,42160,1,0,0:0:0:0:
264,244,42277,1,0,0:0:0:0:
264,244,42511,1,8,0:0:0:0:
264,244,42746,1,8,0:0:0:0:
264,244,42980,1,0,0:0:0:0:
264,244,43215,1,0,0:0:0:0:
264,244,43449,1,8,0:0:0:0:
264,244,43683,1,8,0:0:0:0:
264,244,43918,1,0,0:0:0:0:
264,244,44152,1,0,0:0:0:0:
264,244,44386,1,8,0:0:0:0:
264,244,44621,1,0,0:0:0:0:
264,244,44855,1,8,0:0:0:0:
264,244,45090,1,0,0:0:0:0:
264,244,45558,1,8,0:0:0:0:
264,244,45793,1,0,0:0:0:0:
264,244,46027,1,0,0:0:0:0:
264,244,46261,1,8,0:0:0:0:
264,244,46496,1,8,0:0:0:0:
264,244,46730,1,0,0:0:0:0:
264,244,46847,1,0,0:0:0:0:
264,244,46965,1,0,0:0:0:0:
264,244,47433,1,8,0:0:0:0:
264,244,47668,1,0,0:0:0:0:
264,244,47902,1,0,0:0:0:0:
264,244,48136,1,0,0:0:0:0:
264,244,48254,1,0,0:0:0:0:
264,244,48371,1,8,0:0:0:0:
264,244,48605,1,0,0:0:0:0:
264,244,48840,1,0,0:0:0:0:
264,244,49074,1,8,0:0:0:0:
264,244,49308,1,0,0:0:0:0:
264,244,49543,1,0,0:0:0:0:
264,244,49777,1,8,0:0:0:0:
264,244,50246,1,6,0:0:0:0:
264,244,50715,5,0,0:0:0:0:
260,240,50949,1,8,0:0:0:0:
260,240,51183,1,8,0:0:0:0:
260,240,51418,1,0,0:0:0:0:
260,240,51535,1,0,0:0:0:0:
260,240,51652,1,0,0:0:0:0:
260,240,51886,1,0,0:0:0:0:
260,240,52004,1,0,0:0:0:0:
260,240,52121,1,8,0:0:0:0:
260,240,52590,1,0,0:0:0:0:
260,240,52824,1,8,0:0:0:0:
260,240,53058,1,8,0:0:0:0:
260,240,53293,1,0,0:0:0:0:
260,240,53410,1,0,0:0:0:0:
260,240,53527,1,0,0:0:0:0:
260,240,53761,1,0,0:0:0:0:
260,240,53879,1,0,0:0:0:0:
260,240,53996,1,8,0:0:0:0:
260,240,54465,1,0,0:0:0:0:
260,240,54699,1,0,0:0:0:0:
260,240,54816,1,0,0:0:0:0:
260,240,54933,1,0,0:0:0:0:
260,240,55168,1,8,0:0:0:0:
260,240,55402,1,0,0:0:0:0:
260,240,55636,1,8,0:0:0:0:
260,240,55871,1,8,0:0:0:0:
260,240,56105,1,0,0:0:0:0:
260,240,56222,1,0,0:0:0:0:
260,240,56340,1,0,0:0:0:0:
260,240,56574,1,8,0:0:0:0:
260,240,56808,1,8,0:0:0:0:
260,240,57043,1,0,0:0:0:0:
260,240,57160,1,0,0:0:0:0:
260,240,57277,1,0,0:0:0:0:
260,240,57511,1,8,0:0:0:0:
260,240,57746,1,8,0:0:0:0:
260,240,58215,1,0,0:0:0:0:
260,240,58449,1,8,0:0:0:0:
260,240,58683,1,8,0:0:0:0:
264,240,58918,1,0,0:0:0:0:
264,240,59035,1,0,0:0:0:0:
264,240,59152,1,0,0:0:0:0:
264,240,59386,1,0,0:0:0:0:
264,240,59504,1,0,0:0:0:0:
264,240,59621,1,8,0:0:0:0:
264,240,60090,1,0,0:0:0:0:
264,240,60324,1,8,0:0:0:0:
264,240,60558,1,8,0:0:0:0:
264,240,60793,1,0,0:0:0:0:
264,240,60910,1,0,0:0:0:0:
264,240,61027,1,0,0:0:0:0:
264,240,61261,1,0,0:0:0:0:
264,240,61379,1,0,0:0:0:0:
264,240,61496,1,8,0:0:0:0:
264,240,61730,1,0,0:0:0:0:
264,240,61965,1,0,0:0:0:0:
264,240,62199,1,8,0:0:0:0:
264,240,62433,1,8,0:0:0:0:
264,240,62668,1,0,0:0:0:0:
264,240,62902,1,0,0:0:0:0:
264,240,63136,1,8,0:0:0:0:
264,240,63371,1,8,0:0:0:0:
264,240,63605,1,0,0:0:0:0:
264,240,63840,1,0,0:0:0:0:
264,240,64074,1,8,0:0:0:0:
264,240,64308,1,0,0:0:0:0:
264,240,64543,1,8,0:0:0:0:
264,240,64777,1,0,0:0:0:0:
264,240,65011,1,8,0:0:0:0:
264,240,65246,1,8,0:0:0:0:
264,244,65715,5,0,0:0:0:0:
260,240,65949,1,8,0:0:0:0:
260,240,66183,1,8,0:0:0:0:
260,240,66418,1,0,0:0:0:0:
260,240,66535,1,0,0:0:0:0:
260,240,66652,1,0,0:0:0:0:
260,240,66886,1,0,0:0:0:0:
260,240,67004,1,0,0:0:0:0:
260,240,67121,1,8,0:0:0:0:
260,240,67355,1,0,0:0:0:0:
260,240,67590,1,0,0:0:0:0:
260,240,67824,1,8,0:0:0:0:
260,240,68058,1,8,0:0:0:0:
260,240,68293,1,0,0:0:0:0:
260,240,68410,1,0,0:0:0:0:
260,240,68527,1,0,0:0:0:0:
260,240,68761,1,0,0:0:0:0:
260,240,68879,1,0,0:0:0:0:
260,240,68996,1,8,0:0:0:0:
260,240,69230,1,0,0:0:0:0:
260,240,69465,1,0,0:0:0:0:
260,240,69699,1,0,0:0:0:0:
260,240,69816,1,0,0:0:0:0:
260,240,69933,1,0,0:0:0:0:
260,240,70168,1,8,0:0:0:0:
260,240,70402,1,0,0:0:0:0:
260,240,70636,1,8,0:0:0:0:
260,240,70871,1,8,0:0:0:0:
260,240,71105,1,0,0:0:0:0:
260,240,71222,1,0,0:0:0:0:
260,240,71340,1,0,0:0:0:0:
260,240,71574,1,8,0:0:0:0:
260,240,71808,1,8,0:0:0:0:
260,240,72043,1,0,0:0:0:0:
260,240,72277,1,0,0:0:0:0:
260,240,72511,1,8,0:0:0:0:
260,240,72746,1,8,0:0:0:0:
260,240,73215,1,0,0:0:0:0:
260,240,73449,1,8,0:0:0:0:
260,240,73683,1,8,0:0:0:0:
264,240,73918,1,0,0:0:0:0:
264,240,74035,1,0,0:0:0:0:
264,240,74152,1,0,0:0:0:0:
264,240,74386,1,0,0:0:0:0:
264,240,74504,1,0,0:0:0:0:
264,240,74621,1,8,0:0:0:0:
264,240,74855,1,0,0:0:0:0:
264,240,75090,1,0,0:0:0:0:
264,240,75324,1,8,0:0:0:0:
264,240,75558,1,8,0:0:0:0:
264,240,75793,1,0,0:0:0:0:
264,240,75910,1,0,0:0:0:0:
264,240,76027,1,0,0:0:0:0:
264,240,76261,1,0,0:0:0:0:
264,240,76379,1,0,0:0:0:0:
264,240,76496,1,8,0:0:0:0:
264,240,76730,1,0,0:0:0:0:
264,240,76847,1,0,0:0:0:0:
264,240,76965,1,0,0:0:0:0:
264,240,77199,1,0,0:0:0:0:
264,240,77433,1,0,0:0:0:0:
264,240,77668,1,8,0:0:0:0:
264,240,77902,1,0,0:0:0:0:
264,240,78136,1,8,0:0:0:0:
264,240,78371,1,8,0:0:0:0:
264,240,78605,1,0,0:0:0:0:
264,240,78722,1,0,0:0:0:0:
264,240,78840,1,0,0:0:0:0:
264,240,79074,1,8,0:0:0:0:
264,240,79308,1,0,0:0:0:0:
264,240,79543,1,8,0:0:0:0:
264,240,79777,1,0,0:0:0:0:
264,240,80246,1,6,0:0:0:0:
268,244,80715,5,0,0:0:0:0:
264,240,81418,1,0,0:0:0:0:
264,240,81652,1,8,0:0:0:0:
264,240,82355,1,8,0:0:0:0:
264,240,82590,1,0,0:0:0:0:
264,240,83293,1,0,0:0:0:0:
264,240,83527,1,8,0:0:0:0:
264,240,84230,1,8,0:0:0:0:
264,240,84465,1,0,0:0:0:0:
264,240,85168,1,0,0:0:0:0:
264,240,85402,1,8,0:0:0:0:
264,240,86105,1,8,0:0:0:0:
264,240,86340,1,0,0:0:0:0:
264,240,86808,1,0,0:0:0:0:
264,240,87043,1,8,0:0:0:0:
264,240,87160,1,8,0:0:0:0:
264,240,87277,1,8,0:0:0:0:
264,240,87511,1,0,0:0:0:0:
264,240,87746,1,8,0:0:0:0:
264,240,87980,1,0,0:0:0:0:
264,240,88215,1,0,0:0:0:0:
264,240,88918,1,0,0:0:0:0:
264,240,89152,1,8,0:0:0:0:
264,240,89855,1,8,0:0:0:0:
264,240,90090,1,0,0:0:0:0:
264,240,90441,1,0,0:0:0:0:
264,240,90793,1,0,0:0:0:0:
264,240,91027,1,8,0:0:0:0:
264,240,91261,1,0,0:0:0:0:
264,240,91496,1,8,0:0:0:0:
268,244,91965,1,0,0:0:0:0:
268,244,92668,1,0,0:0:0:0:
268,244,92902,1,8,0:0:0:0:
268,244,93605,1,8,0:0:0:0:
268,244,93840,1,0,0:0:0:0:
268,244,94308,1,8,0:0:0:0:
268,244,94660,1,8,0:0:0:0:
268,244,94777,1,0,0:0:0:0:
268,244,95011,1,8,0:0:0:0:
268,244,95246,1,8,0:0:0:0:
268,244,95715,5,0,0:0:0:0:
268,244,95949,1,8,0:0:0:0:
268,244,96183,1,8,0:0:0:0:
268,244,96418,1,0,0:0:0:0:
268,244,96535,1,0,0:0:0:0:
268,244,96652,1,0,0:0:0:0:
268,244,96886,1,8,0:0:0:0:
268,244,97004,1,8,0:0:0:0:
268,244,97121,1,8,0:0:0:0:
268,244,97355,1,0,0:0:0:0:
268,244,97590,1,0,0:0:0:0:
268,244,97824,1,8,0:0:0:0:
268,244,98058,1,8,0:0:0:0:
268,244,98293,1,0,0:0:0:0:
264,252,98410,1,0,0:0:0:0:
264,252,98527,1,0,0:0:0:0:
264,252,98761,1,8,0:0:0:0:
264,252,98879,1,8,0:0:0:0:
264,252,98996,1,8,0:0:0:0:
264,252,99230,1,0,0:0:0:0:
264,252,99465,1,0,0:0:0:0:
264,252,99933,1,8,0:0:0:0:
264,252,100168,1,0,0:0:0:0:
264,252,100402,1,0,0:0:0:0:
264,252,100636,1,0,0:0:0:0:
264,252,100754,1,0,0:0:0:0:
264,252,100871,1,0,0:0:0:0:
264,252,101105,1,8,0:0:0:0:
264,252,101340,1,0,0:0:0:0:
264,252,101574,1,0,0:0:0:0:
264,252,101691,1,0,0:0:0:0:
264,252,101808,1,0,0:0:0:0:
264,252,102043,1,8,0:0:0:0:
264,252,102277,1,0,0:0:0:0:
264,252,102511,1,8,0:0:0:0:
264,252,102746,1,8,0:0:0:0:
264,252,102980,1,0,0:0:0:0:
264,252,103215,1,0,0:0:0:0:
264,252,103449,1,8,0:0:0:0:
264,252,103566,1,8,0:0:0:0:
264,252,103683,1,8,0:0:0:0:
264,252,103918,1,0,0:0:0:0:
264,252,104152,1,0,0:0:0:0:
264,252,104386,1,8,0:0:0:0:
264,252,104621,1,8,0:0:0:0:
264,252,104855,1,0,0:0:0:0:
264,252,105090,1,0,0:0:0:0:
264,252,105324,1,8,0:0:0:0:
264,252,105558,1,0,0:0:0:0:
264,252,105793,1,8,0:0:0:0:
264,252,105910,1,8,0:0:0:0:
264,252,106027,1,8,0:0:0:0:
264,252,106261,1,0,0:0:0:0:
264,252,106496,1,8,0:0:0:0:
264,252,106730,1,0,0:0:0:0:
264,252,106847,1,0,0:0:0:0:
264,252,106965,1,0,0:0:0:0:
264,252,107433,1,8,0:0:0:0:
264,252,107668,1,0,0:0:0:0:
264,252,107902,1,0,0:0:0:0:
264,252,108136,1,0,0:0:0:0:
264,252,108254,1,0,0:0:0:0:
264,252,108371,1,8,0:0:0:0:
264,252,108605,1,0,0:0:0:0:
264,252,108840,1,0,0:0:0:0:
264,252,109074,1,8,0:0:0:0:
264,252,109308,1,0,0:0:0:0:
264,252,109543,1,0,0:0:0:0:
264,252,109777,1,0,0:0:0:0:
264,252,110246,1,6,0:0:0:0:
264,252,110715,5,0,0:0:0:0:
264,252,110949,1,8,0:0:0:0:
264,252,111183,1,8,0:0:0:0:
264,252,111418,1,0,0:0:0:0:
264,252,111535,1,0,0:0:0:0:
264,252,111652,1,0,0:0:0:0:
264,252,111886,1,8,0:0:0:0:
264,252,112004,1,8,0:0:0:0:
264,252,112121,1,8,0:0:0:0:
264,252,112590,1,0,0:0:0:0:
264,252,112824,1,8,0:0:0:0:
264,252,113058,1,8,0:0:0:0:
264,252,113293,1,0,0:0:0:0:
264,252,113410,1,0,0:0:0:0:
264,252,113527,1,0,0:0:0:0:
264,252,113761,1,8,0:0:0:0:
264,252,113879,1,8,0:0:0:0:
264,252,113996,1,8,0:0:0:0:
264,252,114465,1,0,0:0:0:0:
264,252,114699,1,0,0:0:0:0:
264,252,114816,1,0,0:0:0:0:
264,252,114933,1,0,0:0:0:0:
264,252,115168,1,8,0:0:0:0:
264,252,115402,1,0,0:0:0:0:
264,252,115636,1,0,0:0:0:0:
264,252,115754,1,0,0:0:0:0:
264,252,115871,1,8,0:0:0:0:
264,252,116105,1,0,0:0:0:0:
264,252,116222,1,0,0:0:0:0:
264,252,116340,1,0,0:0:0:0:
264,252,116574,1,8,0:0:0:0:
264,252,116808,1,8,0:0:0:0:
264,252,117043,1,0,0:0:0:0:
264,252,117160,1,0,0:0:0:0:
264,252,117277,1,0,0:0:0:0:
264,252,117511,1,8,0:0:0:0:
264,252,117746,1,8,0:0:0:0:
260,240,118215,1,0,0:0:0:0:
260,240,118449,1,8,0:0:0:0:
260,240,118683,1,8,0:0:0:0:
264,240,118918,1,0,0:0:0:0:
264,240,119035,1,0,0:0:0:0:
264,240,119152,1,0,0:0:0:0:
264,240,119386,1,0,0:0:0:0:
264,240,119504,1,0,0:0:0:0:
264,240,119621,1,8,0:0:0:0:
264,240,120090,1,0,0:0:0:0:
264,240,120324,1,8,0:0:0:0:
264,240,120558,1,8,0:0:0:0:
264,240,120793,1,0,0:0:0:0:
264,240,120910,1,0,0:0:0:0:
264,240,121027,1,0,0:0:0:0:
264,240,121261,1,0,0:0:0:0:
264,240,121379,1,0,0:0:0:0:
264,240,121496,1,8,0:0:0:0:
264,240,121965,1,8,0:0:0:0:
264,240,122199,1,0,0:0:0:0:
264,240,122316,1,0,0:0:0:0:
264,240,122433,1,0,0:0:0:0:
264,240,122668,1,8,0:0:0:0:
264,240,122902,1,0,0:0:0:0:
264,240,123136,1,8,0:0:0:0:
264,240,123371,1,8,0:0:0:0:
264,240,123605,1,0,0:0:0:0:
264,240,123840,1,0,0:0:0:0:
264,240,124074,1,8,0:0:0:0:
264,240,124308,1,8,0:0:0:0:
264,240,124543,1,0,0:0:0:0:
264,240,124777,1,0,0:0:0:0:
264,240,125011,1,8,0:0:0:0:
264,240,125246,1,8,0:0:0:0:
264,240,125480,1,0,0:0:0:0:
264,244,125715,5,0,0:0:0:0:
260,240,125949,1,8,0:0:0:0:
260,240,126183,1,8,0:0:0:0:
260,240,126418,1,0,0:0:0:0:
260,240,126535,1,0,0:0:0:0:
264,240,126652,1,0,0:0:0:0:
260,240,126886,1,0,0:0:0:0:
260,240,127004,1,0,0:0:0:0:
260,240,127121,1,8,0:0:0:0:
260,240,127355,1,0,0:0:0:0:
260,240,127590,1,0,0:0:0:0:
260,240,127824,1,8,0:0:0:0:
260,240,128058,1,8,0:0:0:0:
260,240,128293,1,0,0:0:0:0:
260,240,128410,1,0,0:0:0:0:
260,240,128527,1,0,0:0:0:0:
260,240,128761,1,0,0:0:0:0:
260,240,128879,1,0,0:0:0:0:
260,240,128996,1,8,0:0:0:0:
260,240,129230,1,0,0:0:0:0:
260,240,129465,1,0,0:0:0:0:
260,240,129699,1,0,0:0:0:0:
260,240,129816,1,0,0:0:0:0:
260,240,129933,1,8,0:0:0:0:
260,240,130168,1,0,0:0:0:0:
260,240,130402,1,0,0:0:0:0:
260,240,130636,1,8,0:0:0:0:
260,240,130871,1,0,0:0:0:0:
260,240,131105,1,8,0:0:0:0:
260,240,131340,1,0,0:0:0:0:
260,240,131574,1,8,0:0:0:0:
260,240,131808,1,8,0:0:0:0:
260,240,132043,1,0,0:0:0:0:
260,240,132160,1,0,0:0:0:0:
260,240,132277,1,0,0:0:0:0:
260,240,132511,1,8,0:0:0:0:
260,240,132746,1,8,0:0:0:0:
260,240,133215,1,0,0:0:0:0:
260,240,133449,1,8,0:0:0:0:
260,240,133683,1,8,0:0:0:0:
264,240,133918,1,0,0:0:0:0:
264,240,134035,1,0,0:0:0:0:
264,240,134152,1,0,0:0:0:0:
264,240,134386,1,0,0:0:0:0:
264,240,134504,1,0,0:0:0:0:
264,240,134621,1,8,0:0:0:0:
264,240,134855,1,0,0:0:0:0:
264,240,135090,1,0,0:0:0:0:
264,240,135324,1,8,0:0:0:0:
264,240,135558,1,8,0:0:0:0:
264,240,135793,1,0,0:0:0:0:
264,240,135910,1,0,0:0:0:0:
264,240,136027,1,8,0:0:0:0:
264,240,136261,1,0,0:0:0:0:
264,240,136379,1,0,0:0:0:0:
264,240,136496,1,8,0:0:0:0:
264,240,136730,1,0,0:0:0:0:
264,240,136965,1,8,0:0:0:0:
264,240,137199,1,0,0:0:0:0:
264,240,137316,1,0,0:0:0:0:
264,240,137433,1,0,0:0:0:0:
264,240,137668,1,8,0:0:0:0:
264,240,137902,1,0,0:0:0:0:
264,240,138136,1,8,0:0:0:0:
264,240,138371,1,8,0:0:0:0:
264,240,138605,1,0,0:0:0:0:
264,240,138722,1,0,0:0:0:0:
264,240,138840,1,0,0:0:0:0:
264,240,139074,1,8,0:0:0:0:
264,240,139308,1,0,0:0:0:0:
264,240,139543,1,8,0:0:0:0:
264,240,139777,1,0,0:0:0:0:
264,240,140246,1,6,0:0:0:0:
