osu file format v14

[General]
AudioFilename: Masquerade.mp3
AudioLeadIn: 0
PreviewTime: 65718
Countdown: 0
SampleSet: Normal
StackLeniency: 0.7
Mode: 0
LetterboxInBreaks: 0
WidescreenStoryboard: 0

[Editor]
DistanceSpacing: 0.8
BeatDivisor: 4
GridSize: 4
TimelineZoom: 0.6999999

[Metadata]
Title:Masquerade
TitleUnicode:Masquerade
Artist:M2U
ArtistUnicode:M2U
Creator:rgbeing
Version:Normal
Source:Cytus
Tags:
BeatmapID:653707
BeatmapSetID:290125

[Difficulty]
HPDrainRate:4
CircleSize:3.5
OverallDifficulty:4
ApproachRate:5
SliderMultiplier:1.4
SliderTickRate:2

[Events]
//Background and Video events
0,0,"Mq.jpg",0,0
//Break Periods
2,80446,87015
2,110446,117015
//Storyboard Layer 0 (Background)
//Storyboard Layer 1 (Fail)
//Storyboard Layer 2 (Pass)
//Storyboard Layer 3 (Foreground)
//Storyboard Sound Samples

[TimingPoints]
90,468.75,4,1,0,100,1,0
1965,-100,4,1,0,60,0,0
20715,-100,4,1,0,80,0,0
35715,-100,4,1,0,90,0,0
50715,-100,4,1,0,100,0,0
65715,-100,4,1,0,100,0,1
80715,-100,4,2,0,60,0,0
95715,-100,4,1,0,100,0,0
125715,-100,4,1,0,100,0,1
140246,-100,4,1,0,100,0,0

[Colours]
Combo1 : 128,0,64
Combo2 : 255,128,0
Combo3 : 18,124,255
Combo4 : 242,24,57

[HitObjects]
172,192,1965,6,0,P|196:128|264:104,1,140,0|8,0:0|0:0,0:0:0:0:
340,184,2902,2,0,P|316:248|248:272,1,140,0|8,0:0|0:0,0:0:0:0:
140,276,3840,2,0,P|84:220|96:152,1,140,0|8,0:0|0:0,0:0:0:0:
148,68,4777,2,0,P|199:111|199:179,1,140,0|8,0:0|0:0,0:0:0:0:
252,280,5715,6,0,P|316:300|404:284,1,140,0|8,0:0|0:0,0:0:0:0:
428,188,6652,1,0,0:0:0:0:
388,84,7121,1,8,0:0:0:0:
284,48,7590,2,0,L|200:56,1,70
176,96,8058,2,0,B|124:128|68:120|68:120|64:168,1,140,8|0,0:0|0:0,0:0:0:0:
64,260,8996,1,8,0:0:0:0:
148,332,9465,6,0,B|208:320|208:320|184:280|200:224,1,140,0|8,0:0|0:0,0:0:0:0:
276,164,10402,2,0,P|308:228|296:296,1,140,0|8,0:0|0:0,0:0:0:0:
188,320,11340,2,0,B|120:320|60:264|60:264|108:200|172:184,1,280
276,152,12746,1,8,0:0:0:0:
356,232,13215,6,0,P|424:248|500:228,1,140,0|8,0:0|0:0,0:0:0:0:
492,120,14152,2,0,P|424:104|348:124,1,140,0|8,0:0|0:0,0:0:0:0:
260,180,15090,2,0,B|204:156|236:116|236:116|136:108|76:220,1,280
112,320,16496,1,8,0:0:0:0:
204,260,16965,6,0,L|220:188,2,70,0|8|8,0:0|0:0|0:0,0:0:0:0:
280,344,17902,2,0,P|348:320|376:248,1,140,0|8,0:0|0:0,0:0:0:0:
380,208,18605,1,0,0:0:0:0:
380,152,18840,2,0,B|356:88|356:88|292:40,2,140,0|8|8,0:0|0:0|0:0,0:0:0:0:
236,324,20715,6,0,P|160:336|104:288,1,140,0|8,0:0|0:0,0:0:0:0:
72,196,21652,1,0,0:0:0:0:
128,100,22121,1,8,0:0:0:0:
196,192,22590,2,0,L|336:176,1,140,0|8,0:0|0:0,0:0:0:0:
388,188,23293,1,0,0:0:0:0:
444,200,23527,2,0,L|512:188,2,70,0|8|8,0:0|0:0|0:0,0:0:0:0:
368,280,24465,6,0,P|304:264|228:288,1,140,0|8,0:0|0:0,0:0:0:0:
184,312,25168,1,0,0:0:0:0:
140,344,25402,2,0,P|68:344|48:284,1,140,0|8,0:0|0:0,0:0:0:0:
144,228,26340,2,0,P|164:156|148:84,1,140,0|8,0:0|0:0,0:0:0:0:
40,92,27277,2,0,L|28:16,2,70,0|8|8,0:0|0:0|0:0,0:0:0:0:
132,156,28215,6,0,B|208:152|248:92|248:92|296:148|372:156,1,280
448,240,29621,1,8,0:0:0:0:
368,320,30090,2,0,L|220:352,2,140,0|8|8,0:0|0:0|0:0,0:0:0:0:
448,240,31496,1,0,0:0:0:0:
372,156,31965,6,0,B|292:132|240:164|240:164|184:200|92:168,1,280
48,72,33371,1,8,0:0:0:0:
160,76,33840,2,0,L|300:60,2,140,0|8|8,0:0|0:0|0:0,0:0:0:0:
64,280,35715,6,0,P|108:336|176:348,1,140,0|8,0:0|0:0,0:0:0:0:
284,328,36652,2,0,P|345:297|371:233,1,140,0|8,0:0|0:0,0:0:0:0:
300,148,37590,2,0,P|332:84|404:64,2,140,0|8|8,0:0|0:0|0:0,0:0:0:0:
288,260,38996,1,0,0:0:0:0:
196,324,39465,6,0,B|128:304|128:304|104:228,1,140,0|8,0:0|0:0,0:0:0:0:
132,128,40402,1,0,0:0:0:0:
228,72,40871,1,8,0:0:0:0:
320,140,41340,2,0,P|388:160|456:136,2,140
220,88,42746,1,8,0:0:0:0:
116,132,43215,5,0,0:0:0:0:
52,224,43683,2,0,L|64:304,1,70,8|0,0:0|0:0,0:0:0:0:
72,348,44152,2,0,P|148:344|224:304,1,140,0|8,0:0|0:0,0:0:0:0:
256,216,45090,2,0,P|280:144|356:128,1,140,0|8,0:0|0:0,0:0:0:0:
376,164,45793,1,0,0:0:0:0:
420,196,46027,2,0,L|496:188,2,70,0|8|8,0:0|0:0|0:0,0:0:0:0:
324,264,46965,6,0,P|348:336|424:352,1,140,0|8,0:0|0:0,0:0:0:0:
432,248,47902,2,0,L|416:96,1,140,0|8,0:0|0:0,0:0:0:0:
320,56,48840,2,0,P|252:40|172:60,2,140,0|8|8,0:0|0:0|0:0,0:0:0:0:
140,192,50715,6,0,B|192:240|192:240|264:256,1,140,0|8,0:0|0:0,0:0:0:0:
360,200,51652,2,0,L|436:196,2,70,0|0|8,0:0|0:0|0:0,0:0:0:0:
272,128,52590,2,0,P|216:84|136:84,1,140,0|8,0:0|0:0,0:0:0:0:
76,164,53527,2,0,L|4:176,2,70,0|0|8,0:0|0:0|0:0,0:0:0:0:
184,140,54465,6,0,B|200:216|200:216|252:268,1,140,0|8,0:0|0:0,0:0:0:0:
356,240,55402,2,0,P|400:288|348:312,1,140,0|8,0:0|0:0,0:0:0:0:
248,264,56340,2,0,P|176:248|100:252,2,140
352,304,57746,1,8,0:0:0:0:
444,240,58215,6,0,P|460:172|444:96,1,140,0|8,0:0|0:0,0:0:0:0:
336,88,59152,2,0,L|320:0,2,70,0|0|8,0:0|0:0|0:0,0:0:0:0:
364,196,60090,2,0,P|304:220|216:212,1,140,0|8,0:0|0:0,0:0:0:0:
152,136,61027,2,0,L|72:148,1,70
28,156,61496,1,8,0:0:0:0:
44,268,61965,5,0,0:0:0:0:
156,256,62433,2,0,P|240:344|384:272,1,280,0|8,0:0|0:0,0:0:0:0:
332,188,63840,2,0,P|336:116|376:48,2,140
264,280,65246,1,8,0:0:0:0:
172,216,65715,6,0,B|140:180|112:176|112:176|96:144|112:108,1,140,0|8,0:0|0:0,0:0:0:0:
204,48,66652,2,0,L|284:36,2,70,0|0|8,0:0|0:0|0:0,0:0:0:0:
144,144,67590,2,0,L|296:160,1,140,0|8,0:0|0:0,0:0:0:0:
396,168,68527,2,0,L|476:160,2,70,0|0|8,0:0|0:0|0:0,0:0:0:0:
332,260,69465,5,0,0:0:0:0:
220,244,69933,1,8,0:0:0:0:
128,308,70402,2,0,P|80:248|80:172,1,140,0|8,0:0|0:0,0:0:0:0:
124,84,71340,2,0,L|196:72,1,70
248,88,71808,1,8,0:0:0:0:
356,120,72277,2,0,L|428:108,2,70,0|8|8,0:0|0:0|0:0,0:0:0:0:
244,136,73215,6,0,B|196:144|196:144|204:196|248:224,1,140,0|8,0:0|0:0,0:0:0:0:
348,260,74152,2,0,P|348:332|280:352,1,140,0|8,0:0|0:0,0:0:0:0:
196,300,75090,2,0,P|132:280|56:304,1,140,0|8,0:0|0:0,0:0:0:0:
44,188,76027,2,0,L|36:112,2,70,0|0|8,0:0|0:0|0:0,0:0:0:0:
148,228,76965,5,8,0:0:0:0:
232,152,77433,2,2,B|288:140|288:140|292:72|360:64|360:64|368:120|436:144,1,280,2|10,0:0|0:0,0:0:0:0:
456,248,78840,2,0,P|396:280|316:272,2,140
372,172,80246,1,12,0:0:0:0:
88,128,88215,6,0,P|156:156|232:148,1,140
320,100,89152,1,8,0:0:0:0:
424,144,89621,1,0,0:0:0:0:
372,244,90090,2,8,L|392:360,2,105
328,212,91027,2,0,P|244:228|204:272,1,140,0|8,0:0|0:0,0:0:0:0:
112,324,91965,6,0,P|64:276|64:184,1,140
120,116,92902,2,0,L|272:80,1,140,0|8,0:0|0:0,0:0:0:0:
348,148,93840,2,0,P|388:132|408:92,1,70
416,56,94308,1,0,0:0:0:0:
460,160,94777,2,2,P|472:232|440:300,1,140
336,296,95715,5,0,0:0:0:0:
284,280,95949,1,0,0:0:0:0:
228,292,96183,2,0,P|160:312|88:312,2,140,8|0|8,0:0|0:0|0:0,0:0:0:0:
336,256,97590,2,0,P|328:204|356:116,1,140
424,208,98527,2,0,P|436:280|392:340,1,140,0|8,0:0|0:0,0:0:0:0:
288,328,99465,6,0,B|176:304|176:304|160:268,1,140
140,232,100168,1,0,0:0:0:0:
124,180,100402,2,0,P|160:124|228:148,1,140,0|8,0:0|0:0,0:0:0:0:
288,232,101340,1,0,0:0:0:0:
396,264,101808,1,0,0:0:0:0:
448,244,102043,1,0,0:0:0:0:
484,200,102277,2,0,L|500:56,1,140,0|8,0:0|0:0,0:0:0:0:
404,120,103215,6,0,P|344:164|272:172,1,140,0|8,0:0|0:0,0:0:0:0:
188,104,104152,2,0,L|180:24,2,70,0|8|8,0:0|0:0|0:0,0:0:0:0:
116,192,105090,2,0,L|108:268,1,70
104,316,105558,1,8,0:0:0:0:
212,340,106027,2,0,P|248:348|288:348,2,70,0|8|8,0:0|0:0|0:0,0:0:0:0:
144,248,106965,6,0,B|164:212|164:212|216:180|216:180|232:144,1,140,0|8,0:0|0:0,0:0:0:0:
324,80,107902,2,0,P|344:148|312:224,1,140
212,184,108840,2,0,B|144:160|144:160|68:160,2,140,0|8|8,0:0|0:0|0:0,0:0:0:0:
322,211,110246,1,4,0:0:0:0:
356,88,118215,6,0,P|384:152|364:236,1,140,0|8,0:0|0:0,0:0:0:0:
292,296,119152,2,0,L|216:312,2,70,0|0|8,0:0|0:0|0:0,0:0:0:0:
216,212,120090,2,0,B|168:204|168:204|120:232|120:232|68:224,1,140,0|8,0:0|0:0,0:0:0:0:
36,124,121027,2,0,L|28:52,2,70,0|0|8,0:0|0:0|0:0,0:0:0:0:
124,192,121965,5,0,0:0:0:0:
216,128,122433,2,0,P|304:108|384:256,1,280,0|8,0:0|0:0,0:0:0:0:
296,316,123840,2,0,B|244:320|224:280|224:280|160:308,1,140
176,188,124777,2,2,P|252:176|312:236,1,140
372,296,125715,5,0,0:0:0:0:
472,244,126183,2,2,L|472:100,1,140
376,48,127121,1,0,0:0:0:0:
284,112,127590,2,0,B|216:140|216:140|132:140,1,140
52,84,128527,1,8,0:0:0:0:
140,16,128996,1,8,0:0:0:0:
228,84,129465,6,0,P|208:168|144:196,1,140
68,136,130402,2,8,P|13:177|5:245,1,140
92,320,131340,2,0,L|252:296,2,140,0|8|8,0:0|0:0|0:0,0:0:0:0:
4,248,132746,1,0,0:0:0:0:
52,148,133215,6,0,P|120:132|152:60,1,140
256,32,134152,2,2,L|400:60,1,140
472,140,135090,1,0,0:0:0:0:
396,220,135558,1,0,0:0:0:0:
316,144,136027,2,8,B|244:156|244:156|184:216,1,140
124,288,136965,5,0,0:0:0:0:
228,332,137433,2,0,L|296:320,1,70,8|0,0:0|0:0,0:0:0:0:
352,304,137902,2,0,P|396:236|352:176,1,140,0|8,0:0|0:0,0:0:0:0:
256,192,138840,12,8,140246,0:0:0:0:
