osu file format v14

[General]
AudioFilename: Masquerade.mp3
AudioLeadIn: 0
PreviewTime: 65718
Countdown: 0
SampleSet: Normal
StackLeniency: 0.7
Mode: 0
LetterboxInBreaks: 0
WidescreenStoryboard: 0

[Editor]
DistanceSpacing: 1
BeatDivisor: 4
GridSize: 4
TimelineZoom: 1.6

[Metadata]
Title:Masquerade
TitleUnicode:Masquerade
Artist:M2U
ArtistUnicode:M2U
Creator:rgbeing
Version:Insane
Source:Cytus
Tags:
BeatmapID:653706
BeatmapSetID:290125

[Difficulty]
HPDrainRate:6
CircleSize:4
OverallDifficulty:7
ApproachRate:8
SliderMultiplier:1.9
SliderTickRate:1

[Events]
//Background and Video events
0,0,"Mq.jpg",0,0
//Break Periods
//Storyboard Layer 0 (Background)
//Storyboard Layer 1 (Fail)
//Storyboard Layer 2 (Pass)
//Storyboard Layer 3 (Foreground)
//Storyboard Sound Samples

[TimingPoints]
90,468.75,4,1,0,100,1,0
1261,-100,4,1,0,40,0,0
1965,-100,4,1,0,60,0,0
35715,-100,4,1,0,80,0,0
50715,-76.9230769230769,4,1,0,100,0,0
65715,-76.9230769230769,4,1,0,100,0,1
80715,-142.857142857143,4,2,0,80,0,0
95715,-100,4,1,0,100,0,0
110715,-100,4,1,0,80,0,0
118215,-100,4,1,0,100,0,0
125715,-76.9230769230769,4,1,0,100,0,1
140246,-100,4,1,0,100,0,0

[Colours]
Combo1 : 128,0,64
Combo2 : 255,128,0
Combo3 : 18,124,255
Combo4 : 242,24,57

[HitObjects]
324,88,1261,6,0,L|364:84,3,31.6666666666667,0|0|0|8,0:0|0:0|0:0|0:0,0:0:0:0:
172,132,1965,6,0,P|124:160|80:160,1,95
104,68,2433,1,8,0:0:0:0:
120,256,2902,2,0,B|128:304|128:304|172:336,1,95,0|0,0:0|0:0,0:0:0:0:
216,252,3371,1,8,0:0:0:0:
380,160,3840,2,0,L|276:140,1,95,0|0,0:0|0:0,0:0:0:0:
196,120,4308,1,8,0:0:0:0:
108,288,4777,2,0,L|201:270,1,95,0|0,0:0|0:0,0:0:0:0:
292,248,5245,1,8,0:0:0:0:
136,140,5715,6,0,P|112:96|124:48,1,95
212,24,6183,1,8,0:0:0:0:
260,208,6652,2,0,P|236:244|176:252,1,95,0|0,0:0|0:0,0:0:0:0:
180,160,7121,1,8,0:0:0:0:
344,132,7590,2,0,L|444:128,1,95
512,176,8058,1,8,0:0:0:0:
412,336,8527,2,0,P|360:328|320:296,1,95
248,248,8996,1,8,0:0:0:0:
156,304,9230,1,0,0:0:0:0:
136,292,9308,1,0,0:0:0:0:
120,272,9386,1,0,0:0:0:0:
112,248,9465,6,0,B|104:196|104:196|128:136,1,95,0|0,0:0|0:0,0:0:0:0:
168,76,9933,1,8,0:0:0:0:
336,164,10402,2,0,P|320:216|332:260,1,95
388,328,10871,1,8,0:0:0:0:
208,268,11340,2,0,B|168:240|168:240|120:236,1,95
28,228,11808,1,8,0:0:0:0:
324,132,12277,2,0,P|280:148|252:192,1,95
208,268,12746,1,8,0:0:0:0:
160,84,13215,5,0,0:0:0:0:
248,48,13449,2,0,L|344:40,1,95,0|8,0:0|0:0,0:0:0:0:
264,212,14152,5,0,0:0:0:0:
176,248,14386,2,0,L|80:256,1,95,0|8,0:0|0:0,0:0:0:0:
288,300,15090,6,0,P|320:236|396:240,1,142.5
356,296,15558,2,0,L|272:176,1,142.5,8|0,0:0|0:0,0:0:0:0:
256,144,16027,6,0,L|268:92,1,47.5
196,32,16261,2,0,L|185:78,1,47.5,0|0,0:0|0:0,0:0:0:0:
104,128,16496,2,2,P|68:164|96:244,1,142.5,2|2,0:0|0:0,0:0:0:0:
136,268,16965,5,0,0:0:0:0:
240,224,17199,1,8,0:0:0:0:
280,332,17433,1,8,0:0:0:0:
136,268,17668,1,0,0:0:0:0:
104,248,17785,1,0,0:0:0:0:
88,212,17902,1,0,0:0:0:0:
268,108,18136,1,8,0:0:0:0:
168,48,18371,2,0,L|168:152,1,95,8|0,0:0|0:0,0:0:0:0:
168,240,18840,5,0,0:0:0:0:
392,112,19074,1,0,0:0:0:0:
224,80,19308,1,0,0:0:0:0:
336,272,19543,1,0,0:0:0:0:
168,240,19777,2,0,P|84:192|84:92,1,190,0|4,0:0|0:0,0:0:0:0:
364,92,20715,5,0,0:0:0:0:
316,172,20949,2,8,L|328:272,1,95,8|8,0:0|0:0,0:0:0:0:
388,336,21418,1,0,0:0:0:0:
420,320,21535,1,0,0:0:0:0:
448,300,21652,2,0,P|484:268|504:220,1,95,0|8,0:0|0:0,0:0:0:0:
460,100,22121,1,2,0:0:0:0:
392,200,22355,1,8,0:0:0:0:
292,148,22590,6,0,P|248:128|196:128,1,95,0|8,0:0|0:0,0:0:0:0:
152,184,23058,2,0,P|140:200|104:208,1,47.5
104,172,23293,1,0,0:0:0:0:
96,136,23410,1,0,0:0:0:0:
100,100,23527,2,0,B|148:88|148:88|200:96,1,95,0|8,0:0|0:0,0:0:0:0:
260,200,23996,2,0,L|156:184,1,95,2|8,0:0|0:0,0:0:0:0:
92,272,24465,5,0,0:0:0:0:
200,332,24699,1,8,0:0:0:0:
300,260,24933,1,8,0:0:0:0:
300,260,25011,1,0,0:0:0:0:
300,260,25090,1,0,0:0:0:0:
300,260,25168,2,0,L|312:212,1,47.5,0|0,0:0|0:0,0:0:0:0:
320,176,25402,1,0,0:0:0:0:
276,84,25636,1,8,0:0:0:0:
244,104,25754,1,0,0:0:0:0:
212,128,25871,2,0,L|160:164,1,47.5,2|0,0:0|0:0,0:0:0:0:
108,124,26105,2,0,L|56:160,1,47.5,8|0,0:0|0:0,0:0:0:0:
32,212,26340,6,0,P|40:264|76:296,1,95,0|8,0:0|0:0,0:0:0:0:
128,220,26808,1,0,0:0:0:0:
300,220,27043,1,8,0:0:0:0:
208,284,27277,1,0,0:0:0:0:
208,172,27511,1,2,0:0:0:0:
208,132,27629,1,0,0:0:0:0:
208,96,27746,2,0,P|240:64|292:64,1,95,2|0,0:0|0:0,0:0:0:0:
280,156,28215,6,0,P|360:120|380:72,1,142.5,0|0,0:0|0:0,0:0:0:0:
392,48,28683,2,0,L|420:148,1,95,8|0,0:0|0:0,0:0:0:0:
424,236,29152,2,0,P|376:248|336:292,2,95,0|8|8,0:0|0:0|0:0,0:0:0:0:
292,340,29855,1,0,0:0:0:0:
256,332,29972,1,0,0:0:0:0:
228,308,30090,6,0,L|200:216,1,95,0|0,0:0|0:0,0:0:0:0:
126,169,30558,1,8,0:0:0:0:
160,288,30793,1,0,0:0:0:0:
278,253,31027,2,0,B|320:236|320:236|340:188,1,95,0|8,0:0|0:0,0:0:0:0:
284,48,31496,1,8,0:0:0:0:
220,184,31730,1,0,0:0:0:0:
368,144,31965,6,0,P|428:152|432:232,1,142.5,0|0,0:0|0:0,0:0:0:0:
420,256,32433,2,0,P|404:300|424:348,1,95,8|0,0:0|0:0,0:0:0:0:
504,300,32902,1,0,0:0:0:0:
312,300,33136,2,0,L|344:300,2,31.6666666666667,0|0|0,0:0|0:0|0:0,0:0:0:0:
288,300,33371,2,0,B|240:300|240:300|204:336,1,95,8|0,0:0|0:0,0:0:0:0:
196,208,33840,6,0,P|236:168|236:116,1,95,0|0,0:0|0:0,0:0:0:0:
148,48,34308,1,8,0:0:0:0:
104,232,34543,1,0,0:0:0:0:
288,272,34777,2,2,P|384:252|408:332,1,190,2|6,0:0|0:0,0:0:0:0:
320,348,35480,1,0,0:0:0:0:
284,356,35597,1,0,0:0:0:0:
248,348,35715,6,0,P|212:312|208:264,1,95,0|8,0:0|0:0,0:0:0:0:
232,180,36183,1,8,0:0:0:0:
300,112,36418,1,0,0:0:0:0:
320,144,36535,1,0,0:0:0:0:
324,180,36652,2,0,P|308:232|264:256,1,95,0|8,0:0|0:0,0:0:0:0:
180,248,37121,1,8,0:0:0:0:
152,156,37355,1,0,0:0:0:0:
164,120,37472,1,0,0:0:0:0:
196,96,37590,6,0,L|292:68,2,95,0|8|8,0:0|0:0|0:0,0:0:0:0:
136,192,38293,1,0,0:0:0:0:
140,228,38410,1,0,0:0:0:0:
160,260,38527,2,0,P|200:296|248:296,1,95,8|0,0:0|0:0,0:0:0:0:
272,240,38879,1,0,0:0:0:0:
272,240,38996,2,2,P|304:206|351:201,1,95,2|2,0:0|0:0,0:0:0:0:
388,208,39347,1,0,0:0:0:0:
420,228,39465,5,0,0:0:0:0:
308,316,39699,1,8,0:0:0:0:
216,208,39933,1,8,0:0:0:0:
140,268,40168,1,0,0:0:0:0:
124,232,40285,1,0,0:0:0:0:
124,196,40402,2,0,P|148:136|224:112,1,142.5,0|0,0:0|0:0,0:0:0:0:
256,104,40871,2,0,L|304:88,1,47.5,2|0,0:0|0:0,0:0:0:0:
416,144,41105,2,0,L|370:159,1,47.5,2|0,0:0|0:0,0:0:0:0:
304,228,41340,6,0,P|300:276|272:324,2,95,0|8|8,0:0|0:0|0:0,0:0:0:0:
256,144,42043,1,0,0:0:0:0:
232,140,42121,1,0,0:0:0:0:
208,152,42199,1,0,0:0:0:0:
192,172,42277,2,0,P|172:216|180:264,1,95,0|8,0:0|0:0,0:0:0:0:
200,292,42629,1,0,0:0:0:0:
232,308,42746,2,0,L|284:280,1,47.5,8|0,0:0|0:0,0:0:0:0:
312,220,42980,2,0,L|364:192,1,47.5,0|0,0:0|0:0,0:0:0:0:
376,124,43215,6,0,L|464:76,2,95,0|8|8,0:0|0:0|0:0,0:0:0:0:
292,172,43918,1,0,0:0:0:0:
280,136,44035,1,0,0:0:0:0:
252,112,44152,2,0,L|152:100,1,95,0|0,0:0|0:0,0:0:0:0:
52,172,44621,2,2,L|146:183,1,95,2|2,0:0|0:0,0:0:0:0:
248,272,45090,6,0,P|176:280|120:328,1,142.5,0|0,0:0|0:0,0:0:0:0:
88,336,45558,1,8,0:0:0:0:
52,324,45675,1,0,0:0:0:0:
36,288,45793,1,8,0:0:0:0:
52,252,45910,1,0,0:0:0:0:
88,236,46027,2,0,L|180:208,1,95,0|8,0:0|0:0,0:0:0:0:
268,180,46496,1,8,0:0:0:0:
332,112,46730,1,0,0:0:0:0:
368,120,46847,1,0,0:0:0:0:
396,148,46965,6,0,P|428:196|428:244,1,95,0|8,0:0|0:0,0:0:0:0:
368,328,47433,2,0,L|360:280,1,47.5,8|0,0:0|0:0,0:0:0:0:
292,240,47668,2,0,L|284:192,1,47.5,0|0,0:0|0:0,0:0:0:0:
216,148,47902,2,0,P|184:112|132:116,1,95,0|8,0:0|0:0,0:0:0:0:
104,120,48254,1,0,0:0:0:0:
72,140,48371,2,0,L|52:88,1,47.5,2|0,0:0|0:0,0:0:0:0:
76,216,48605,2,0,L|56:164,1,47.5,2|0,0:0|0:0,0:0:0:0:
92,288,48840,6,0,P|120:328|176:348,1,95,0|8,0:0|0:0,0:0:0:0:
192,232,49308,1,8,0:0:0:0:
256,124,49543,1,0,0:0:0:0:
320,232,49777,2,0,B|384:200|384:200|408:124,1,142.5,0|0,0:0|0:0,0:0:0:0:
405,132,50246,1,6,0:0:0:0:
160,168,50715,6,0,L|148:40,2,123.499994346619,0|2|2,0:0|0:0|0:0,0:0:0:0:
192,288,51418,1,0,0:0:0:0:
236,280,51535,1,0,0:0:0:0:
280,272,51652,1,8,0:0:0:0:
356,160,51886,1,0,0:0:0:0:
312,152,52003,1,0,0:0:0:0:
268,144,52121,2,0,P|208:136|144:148,1,123.499994346619,8|0,0:0|0:0,0:0:0:0:
204,228,52590,5,0,0:0:0:0:
316,80,52824,1,2,0:0:0:0:
428,228,53058,1,2,0:0:0:0:
316,176,53293,1,0,0:0:0:0:
276,160,53410,1,0,0:0:0:0:
232,152,53527,2,0,P|172:164|132:216,1,123.499994346619,8|0,0:0|0:0,0:0:0:0:
144,252,53879,1,0,0:0:0:0:
176,280,53996,2,0,P|236:268|276:216,1,123.499994346619,8|0,0:0|0:0,0:0:0:0:
172,168,54465,5,0,0:0:0:0:
268,92,54699,1,8,0:0:0:0:
316,80,54816,1,0,0:0:0:0:
364,96,54933,1,8,0:0:0:0:
396,136,55050,1,0,0:0:0:0:
400,184,55168,1,0,0:0:0:0:
376,228,55285,1,0,0:0:0:0:
332,248,55402,1,2,0:0:0:0:
296,172,55636,1,0,0:0:0:0:
336,156,55754,1,0,0:0:0:0:
376,140,55871,1,2,0:0:0:0:
288,56,56105,1,0,0:0:0:0:
248,72,56222,1,0,0:0:0:0:
208,88,56340,6,0,B|152:112|152:112|88:88,2,123.499994346619,0|8|8,0:0|0:0|0:0,0:0:0:0:
148,196,57043,1,0,0:0:0:0:
144,240,57160,1,0,0:0:0:0:
136,284,57277,2,0,P|92:336|32:352,1,123.499994346619,2|0,0:0|0:0,0:0:0:0:
228,216,57746,2,0,L|352:188,1,123.499994346619,2|0,0:0|0:0,0:0:0:0:
416,56,58215,5,0,0:0:0:0:
472,192,58449,1,2,0:0:0:0:
416,328,58683,1,2,0:0:0:0:
280,268,58918,1,0,0:0:0:0:
240,280,59035,1,0,0:0:0:0:
200,292,59152,1,8,0:0:0:0:
40,184,59386,1,0,0:0:0:0:
60,224,59503,1,0,0:0:0:0:
80,264,59621,2,0,L|200:292,1,123.499994346619,8|0,0:0|0:0,0:0:0:0:
268,176,60090,5,0,0:0:0:0:
344,64,60324,1,2,0:0:0:0:
464,128,60558,1,2,0:0:0:0:
224,108,60793,1,0,0:0:0:0:
180,100,60910,1,0,0:0:0:0:
140,112,61027,2,0,P|88:148|64:208,1,123.499994346619,8|0,0:0|0:0,0:0:0:0:
84,240,61379,1,0,0:0:0:0:
128,244,61496,2,0,P|177:208|238:203,1,123.499994346619,8|0,0:0|0:0,0:0:0:0:
276,224,61847,1,0,0:0:0:0:
304,256,61965,1,0,0:0:0:0:
188,328,62199,5,8,0:0:0:0:
140,320,62316,1,0,0:0:0:0:
100,292,62433,1,8,0:0:0:0:
84,240,62550,1,0,0:0:0:0:
96,192,62668,1,0,0:0:0:0:
136,156,62785,1,0,0:0:0:0:
184,144,62902,2,0,L|312:132,2,123.499994346619,0|2|2,0:0|0:0|0:0,0:0:0:0:
172,232,63605,1,0,0:0:0:0:
216,228,63722,1,0,0:0:0:0:
260,224,63840,2,0,P|327:232|375:264,1,123.499994346619,0|8,0:0|0:0,0:0:0:0:
388,272,64152,1,0,0:0:0:0:
400,264,64230,1,0,0:0:0:0:
416,256,64308,2,0,B|463:215|463:215|483:147,1,123.499994346619,8|0,0:0|0:0,0:0:0:0:
476,108,64660,1,0,0:0:0:0:
460,60,64777,5,0,0:0:0:0:
236,104,65011,1,2,0:0:0:0:
132,260,65246,2,0,P|180:304|244:312,1,123.499994346619,6|0,0:0|0:0,0:0:0:0:
280,304,65597,1,0,0:0:0:0:
320,288,65715,5,0,0:0:0:0:
368,148,65949,1,2,0:0:0:0:
440,320,66183,1,2,0:0:0:0:
284,176,66418,1,0,0:0:0:0:
244,160,66535,1,0,0:0:0:0:
200,156,66652,1,8,0:0:0:0:
100,104,66886,2,0,L|88:44,1,61.7499971733095
36,32,67121,2,0,B|13:69|13:69|31:157,1,123.499994346619,8|0,0:0|0:0,0:0:0:0:
156,84,67590,6,0,L|288:72,2,123.499994346619,0|2|2,0:0|0:0|0:0,0:0:0:0:
72,172,68293,1,0,0:0:0:0:
116,176,68410,1,0,0:0:0:0:
152,196,68527,2,0,P|184:252|172:312,1,123.499994346619,8|0,0:0|0:0,0:0:0:0:
161,349,68879,1,0,0:0:0:0:
200,344,68996,2,0,B|240:320|240:320|276:316|276:316|320:288,1,123.499994346619,8|0,0:0|0:0,0:0:0:0:
396,340,69465,5,0,0:0:0:0:
472,272,69699,1,8,0:0:0:0:
492,232,69816,1,0,0:0:0:0:
496,188,69933,1,8,0:0:0:0:
492,144,70050,1,0,0:0:0:0:
480,104,70168,1,0,0:0:0:0:
452,72,70285,2,0,P|441:60|424:51,2,30.8749985866547,2|2|2,0:0|0:0|0:0,0:0:0:0:
364,136,70636,1,0,0:0:0:0:
372,180,70754,1,0,0:0:0:0:
380,224,70871,1,2,0:0:0:0:
264,268,71105,1,0,0:0:0:0:
256,224,71222,1,0,0:0:0:0:
248,180,71340,6,0,B|208:128|208:128|144:120,2,123.499994346619,0|8|8,0:0|0:0|0:0,0:0:0:0:
144,248,72043,1,0,0:0:0:0:
100,240,72160,1,0,0:0:0:0:
56,232,72277,2,0,B|80:280|80:280|156:292,1,123.499994346619,2|0,0:0|0:0,0:0:0:0:
268,320,72746,2,0,B|252:260|280:216|280:216|308:236,1,123.499994346619,2|0,0:0|0:0,0:0:0:0:
396,328,73215,5,0,0:0:0:0:
452,192,73449,1,2,0:0:0:0:
396,56,73683,1,2,0:0:0:0:
324,156,73918,2,0,L|264:140,1,61.7499971733095,0|0,0:0|0:0,0:0:0:0:
232,92,74152,2,0,B|208:124|208:124|112:96,1,123.499994346619,0|0,0:0|0:0,0:0:0:0:
60,164,74621,2,0,L|192:204,1,123.499994346619,8|0,0:0|0:0,0:0:0:0:
264,288,75090,5,0,0:0:0:0:
144,320,75324,1,2,0:0:0:0:
112,100,75558,1,2,0:0:0:0:
236,100,75793,1,0,0:0:0:0:
280,100,75910,1,0,0:0:0:0:
324,100,76027,2,0,P|396:92|440:56,1,123.499994346619,8|0,0:0|0:0,0:0:0:0:
464,32,76379,1,0,0:0:0:0:
472,76,76496,2,0,L|488:200,1,123.499994346619,8|0,0:0|0:0,0:0:0:0:
492,240,76847,1,0,0:0:0:0:
500,284,76965,5,0,0:0:0:0:
372,328,77199,1,8,0:0:0:0:
360,280,77316,1,0,0:0:0:0:
324,248,77433,1,8,0:0:0:0:
276,240,77550,1,0,0:0:0:0:
228,252,77668,1,0,0:0:0:0:
192,284,77785,1,0,0:0:0:0:
184,332,77902,1,0,0:0:0:0:
276,336,78136,1,2,0:0:0:0:
276,116,78371,2,0,L|276:244,1,123.499994346619,2|0,0:0|0:0,0:0:0:0:
276,288,78722,1,0,0:0:0:0:
276,336,78840,5,0,0:0:0:0:
339,97,79074,1,2,0:0:0:0:
201,179,79308,1,2,0:0:0:0:
412,252,79543,1,0,0:0:0:0:
276,336,79777,2,0,P|136:316|72:232,1,246.999988693238,4|12,0:0|0:0,0:0:0:0:
268,76,80715,6,0,P|200:96|184:168,1,132.999995941162,8|0,0:0|0:0,0:0:0:0:
128,200,81418,1,0,0:0:0:0:
80,256,81652,2,0,B|92:268|92:268|136:296|212:288,1,132.999995941162,2|0,0:0|0:0,0:0:0:0:
276,260,82355,1,0,0:0:0:0:
340,220,82590,2,0,B|396:192|396:192|392:264,1,132.999995941162,8|0,0:0|0:0,0:0:0:0:
348,320,83293,1,0,0:0:0:0:
280,292,83527,2,0,P|240:228|256:176,1,132.999995941162,2|0,0:0|0:0,0:0:0:0:
304,124,84230,1,0,0:0:0:0:
260,68,84465,6,0,B|236:36|236:36|144:60,1,132.999995941162,8|0,0:0|0:0,0:0:0:0:
88,104,85168,1,0,0:0:0:0:
108,176,85402,2,0,P|168:216|240:196,1,132.999995941162,2|0,0:0|0:0,0:0:0:0:
268,148,86105,1,0,0:0:0:0:
180,136,86340,2,0,L|180:244,1,99.7499969558717,8|0,0:0|0:0,0:0:0:0:
180,264,86808,1,8,0:0:0:0:
296,280,87043,1,0,0:0:0:0:
328,260,87160,1,0,0:0:0:0:
360,240,87277,2,0,L|380:176,1,66.4999979705811,2|0,0:0|0:0,0:0:0:0:
316,64,87746,2,0,L|296:128,1,66.4999979705811,2|0,0:0|0:0,0:0:0:0:
288,152,88058,1,0,0:0:0:0:
272,168,88136,1,0,0:0:0:0:
248,176,88215,6,0,P|180:180|128:136,1,132.999995941162,8|0,0:0|0:0,0:0:0:0:
148,68,88918,1,0,0:0:0:0:
208,108,89152,2,0,L|356:88,1,132.999995941162,2|0,0:0|0:0,0:0:0:0:
404,124,89855,1,0,0:0:0:0:
468,160,90090,2,0,L|496:56,2,99.7499969558717,8|8|8,0:0|0:0|0:0,0:0:0:0:
460,180,90871,1,0,0:0:0:0:
448,196,90949,1,0,0:0:0:0:
436,208,91027,2,0,L|408:236,1,33.2499989852906,0|0,0:0|0:0,0:0:0:0:
360,292,91261,2,0,L|332:320,1,33.2499989852906,0|0,0:0|0:0,0:0:0:0:
300,232,91496,2,0,L|356:176,1,66.4999979705811,0|0,0:0|0:0,0:0:0:0:
368,88,91965,6,0,B|304:52|240:88,1,132.999995941162,8|0,0:0|0:0,0:0:0:0:
180,132,92668,1,0,0:0:0:0:
112,160,92902,2,0,P|120:88|176:60,1,132.999995941162,2|0,0:0|0:0,0:0:0:0:
236,84,93605,1,0,0:0:0:0:
248,156,93840,2,0,L|352:176,1,99.7499969558717,8|0,0:0|0:0,0:0:0:0:
384,180,94308,2,0,B|400:160|400:160|424:188|416:232,1,99.7499969558717,8|0,0:0|0:0,0:0:0:0:
404,260,94777,2,0,L|424:284,2,22.1666659901937,2|2|2,0:0|0:0|0:0,0:0:0:0:
384,268,95011,2,0,L|392:300,2,22.1666659901937,2|2|2,0:0|0:0|0:0,0:0:0:0:
364,260,95246,1,0,0:0:0:0:
332,208,95363,1,0,0:0:0:0:
272,204,95480,1,0,0:0:0:0:
224,240,95597,1,0,0:0:0:0:
216,296,95715,6,0,P|172:308|120:292,1,95,0|0,0:0|0:0,0:0:0:0:
92,208,96183,1,8,1:0:0:0:
136,124,96418,1,0,0:0:0:0:
172,124,96535,1,0,0:0:0:0:
208,112,96652,1,0,0:0:0:0:
288,44,96886,1,0,0:0:0:0:
324,48,97004,1,0,0:0:0:0:
356,68,97121,1,8,0:0:0:0:
384,96,97238,1,0,0:0:0:0:
404,128,97355,1,0,0:0:0:0:
412,164,97472,1,0,0:0:0:0:
412,204,97590,6,0,P|396:252|348:288,1,95,0|0,0:0|0:0,0:0:0:0:
328,296,97941,1,0,0:0:0:0:
292,296,98058,2,0,L|236:288,1,47.5,8|0,0:0|0:0,0:0:0:0:
128,336,98293,2,0,L|175:342,1,47.5,0|0,0:0|0:0,0:0:0:0:
192,340,98468,1,0,0:0:0:0:
192,340,98527,2,0,P|236:300|240:260,1,95,0|0,0:0|0:0,0:0:0:0:
204,180,98996,2,0,L|232:124,1,47.5,2|0,0:0|0:0,0:0:0:0:
336,88,99230,2,0,L|314:130,1,47.5,2|0,0:0|0:0,0:0:0:0:
240,188,99465,6,0,P|196:160|112:184,1,142.5,0|0,0:0|0:0,0:0:0:0:
92,216,99933,1,8,0:0:0:0:
172,280,100168,1,0,0:0:0:0:
208,276,100285,1,0,0:0:0:0:
244,260,100402,1,0,0:0:0:0:
268,232,100519,1,0,0:0:0:0:
280,196,100636,1,0,0:0:0:0:
276,156,100754,1,0,0:0:0:0:
256,124,100871,2,0,L|216:100,1,47.5,8|0,0:0|0:0,0:0:0:0:
92,128,101105,2,0,L|132:152,1,47.5,8|0,0:0|0:0,0:0:0:0:
200,96,101340,5,0,0:0:0:0:
224,68,101457,1,0,0:0:0:0:
260,52,101574,1,0,0:0:0:0:
296,52,101691,1,0,0:0:0:0:
332,64,101808,2,0,L|384:88,1,47.5,8|0,0:0|0:0,0:0:0:0:
396,176,102043,2,0,L|352:156,1,47.5,8|0,0:0|0:0,0:0:0:0:
268,196,102277,1,0,0:0:0:0:
244,200,102355,1,0,0:0:0:0:
224,216,102433,1,0,0:0:0:0:
208,236,102511,2,0,L|192:292,1,47.5,8|0,0:0|0:0,0:0:0:0:
268,344,102746,2,2,L|300:236,1,95,2|2,0:0|0:0,0:0:0:0:
324,144,103215,6,0,P|376:176|400:220,1,95,0|0,0:0|0:0,0:0:0:0:
396,240,103566,1,0,0:0:0:0:
372,268,103683,2,0,B|332:292|332:292|324:344,1,95,8|0,0:0|0:0,0:0:0:0:
448,328,104152,1,0,0:0:0:0:
460,292,104269,1,0,0:0:0:0:
464,248,104386,2,0,P|452:196|420:160,1,95,0|8,0:0|0:0,0:0:0:0:
324,112,104855,1,0,0:0:0:0:
212,136,105090,6,0,L|160:128,1,47.5,8|0,0:0|0:0,0:0:0:0:
144,236,105324,2,0,L|190:243,1,47.5,8|0,0:0|0:0,0:0:0:0:
128,152,105558,2,0,L|120:198,1,47.5,2|0,0:0|0:0,0:0:0:0:
228,220,105792,2,0,L|235:173,1,47.5,2|0,0:0|0:0,0:0:0:0:
220,128,106027,2,0,L|112:112,2,95,0|8|8,0:0|0:0|0:0,0:0:0:0:
268,212,106730,1,0,0:0:0:0:
304,216,106847,1,0,0:0:0:0:
344,220,106965,6,0,P|388:192|400:152,1,95,0|0,0:0|0:0,0:0:0:0:
348,100,107316,1,0,0:0:0:0:
348,100,107375,1,0,0:0:0:0:
348,100,107433,2,0,L|324:148,1,47.5,8|0,0:0|0:0,0:0:0:0:
248,176,107668,2,0,L|224:224,1,47.5,0|0,0:0|0:0,0:0:0:0:
144,240,107902,2,0,L|92:260,1,47.5,0|0,0:0|0:0,0:0:0:0:
36,188,108136,2,0,L|80:170,1,47.5,0|0,0:0|0:0,0:0:0:0:
156,228,108371,2,0,L|104:248,1,47.5,8|0,0:0|0:0,0:0:0:0:
48,176,108605,2,0,L|92:158,1,47.5,0|0,0:0|0:0,0:0:0:0:
188,152,108840,6,0,P|228:188|236:232,1,95,0|0,0:0|0:0,0:0:0:0:
124,240,109308,1,8,0:0:0:0:
76,104,109543,1,0,0:0:0:0:
212,60,109777,2,0,P|288:120|256:208,1,190,0|12,0:0|0:0,0:0:0:0:
416,108,110715,6,0,B|436:148|436:148|440:204,1,95,0|8,0:0|0:0,0:0:0:0:
444,292,111183,1,8,0:0:0:0:
352,240,111418,1,0,0:0:0:0:
324,224,111535,1,0,0:0:0:0:
292,224,111652,2,0,P|248:240|200:224,1,95,2|0,0:0|0:0,0:0:0:0:
176,208,112004,1,0,0:0:0:0:
148,192,112121,2,0,B|104:212|104:212|88:260,1,95,2|0,0:0|0:0,0:0:0:0:
172,280,112590,5,0,0:0:0:0:
68,184,112824,1,8,0:0:0:0:
160,76,113058,1,8,0:0:0:0:
232,136,113293,1,0,0:0:0:0:
264,128,113410,1,0,0:0:0:0:
296,120,113527,2,0,P|348:120|384:144,1,95,2|0,0:0|0:0,0:0:0:0:
376,176,113879,1,0,0:0:0:0:
364,208,113996,2,0,P|317:209|277:185,1,95,2|0,0:0|0:0,0:0:0:0:
240,56,114465,6,0,P|188:48|148:64,1,95,0|8,0:0|0:0,0:0:0:0:
124,80,114816,1,0,0:0:0:0:
100,104,114933,1,8,0:0:0:0:
80,132,115050,1,0,0:0:0:0:
68,164,115168,1,0,0:0:0:0:
60,196,115285,2,2,L|56:224,2,23.75,2|2|2,0:0|0:0|0:0,0:0:0:0:
172,168,115636,1,0,0:0:0:0:
166,205,115754,1,0,0:0:0:0:
160,242,115871,1,2,0:0:0:0:
268,207,116105,1,0,0:0:0:0:
262,244,116223,1,0,0:0:0:0:
256,281,116340,6,2,P|288:327|402:294,1,190,2|2,0:0|0:0,0:0:0:0:
395,182,117043,1,0,0:0:0:0:
364,204,117160,1,0,0:0:0:0:
349,239,117277,2,0,L|327:341,1,95,0|8,0:0|0:0,0:0:0:0:
241,293,117746,1,12,0:0:0:0:
267,182,117980,1,0,0:0:0:0:
189,98,118215,5,0,0:0:0:0:
110,270,118449,2,8,L|95:176,1,95,8|8,0:0|0:0,0:0:0:0:
187,200,118918,1,0,0:0:0:0:
220,217,119035,1,0,0:0:0:0:
256,225,119152,2,0,P|314:218|349:188,1,95,2|0,0:0|0:0,0:0:0:0:
361,163,119504,1,0,0:0:0:0:
368,125,119621,1,2,0:0:0:0:
257,95,119855,1,0,0:0:0:0:
171,171,120090,6,0,L|67:163,2,95,0|8|8,0:0|0:0|0:0,0:0:0:0:
265,235,120793,1,0,0:0:0:0:
276,271,120910,1,0,0:0:0:0:
285,307,121027,2,0,L|322:268,1,47.5,2|0,0:0|0:0,0:0:0:0:
412,284,121261,2,0,L|379:318,1,47.5,0|0,0:0|0:0,0:0:0:0:
344,351,121496,1,2,0:0:0:0:
298,129,121730,2,0,L|304:176,2,47.5,0|0|0,0:0|0:0|0:0,0:0:0:0:
226,66,122199,5,8,0:0:0:0:
179,77,122316,1,0,0:0:0:0:
142,107,122433,1,8,0:0:0:0:
117,147,122550,1,0,0:0:0:0:
106,193,122668,1,0,0:0:0:0:
109,240,122785,1,0,0:0:0:0:
121,285,122902,2,0,P|150:325|197:348,2,95,0|2|2,0:0|0:0|0:0,0:0:0:0:
83,197,123605,1,0,0:0:0:0:
45,202,123722,1,0,0:0:0:0:
6,204,123840,6,0,P|1:132|13:99,1,95,0|0,0:0|0:0,0:0:0:0:
40,96,124152,1,2,0:0:0:0:
56,92,124230,1,2,0:0:0:0:
69,91,124308,2,0,B|101:123|173:128,1,95,8|0,0:0|0:0,0:0:0:0:
193,123,124660,1,0,0:0:0:0:
230,117,124777,2,0,L|331:109,1,95,0|0,0:0|0:0,0:0:0:0:
437,179,125246,1,12,0:0:0:0:
361,331,125480,1,0,0:0:0:0:
323,323,125597,1,0,0:0:0:0:
286,315,125715,6,0,L|159:348,2,123.499994346619,0|8|8,0:0|0:0|0:0,0:0:0:0:
400,267,126418,1,0,0:0:0:0:
413,226,126535,1,0,0:0:0:0:
425,184,126652,1,2,0:0:0:0:
343,60,126886,1,0,0:0:0:0:
331,102,127003,1,0,0:0:0:0:
318,143,127121,2,0,P|294:200|231:232,1,123.499994346619,2|0,0:0|0:0,0:0:0:0:
356,278,127590,5,0,0:0:0:0:
207,112,127824,1,8,0:0:0:0:
228,283,128058,1,8,0:0:0:0:
365,177,128293,1,0,0:0:0:0:
397,148,128410,1,0,0:0:0:0:
397,104,128527,2,0,P|353:64|288:56,1,123.499994346619,2|0,0:0|0:0,0:0:0:0:
249,66,128879,1,0,0:0:0:0:
212,100,128996,2,0,P|188:148|116:160,1,123.499994346619,0|0,0:0|0:0,0:0:0:0:
76,66,129465,5,0,0:0:0:0:
37,183,129699,1,8,0:0:0:0:
28,231,129816,1,0,0:0:0:0:
38,279,129933,1,8,0:0:0:0:
62,321,130050,1,0,0:0:0:0:
101,351,130168,1,2,2:0:0:0:
149,357,130285,2,0,L|183:360,2,30.8749985866547,0|0|2,0:0|0:0|0:0,0:0:0:0:
25,352,130636,1,0,0:0:0:0:
45,313,130754,1,0,0:0:0:0:
58,271,130871,1,2,0:0:0:0:
174,310,131105,1,0,0:0:0:0:
194,271,131223,1,0,0:0:0:0:
207,229,131340,6,2,P|263:180|371:282,1,246.999988693238,2|2,0:0|0:0,0:0:0:0:
254,311,132043,1,0,0:0:0:0:
211,302,132160,1,0,0:0:0:0:
169,290,132277,2,0,L|103:306,1,61.7499971733095,8|0,2:0|0:0,0:0:0:0:
249,225,132511,2,0,L|183:241,1,61.7499971733095,8|0,2:0|0:0,0:0:0:0:
327,156,132746,2,0,B|268:170|268:170|284:100,1,123.499994346619,8|0,0:0|0:0,0:0:0:0:
453,95,133215,5,0,0:0:0:0:
402,316,133449,1,8,0:0:0:0:
333,184,133683,1,8,0:0:0:0:
305,279,133918,1,0,0:0:0:0:
275,310,134035,1,0,0:0:0:0:
235,326,134152,2,0,P|163:330|103:310,1,123.499994346619,2|0,0:0|0:0,0:0:0:0:
88,273,134504,1,0,0:0:0:0:
112,230,134621,2,0,P|171:214|232:219,1,123.499994346619,2|0,0:0|0:0,0:0:0:0:
181,304,135090,5,0,0:0:0:0:
139,161,135324,1,8,0:0:0:0:
350,227,135558,1,8,0:0:0:0:
218,243,135793,1,0,0:0:0:0:
175,234,135910,1,0,0:0:0:0:
132,228,136027,2,0,P|96:176|109:120,1,123.499994346619,2|0,0:0|0:0,0:0:0:0:
150,108,136379,1,0,0:0:0:0:
192,101,136496,2,0,P|228:153|215:209,1,123.499994346619,2|0,0:0|0:0,0:0:0:0:
173,217,136847,1,0,0:0:0:0:
130,228,136965,5,0,0:0:0:0:
200,329,137199,1,8,0:0:0:0:
255,325,137316,1,0,0:0:0:0:
307,306,137433,1,8,0:0:0:0:
351,272,137550,1,0,0:0:0:0:
388,230,137668,1,0,0:0:0:0:
405,177,137785,1,0,0:0:0:0:
414,122,137902,1,0,0:0:0:0:
192,112,138136,1,2,0:0:0:0:
352,272,138371,1,2,0:0:0:0:
219,197,138605,1,0,0:0:0:0:
180,178,138722,1,0,0:0:0:0:
136,153,138840,5,0,0:0:0:0:
181,293,139074,1,8,0:0:0:0:
375,153,139308,1,8,0:0:0:0:
330,293,139542,1,0,0:0:0:0:
256,65,139777,2,0,B|253:106|275:175|275:175|240:188|240:188|259:254|255:291,1,246.999988693238,0|12,0:0|0:0,0:0:0:0:
