osu file format v14

[General]
AudioFilename: M2U -Masquerade.mp3
AudioLeadIn: 0
PreviewTime: 49783
Countdown: 0
SampleSet: Soft
StackLeniency: 0.3
Mode: 0
LetterboxInBreaks: 1
WidescreenStoryboard: 0

[Editor]
Bookmarks: 35721
DistanceSpacing: 1.2
BeatDivisor: 4
GridSize: 8
TimelineZoom: 1.8

[Metadata]
Title:Masquerade
TitleUnicode:Masquerade
Artist:M2U
ArtistUnicode:M2U
Creator:Melt
Version:Hard
Source:Cytus
Tags:wantuole Zweib OnosakiHito Cocytus Lambda Chapter VIII ANOTHER ME
BeatmapID:361734
BeatmapSetID:124857

[Difficulty]
HPDrainRate:4
CircleSize:3.8
OverallDifficulty:4
ApproachRate:7
SliderMultiplier:1.5
SliderTickRate:1

[Events]
//Background and Video events
0,0,"bg.jpg",0,0
//Break Periods
2,110451,115446
//Storyboard Layer 0 (Background)
//Storyboard Layer 1 (Fail)
//Storyboard Layer 2 (Pass)
//Storyboard Layer 3 (Foreground)
//Storyboard Sound Samples

[TimingPoints]
96,468.75,4,2,1,60,1,0
1971,-100,4,2,1,40,0,0
9471,-100,4,2,4,40,0,1
9588,-100,4,2,1,60,0,0
16033,-100,4,2,2,50,0,0
16502,-100,4,2,2,60,0,0
16971,-100,4,2,1,30,0,0
17205,-100,4,2,1,60,0,0
20721,-100,4,2,1,30,0,0
20955,-100,4,2,1,50,0,0
35721,-100,4,2,1,40,0,0
35955,-100,4,2,3,60,0,0
50721,-86.9565217391304,4,2,1,50,0,1
50955,-86.9565217391304,4,2,3,70,0,1
56346,-111.111111111111,4,2,3,70,0,1
58221,-86.9565217391304,4,2,3,70,0,1
64783,-86.9565217391304,4,2,3,75,0,1
65252,-86.9565217391304,4,2,3,80,0,1
65662,-86.9565217391304,4,2,3,70,0,0
65721,-86.9565217391304,4,2,1,50,0,1
65955,-86.9565217391304,4,2,3,70,0,1
71346,-111.111111111111,4,2,3,70,0,1
73221,-86.9565217391304,4,2,3,70,0,1
80252,-100,4,2,4,60,0,0
80721,-100,4,2,1,30,0,0
87283,-100,4,2,2,40,0,0
92439,-100,4,2,1,40,0,0
92908,-100,4,2,2,40,0,0
93377,-100,4,2,1,40,0,0
94783,-100,4,2,2,40,0,0
94842,-100,4,2,2,35,0,0
94900,-100,4,2,2,30,0,0
94959,-100,4,2,2,40,0,0
95252,-100,4,2,3,60,0,0
95721,-86.9565217391304,4,2,1,40,0,0
95838,-86.9565217391304,4,2,3,50,0,0
110721,-86.9565217391304,4,2,1,40,0,0
116346,-86.9565217391304,4,2,3,40,0,0
116814,-86.9565217391304,4,2,3,45,0,0
117283,-86.9565217391304,4,2,3,50,0,0
117752,-86.9565217391304,4,2,3,70,0,0
118221,-86.9565217391304,4,2,1,50,0,1
118455,-86.9565217391304,4,2,3,70,0,1
124783,-86.9565217391304,4,2,3,75,0,1
125252,-86.9565217391304,4,2,3,80,0,1
125662,-86.9565217391304,4,2,3,70,0,0
125721,-86.9565217391304,4,2,1,50,0,1
125955,-86.9565217391304,4,2,3,70,0,1
131346,-111.111111111111,4,2,3,70,0,1
133221,-86.9565217391304,4,2,3,70,0,1
140252,-86.9565217391304,4,2,4,70,0,0

[Colours]
Combo1 : 217,0,0
Combo2 : 155,198,255
Combo3 : 205,254,173
Combo4 : 194,135,135
Combo5 : 255,199,142

[HitObjects]
232,106,1971,6,0,P|150:74|84:118,1,150,4|0,0:0|0:0,0:0:0:0:
22,262,2908,2,0,L|28:360,1,75,0|0,0:0|0:0,0:0:0:0:
114,357,3377,2,0,L|109:282,1,75,0|0,0:0|0:0,0:0:0:0:
174,219,3846,6,0,P|247:196|316:225,1,150,0|0,0:0|0:0,0:0:0:0:
420,366,4783,2,0,L|430:277,1,75,0|0,0:0|0:0,0:0:0:0:
481,218,5252,2,0,L|474:136,1,75,0|0,3:0|0:0,0:0:0:0:
402,89,5721,6,0,P|334:111|250:67,1,150,0|0,0:0|0:0,0:0:0:0:
96,17,6658,2,0,L|105:94,1,75,0|0,0:0|0:0,0:0:0:0:
168,155,7127,2,0,L|156:248,1,75,0|0,3:0|0:0,0:0:0:0:
91,289,7596,6,0,P|160:317|244:259,1,150,0|0,0:0|0:0,0:0:0:0:
378,193,8533,2,0,P|425:187|474:211,1,75,0|0,0:0|0:0,0:0:0:0:
508,264,9002,1,0,0:0:0:0:
353,353,9471,22,0,P|313:360|266:349,1,75,2|0,0:0|0:0,0:0:0:0:
196,320,9939,1,0,3:0:0:0:
189,138,10408,2,0,P|180:95|194:59,1,75,0|0,0:0|0:0,0:0:0:0:
279,66,10877,2,0,P|288:109|274:145,1,75,0|0,0:0|0:0,0:0:0:0:
300,225,11346,22,0,P|293:260|307:304,2,75,0|0|0,0:0|0:0|0:0,0:0:0:0:
190,366,12283,2,0,L|106:371,1,75,0|0,0:0|0:0,0:0:0:0:
74,290,12752,2,0,L|-8:286,1,75,0|0,3:0|3:0,0:0:0:0:
26,200,13221,6,0,L|119:204,2,75,0|0|0,0:0|0:0|3:0,0:0:0:0:
192,131,14158,2,0,L|267:134,2,75,0|0|0,0:0|0:0|3:0,0:0:0:0:
112,89,14861,1,0,3:0:0:0:
176,25,15096,22,0,P|230:9|291:33,1,112.5,0|0,0:0|0:0,0:0:0:0:
318,52,15564,2,0,P|373:69|431:51,1,112.5,0|0,3:0|0:0,0:0:0:0:
463,77,16033,2,0,L|461:127,1,37.5,8|0,0:0|0:0,0:0:0:0:
474,157,16267,2,0,L|478:206,1,37.5,8|0,0:0|0:0,0:0:0:0:
473,239,16502,1,8,0:0:0:0:
301,293,16971,6,0,L|308:384,2,75,4|0|8,0:0|0:0|0:0,0:0:0:0:
241,226,17674,1,0,0:0:0:0:
272,141,17908,2,0,L|266:54,2,75,0|0|8,0:0|0:0|0:0,0:0:0:0:
241,226,18611,1,0,0:0:0:0:
161,183,18846,5,0,0:0:0:0:
162,272,19080,1,0,0:0:0:0:
161,183,19314,1,8,0:0:0:0:
162,272,19549,1,0,0:0:0:0:
161,183,19783,1,0,0:0:0:0:
327,250,20252,2,0,P|366:242|405:253,1,75,0|0,0:0|0:0,0:0:0:0:
431,334,20721,6,0,P|351:364|288:319,1,150,6|8,0:0|0:0,0:0:0:0:
210,318,21424,1,2,0:0:0:0:
125,349,21658,2,0,P|83:360|39:341,1,75,2|0,0:0|0:0,0:0:0:0:
3,275,22127,1,10,0:0:0:0:
39,192,22361,1,2,0:0:0:0:
121,155,22596,22,0,P|190:198|256:175,1,150,2|8,0:0|0:0,0:0:0:0:
307,108,23299,1,2,0:0:0:0:
384,62,23533,2,0,P|426:53|474:73,1,75,2|0,0:0|0:0,0:0:0:0:
459,151,24002,2,0,P|417:160|369:140,1,75,10|2,0:0|0:0,0:0:0:0:
307,108,24471,22,0,B|230:115|230:115|148:104,1,150,2|8,0:0|0:0,0:0:0:0:
84,52,25174,1,2,0:0:0:0:
21,116,25408,2,0,L|27:210,1,75,2|0,0:0|0:0,0:0:0:0:
77,264,25877,2,0,L|74:307,3,37.5,10|0|2|2,0:0|0:0|0:0|0:0,0:0:0:0:
105,333,26346,6,0,P|159:349|229:320,1,112.5,2|0,0:0|0:0,0:0:0:0:
249,310,26814,2,0,P|294:303|335:320,1,75,10|2,0:0|0:0,0:0:0:0:
392,366,27283,1,2,0:0:0:0:
468,319,27517,2,0,L|504:330,2,37.5,2|2|10,0:0|0:0|0:0,0:0:0:0:
428,237,27986,1,0,0:0:0:0:
457,151,28221,22,0,P|471:96|442:42,1,112.5,2|0,0:0|0:0,0:0:0:0:
408,26,28689,2,0,L|326:28,1,75,10|2,0:0|0:0,0:0:0:0:
281,101,29158,2,0,L|139:103,1,112.5,2|0,0:0|0:0,0:0:0:0:
137,135,29627,2,0,P|128:175|154:229,1,75,10|0,0:0|0:0,0:0:0:0:
196,274,30096,6,0,L|199:355,1,75,2|2,0:0|0:0,0:0:0:0:
284,374,30564,2,0,L|288:295,1,75,8|2,0:0|0:0,0:0:0:0:
316,213,31033,2,0,P|285:151|319:80,1,150,2|10,0:0|0:0,0:0:0:0:
395,38,31736,1,2,0:0:0:0:
474,80,31971,6,0,P|505:142|471:213,1,150,2|10,0:0|0:0,0:0:0:0:
396,258,32674,1,0,0:0:0:0:
332,321,32908,2,0,L|256:315,1,75,2|2,0:0|0:0,0:0:0:0:
181,265,33377,2,0,L|106:266,1,75,10|2,0:0|0:0,0:0:0:0:
54,192,33846,6,0,L|130:190,1,75,2|2,0:0|0:0,0:0:0:0:
188,122,34314,1,8,0:0:0:0:
278,127,34549,1,2,0:0:0:0:
367,135,34783,1,2,0:0:0:0:
367,135,35252,37,8,0:0:0:0:
456,143,35486,2,0,L|461:182,1,37.5,0|0,0:0|0:0,0:0:0:0:
448,223,35721,54,0,B|442:285|442:285|446:304,2,75,6|0|6,0:0|0:0|0:0,0:0:0:0:
367,135,36424,1,0,0:0:0:0:
288,191,36658,2,0,B|291:250|291:250|286:277,2,75,2|0|4,0:0|0:0|0:0,0:0:0:0:
168,142,37361,1,2,0:0:0:0:
244,81,37596,2,0,B|241:23|241:23|245:2,2,75,2|0|6,0:0|0:0|0:0,0:0:0:0:
168,142,38299,5,0,0:0:0:0:
82,169,38533,2,0,P|44:161|-9:179,1,75,2|0,0:0|0:0,0:0:0:0:
9,258,39002,2,0,P|47:266|100:248,1,75,6|2,0:0|0:0,0:0:0:0:
152,314,39471,6,0,L|250:308,1,75,2|0,0:0|0:0,0:0:0:0:
311,340,39939,1,4,0:0:0:0:
400,327,40174,2,0,L|397:290,1,37.5,2|0,0:0|0:0,0:0:0:0:
435,266,40408,2,0,P|448:205|412:155,1,112.5,2|0,0:0|0:0,0:0:0:0:
404,123,40877,2,0,L|361:125,3,37.5,6|0|2|2,0:0|0:0|0:0|0:0,0:0:0:0:
324,108,41346,6,0,B|328:85|328:85|322:16,2,75,2|0|6,0:0|0:0|0:0,0:0:0:0:
243,148,42049,1,2,0:0:0:0:
179,83,42283,2,0,P|143:149|201:222,1,150,2|6,0:0|0:0,0:0:0:0:
243,148,42986,1,0,0:0:0:0:
325,111,43221,22,0,B|410:120|410:120|456:108,1,112.5,2|0,0:0|0:0,0:0:0:0:
463,77,43689,2,0,L|457:189,1,112.5,4|0,0:0|0:0,0:0:0:0:
487,222,44158,2,0,P|497:263|485:298,2,75,2|2|6,0:0|0:0|0:0,0:0:0:0:
404,258,44861,1,2,0:0:0:0:
338,319,45096,6,0,P|280:332|212:299,1,112.5,0|2,0:0|0:0,0:0:0:0:
192,292,45564,2,0,L|188:247,3,37.5,6|0|2|0,0:0|0:0|0:0|0:0,0:0:0:0:
158,220,46033,1,2,0:0:0:0:
193,137,46267,1,0,0:0:0:0:
158,53,46502,1,6,0:0:0:0:
70,74,46736,2,0,L|18:74,1,37.5,2|0,0:0|0:0,0:0:0:0:
4,38,46971,6,0,L|12:157,1,112.5,2|2,0:0|0:0,0:0:0:0:
30,190,47439,2,0,L|28:242,3,37.5,6|0|2|2,0:0|0:0|0:0|0:0,0:0:0:0:
56,262,47908,2,0,P|108:278|173:256,1,112.5,2|2,0:0|0:0,0:0:0:0:
199,237,48377,2,0,L|239:241,3,37.5,6|0|2|0,0:0|0:0|0:0|0:0,0:0:0:0:
270,272,48846,5,2,0:0:0:0:
326,341,49080,1,2,0:0:0:0:
415,351,49314,1,4,0:0:0:0:
482,290,49549,1,2,0:0:0:0:
482,200,49783,1,0,0:0:0:0:
398,93,50135,2,0,L|347:100,1,37.5,2|6,0:0|0:0,0:0:0:0:
159,50,50721,22,0,P|116:42|64:55,2,86.2500016450882,6|0|14,0:0|0:0|0:0,0:0:0:0:
218,135,51424,1,0,0:0:0:0:
164,223,51658,2,0,B|98:226|98:226|67:221,1,86.2500016450882,2|2,0:0|0:0,0:0:0:0:
7,298,52127,2,0,B|73:295|73:295|104:300,1,86.2500016450882,14|8,0:0|0:0,0:0:0:0:
189,334,52596,6,0,P|231:326|272:335,1,86.2500016450882,2|0,0:0|0:0,0:0:0:0:
375,347,53064,2,0,P|416:356|458:348,1,86.2500016450882,14|0,0:0|0:0,0:0:0:0:
498,251,53533,2,0,L|490:155,1,86.2500016450882,2|0,0:0|0:0,0:0:0:0:
435,77,54002,2,0,P|393:87|329:63,1,86.2500016450882,12|8,0:0|0:0,0:0:0:0:
259,30,54471,5,2,0:0:0:0:
250,133,54705,1,0,0:0:0:0:
241,235,54939,1,12,0:0:0:0:
232,338,55174,1,0,0:0:0:0:
131,359,55408,2,0,L|121:263,1,86.2500016450882,10|2,0:0|0:0,0:0:0:0:
42,206,55877,2,0,P|33:161|65:95,1,86.2500016450882,14|2,0:0|0:0,0:0:0:0:
85,53,56346,22,0,L|160:58,1,67.4999979400635,10|0,0:0|0:0,0:0:0:0:
209,115,56814,2,0,L|284:120,1,67.4999979400635,4|0,0:0|0:0,0:0:0:0:
333,177,57283,2,0,L|408:182,1,67.4999979400635,2|8,0:0|0:0,0:0:0:0:
462,234,57752,1,6,0:0:0:0:
462,234,57986,1,10,0:0:0:0:
503,51,58221,6,0,L|501:138,1,86.2500016450882,2|0,0:0|0:0,0:0:0:0:
462,234,58689,1,14,0:0:0:0:
487,333,58924,2,0,L|425:337,1,43.1250008225441,2|0,0:0|0:0,0:0:0:0:
394,323,59158,2,0,B|332:315|332:315|307:322,1,86.2500016450882,2|0,0:0|0:0,0:0:0:0:
245,239,59627,2,0,B|307:247|307:247|332:240,1,86.2500016450882,12|8,0:0|0:0,0:0:0:0:
351,141,60096,6,0,L|345:46,1,86.2500016450882,2|2,0:0|0:0,0:0:0:0:
243,36,60564,2,0,L|237:132,1,86.2500016450882,14|0,0:0|0:0,0:0:0:0:
134,133,61033,2,0,L|142:227,1,86.2500016450882,2|0,0:0|0:0,0:0:0:0:
130,322,61502,1,14,0:0:0:0:
33,285,61736,1,2,0:0:0:0:
36,259,61853,1,0,0:0:0:0:
39,233,61971,5,2,0:0:0:0:
141,218,62205,1,0,0:0:0:0:
243,202,62439,1,12,0:0:0:0:
345,185,62674,1,0,0:0:0:0:
400,97,62908,2,0,L|409:11,1,86.2500016450882,10|2,0:0|0:0,0:0:0:0:
503,56,63377,2,0,L|491:141,1,86.2500016450882,14|0,0:0|0:0,0:0:0:0:
430,226,63846,6,0,L|440:326,1,86.2500016450882,2|0,0:0|0:0,0:0:0:0:
349,364,64314,2,0,P|301:373|246:349,1,86.2500016450882,14|2,0:0|0:0,0:0:0:0:
162,351,64783,21,10,0:0:0:0:
143,249,65017,1,10,0:0:0:0:
126,146,65252,1,6,0:0:0:0:
211,87,65486,2,0,L|207:135,1,43.1250008225441,10|0,0:0|0:0,0:0:0:0:
257,144,65721,6,0,L|266:248,1,86.2500016450882,6|0,0:0|0:0,0:0:0:0:
307,323,66189,1,14,0:0:0:0:
409,338,66424,1,0,0:0:0:0:
343,258,66658,1,2,0:0:0:0:
445,273,66892,1,2,0:0:0:0:
378,193,67127,2,0,B|380:132|380:132|393:99,1,86.2500016450882,14|8,0:0|0:0,0:0:0:0:
322,29,67596,6,0,B|320:90|320:90|307:123,1,86.2500016450882,2|0,0:0|0:0,0:0:0:0:
207,117,68064,2,0,P|164:128|112:104,1,86.2500016450882,14|0,0:0|0:0,0:0:0:0:
42,52,68533,2,0,L|50:142,1,86.2500016450882,2|2,0:0|0:0,0:0:0:0:
1,230,69002,2,0,L|9:320,1,86.2500016450882,14|8,0:0|0:0,0:0:0:0:
108,343,69471,5,2,0:0:0:0:
210,333,69705,1,0,0:0:0:0:
312,323,69939,1,12,0:0:0:0:
415,313,70174,1,0,0:0:0:0:
484,236,70408,2,0,B|478:171|478:171|483:132,1,86.2500016450882,10|2,0:0|0:0,0:0:0:0:
404,79,70877,2,0,B|409:143|409:143|406:164,1,86.2500016450882,14|2,0:0|0:0,0:0:0:0:
326,181,71346,6,0,L|322:257,1,67.4999979400635,10|0,0:0|0:0,0:0:0:0:
248,215,71814,2,0,L|251:147,1,67.4999979400635,4|0,0:0|0:0,0:0:0:0:
177,113,72283,2,0,L|173:189,1,67.4999979400635,2|8,0:0|0:0,0:0:0:0:
110,231,72752,1,6,0:0:0:0:
110,231,72986,1,10,0:0:0:0:
25,380,73221,6,0,L|27:293,1,86.2500016450882,2|0,0:0|0:0,0:0:0:0:
111,231,73689,1,14,0:0:0:0:
36,158,73924,2,0,L|31:111,1,43.1250008225441,2|0,0:0|0:0,0:0:0:0:
56,69,74158,2,0,P|102:79|140:69,1,86.2500016450882,2|2,0:0|0:0,0:0:0:0:
237,35,74627,2,0,P|281:25|337:48,1,86.2500016450882,14|8,0:0|0:0,0:0:0:0:
408,90,75096,6,0,L|403:184,1,86.2500016450882,2|2,0:0|0:0,0:0:0:0:
495,222,75564,2,0,L|490:309,1,86.2500016450882,14|0,0:0|0:0,0:0:0:0:
401,362,76033,1,2,0:0:0:0:
301,334,76267,2,0,B|298:320|298:320|306:268|306:268|304:249,1,86.2500016450882,0|14,0:0|0:0,0:0:0:0:
322,146,76736,1,2,0:0:0:0:
318,120,76853,1,8,0:0:0:0:
315,94,76971,5,2,0:0:0:0:
211,87,77205,1,0,0:0:0:0:
107,78,77439,1,12,0:0:0:0:
3,68,77674,1,0,0:0:0:0:
50,161,77908,2,0,L|55:248,1,86.2500016450882,10|0,0:0|0:0,0:0:0:0:
120,327,78377,1,14,0:0:0:0:
197,258,78611,2,0,L|200:209,1,43.1250008225441,0|0,0:0|0:0,0:0:0:0:
174,169,78846,6,0,P|223:178|281:156,1,86.2500016450882,10|0,0:0|0:0,0:0:0:0:
344,112,79314,2,0,P|388:101|431:115,1,86.2500016450882,6|2,0:0|0:0,0:0:0:0:
485,26,79783,2,0,P|452:96|499:176,1,172.500003290176,8|2,0:0|0:0,0:0:0:0:
419,337,80721,22,0,P|357:304|273:333,1,150,0|8,0:0|0:0,0:0:0:0:
103,329,81658,2,0,L|29:320,1,75,0|0,0:0|0:0,0:0:0:0:
79,245,82127,2,0,L|153:254,1,75,8|0,0:0|0:0,0:0:0:0:
226,201,82596,6,0,P|259:136|213:62,1,150,0|8,0:0|0:0,0:0:0:0:
48,57,83533,2,0,B|130:60,1,75,0|0,0:0|0:0,0:0:0:0:
73,135,84002,2,0,L|154:137,1,75,8|0,0:0|0:0,0:0:0:0:
227,93,84471,6,0,B|302:106|302:106|398:89,1,150,0|8,0:0|0:0,0:0:0:0:
410,269,85408,2,0,L|415:190,1,75,0|0,0:0|0:0,0:0:0:0:
478,129,85877,2,0,L|482:52,1,75,8|0,0:0|0:0,0:0:0:0:
403,9,86346,6,0,L|399:87,1,75,2|0,0:0|0:0,0:0:0:0:
342,153,86814,2,0,L|337:229,1,75,2|0,0:0|0:0,0:0:0:0:
292,306,87283,2,0,P|234:320|181:301,1,112.5,10|0,0:0|0:0,0:0:0:0:
159,266,87752,2,0,P|120:257|83:268,1,75,0|0,0:0|0:0,0:0:0:0:
1,295,88221,22,0,P|72:260|77:187,1,150,10|0,0:0|0:0,0:0:0:0:
35,117,88924,1,0,0:0:0:0:
103,59,89158,2,0,P|179:36|238:72,1,150,10|0,0:0|0:0,0:0:0:0:
320,101,89861,1,0,0:0:0:0:
249,157,90096,6,0,L|243:247,1,75,2|0,0:0|0:0,0:0:0:0:
277,261,90447,2,0,B|283:348,1,75,2|0,0:0|0:0,0:0:0:0:
319,361,90799,1,2,0:0:0:0:
408,358,91033,2,0,L|456:355,3,37.5,0|0|0|0,0:0|0:0|0:0|0:0,0:0:0:0:
486,336,91502,2,0,P|493:296|470:251,1,75,8|0,0:0|0:0,0:0:0:0:
448,180,91971,6,0,B|454:94,1,75,10|0,0:0|0:0,0:0:0:0:
381,51,92439,2,0,B|374:153,1,75,8|0,0:0|0:0,0:0:0:0:
286,110,92908,2,0,B|294:200,1,75,8|0,0:0|0:0,0:0:0:0:
203,198,93377,2,0,L|226:289,1,75,8|0,0:0|0:0,0:0:0:0:
302,310,93846,6,0,P|230:357|160:335,1,150,2|10,0:0|0:0,0:0:0:0:
91,303,94549,1,0,0:0:0:0:
37,230,94783,2,0,L|47:188,5,25,2|2|2|8|8|8,0:0|0:0|0:0|0:0|0:0|0:0,0:0:0:0:
38,175,95252,21,0,0:0:0:0:
125,153,95486,1,0,0:0:0:0:
213,132,95721,2,0,P|251:142|315:124,2,86.2500016450882,6|0|6,0:0|0:0|0:0,0:0:0:0:
130,68,96424,1,0,0:0:0:0:
216,10,96658,2,0,P|258:2|299:12,1,86.2500016450882,2|2,0:0|0:0,0:0:0:0:
384,71,97127,2,0,P|425:80|467:72,1,86.2500016450882,6|2,0:0|0:0,0:0:0:0:
507,167,97596,6,0,L|500:253,1,86.2500016450882,2|0,0:0|0:0,0:0:0:0:
411,305,98064,2,0,L|417:218,1,86.2500016450882,4|0,0:0|0:0,0:0:0:0:
321,177,98533,2,0,P|277:166|214:187,1,86.2500016450882,2|0,0:0|0:0,0:0:0:0:
167,250,99002,1,6,0:0:0:0:
90,180,99236,1,2,0:0:0:0:
110,78,99471,5,2,0:0:0:0:
207,42,99705,2,0,L|259:39,2,43.1250008225441,0|2|6,0:0|0:0|0:0,0:0:0:0:
308,65,100174,2,0,L|361:60,2,43.1250008225441,0|2|2,0:0|0:0|0:0,0:0:0:0:
410,74,100642,1,0,0:0:0:0:
456,167,100877,2,0,L|381:159,3,43.1250008225441,6|0|2|2,0:0|0:0|0:0|0:0,0:0:0:0:
385,206,101346,6,0,L|331:211,3,43.1250008225441,2|0|2|2,0:0|0:0|0:0|0:0,0:0:0:0:
308,170,101814,2,0,L|255:165,3,43.1250008225441,6|0|2|2,0:0|0:0|0:0|0:0,0:0:0:0:
218,143,102283,2,0,P|176:132|134:141,1,86.2500016450882,2|0,0:0|0:0,0:0:0:0:
134,244,102752,2,0,P|175:254|216:241,1,86.2500016450882,6|2,0:0|0:0,0:0:0:0:
308,287,103221,21,2,0:0:0:0:
411,287,103455,1,2,0:0:0:0:
488,219,103689,2,0,L|481:115,1,86.2500016450882,6|0,0:0|0:0,0:0:0:0:
423,47,104158,1,2,0:0:0:0:
326,84,104392,1,2,0:0:0:0:
234,34,104627,2,0,L|229:153,1,86.2500016450882,6|0,0:0|0:0,0:0:0:0:
131,152,105096,5,2,0:0:0:0:
63,230,105330,1,2,0:0:0:0:
121,315,105564,1,6,0:0:0:0:
216,356,105799,2,0,L|273:353,1,43.1250008225441,2|2,0:0|0:0,0:0:0:0:
306,334,106033,5,2,0:0:0:0:
380,262,106267,1,2,0:0:0:0:
371,158,106502,1,6,0:0:0:0:
286,98,106736,2,0,L|231:104,1,43.1250008225441,0|0,0:0|0:0,0:0:0:0:
199,74,106971,6,0,P|158:64|103:84,1,86.2500016450882,2|0,0:0|0:0,0:0:0:0:
29,131,107439,2,0,L|36:231,1,86.2500016450882,6|2,0:0|0:0,0:0:0:0:
91,304,107908,2,0,L|132:314,3,43.1250008225441,2|0|2|2,0:0|0:0|0:0|0:0,0:0:0:0:
181,295,108377,2,0,L|222:285,3,43.1250008225441,6|0|2|2,0:0|0:0|0:0|0:0,0:0:0:0:
245,237,108846,21,2,0:0:0:0:
246,133,109080,1,0,0:0:0:0:
311,52,109314,1,6,0:0:0:0:
414,39,109549,1,2,0:0:0:0:
498,98,109783,2,0,P|459:174|515:248,1,172.500003290176,2|4,0:0|0:0,0:0:0:0:
256,192,116346,12,10,117283,0:0:0:0:
256,192,117752,5,0,0:0:0:0:
256,192,117986,1,8,0:0:0:0:
350,150,118221,6,0,L|346:248,1,86.2500016450882,6|0,0:0|0:0,0:0:0:0:
299,328,118689,1,14,0:0:0:0:
195,330,118924,2,0,L|149:324,1,43.1250008225441,2|0,0:0|0:0,0:0:0:0:
115,360,119158,2,0,L|112:242,1,86.2500016450882,2|0,0:0|0:0,0:0:0:0:
33,206,119627,2,0,P|23:164|46:108,1,86.2500016450882,14|8,0:0|0:0,0:0:0:0:
106,48,120096,5,2,0:0:0:0:
195,100,120330,1,2,0:0:0:0:
283,46,120564,1,14,0:0:0:0:
374,94,120799,1,0,0:0:0:0:
460,150,121033,2,0,B|457:244,1,86.2500016450882,2|0,0:0|0:0,0:0:0:0:
406,326,121502,1,14,0:0:0:0:
304,308,121736,1,10,0:0:0:0:
278,311,121853,1,0,0:0:0:0:
252,314,121971,21,2,0:0:0:0:
245,210,122205,1,0,0:0:0:0:
238,106,122439,1,12,0:0:0:0:
231,2,122674,1,0,0:0:0:0:
136,43,122908,2,0,P|93:34|41:50,1,86.2500016450882,10|2,0:0|0:0,0:0:0:0:
1,134,123377,2,0,L|4:239,1,86.2500016450882,14|0,0:0|0:0,0:0:0:0:
93,271,123846,6,0,L|97:177,1,86.2500016450882,2|0,0:0|0:0,0:0:0:0:
191,144,124314,2,0,P|234:135|278:146,1,86.2500016450882,14|2,0:0|0:0,0:0:0:0:
375,118,124783,5,10,0:0:0:0:
366,220,125017,1,10,0:0:0:0:
358,323,125252,1,6,0:0:0:0:
461,328,125486,2,0,L|459:284,1,43.1250008225441,10|0,0:0|0:0,0:0:0:0:
499,252,125721,38,0,P|510:207|486:150,1,86.2500016450882,6|0,0:0|0:0,0:0:0:0:
458,74,126189,1,14,0:0:0:0:
354,83,126424,1,0,0:0:0:0:
426,9,126658,1,2,0:0:0:0:
323,18,126892,1,0,0:0:0:0:
239,79,127127,2,0,L|244:171,1,86.2500016450882,14|8,0:0|0:0,0:0:0:0:
315,239,127596,6,0,L|309:348,1,86.2500016450882,2|0,0:0|0:0,0:0:0:0:
210,350,128064,2,0,L|205:242,1,86.2500016450882,14|0,0:0|0:0,0:0:0:0:
133,189,128533,2,0,L|130:93,1,86.2500016450882,2|0,0:0|0:0,0:0:0:0:
40,154,129002,2,0,L|43:242,1,86.2500016450882,14|8,0:0|0:0,0:0:0:0:
95,329,129471,5,2,0:0:0:0:
197,318,129705,1,0,0:0:0:0:
299,308,129939,1,12,0:0:0:0:
402,297,130174,1,0,0:0:0:0:
498,334,130408,2,0,L|503:239,1,86.2500016450882,10|0,0:0|0:0,0:0:0:0:
423,181,130877,2,0,P|410:135|439:80,1,86.2500016450882,14|0,0:0|0:0,0:0:0:0:
372,34,131346,22,0,L|301:42,1,67.4999979400635,10|0,0:0|0:0,0:0:0:0:
285,119,131814,2,0,L|217:127,1,67.4999979400635,4|0,0:0|0:0,0:0:0:0:
197,205,132283,2,0,L|124:213,1,67.4999979400635,2|8,0:0|0:0,0:0:0:0:
114,292,132752,1,6,0:0:0:0:
114,292,132986,1,10,0:0:0:0:
293,341,133221,6,2,L|207:337,1,86.2500016450882
114,292,133689,1,14,0:0:0:0:
10,294,133924,2,0,L|15:252,1,43.1250008225441,2|2,0:0|0:0,0:0:0:0:
44,208,134158,2,0,P|30:168|43:123,1,86.2500016450882,0|2,0:0|0:0,0:0:0:0:
118,57,134627,2,0,L|213:71,1,86.2500016450882,14|8,0:0|0:0,0:0:0:0:
307,69,135096,6,0,L|404:55,2,86.2500016450882,2|2|14,0:0|0:0|0:0,0:0:0:0:
256,159,135799,1,0,0:0:0:0:
256,262,136033,2,0,P|244:300|269:358,1,86.2500016450882,2|0,0:0|0:0,0:0:0:0:
355,375,136502,1,14,0:0:0:0:
454,348,136736,1,10,0:0:0:0:
457,322,136853,1,0,0:0:0:0:
461,296,136971,5,2,0:0:0:0:
415,203,137205,1,0,0:0:0:0:
369,110,137439,1,12,0:0:0:0:
323,16,137674,1,0,0:0:0:0:
223,45,137908,2,0,B|158:49|158:49|136:41,2,86.2500016450882,10|2|14,0:0|0:0|0:0,0:0:0:0:
323,16,138611,2,0,L|366:17,1,43.1250008225441
414,37,138846,6,0,L|409:141,1,86.2500016450882,10|0,0:0|0:0,0:0:0:0:
326,184,139314,2,0,L|321:296,1,86.2500016450882,6|2,0:0|0:0,0:0:0:0:
226,310,139783,2,0,P|174:359|134:281,1,172.500003290176,8|2,0:0|0:0,0:0:0:0:
