osu file format v14

[General]
AudioFilename: M2U -Masquerade.mp3
AudioLeadIn: 0
PreviewTime: 49783
Countdown: 0
SampleSet: Normal
StackLeniency: 0.3
Mode: 0
LetterboxInBreaks: 1
WidescreenStoryboard: 0

[Editor]
Bookmarks: 35721
DistanceSpacing: 1.2
BeatDivisor: 8
GridSize: 4
TimelineZoom: 2.3

[Metadata]
Title:Masquerade
TitleUnicode:Masquerade
Artist:M2U
ArtistUnicode:M2U
Creator:Melt
Version:Extra
Source:Cytus
Tags:wantuole Zweib OnosakiHito Cocytus Lambda Chapter VIII ANOTHER ME
BeatmapID:356030
BeatmapSetID:124857

[Difficulty]
HPDrainRate:6
CircleSize:3
OverallDifficulty:8
ApproachRate:9.3
SliderMultiplier:2.8
SliderTickRate:1

[Events]
//Background and Video events
0,0,"bg.jpg",0,0
//Break Periods
2,110721,115792
//Storyboard Layer 0 (Background)
//Storyboard Layer 1 (Fail)
//Storyboard Layer 2 (Pass)
//Storyboard Layer 3 (Foreground)
//Storyboard Sound Samples

[TimingPoints]
96,468.75,4,1,2,50,1,0
1267,-133.333333333333,4,2,2,40,0,0
1502,-133.333333333333,4,1,2,50,0,0
1971,-100,4,1,2,50,0,0
16033,-80,4,1,2,50,0,0
16502,-133.333333333333,4,1,2,50,0,0
16971,-100,4,1,2,50,0,0
20721,-111.111111111111,4,1,2,45,0,0
21424,-86.9565217391304,4,1,2,45,0,0
22127,-71.4285714285714,4,1,2,45,0,0
22596,-111.111111111111,4,1,2,45,0,0
23299,-86.9565217391304,4,1,2,45,0,0
24471,-111.111111111111,4,1,2,45,0,0
25174,-86.9565217391304,4,1,2,45,0,0
26346,-111.111111111111,4,1,2,45,0,0
26814,-86.9565217391304,4,1,2,45,0,0
27517,-71.4285714285714,4,1,2,45,0,0
28221,-111.111111111111,4,1,2,45,0,0
28689,-86.9565217391304,4,1,2,45,0,0
29158,-111.111111111111,4,1,2,45,0,0
29627,-86.9565217391304,4,1,2,45,0,0
31502,-71.4285714285714,4,1,2,45,0,0
31971,-86.9565217391304,4,1,2,45,0,0
33846,-86.9565217391304,4,1,2,50,0,0
35721,-86.9565217391304,4,1,2,60,0,0
40408,-100,4,1,2,60,0,0
40877,-86.9565217391304,4,1,2,60,0,0
43221,-100,4,1,2,60,0,0
43689,-71.4285714285714,4,1,2,60,0,0
44627,-86.9565217391304,4,1,2,60,0,0
47908,-71.4285714285714,4,1,2,60,0,0
48377,-86.9565217391304,4,1,2,60,0,0
50721,-74.0740740740741,4,1,2,60,0,1
56346,-133.333333333333,4,2,2,60,0,1
57517,-74.0740740740741,4,1,2,60,0,1
57752,-62.5,4,2,2,60,0,1
58221,-74.0740740740741,4,1,2,60,0,1
65662,-80,4,1,2,60,0,0
65721,-74.0740740740741,4,1,2,60,0,1
71814,-133.333333333333,4,2,2,60,0,1
72517,-74.0740740740741,4,1,2,60,0,1
72752,-62.5,4,2,2,60,0,1
73221,-74.0740740740741,4,1,2,60,0,1
80486,-133.333333333333,4,1,2,35,0,0
82590,-100,4,1,2,40,0,0
83533,-133.333333333333,4,1,2,40,0,0
84471,-100,4,1,2,45,0,0
85408,-133.333333333333,4,1,2,45,0,0
86346,-100,4,1,2,45,0,0
88221,-74.0740740740741,4,1,2,45,0,0
91971,-100,4,1,2,35,0,0
93611,-133.333333333333,4,1,2,45,0,0
95721,-80,4,1,2,60,0,0
110721,-80,4,1,2,60,0,0
116346,-133.333333333333,4,1,2,60,0,0
117517,-58.8235294117647,4,1,2,60,0,0
118221,-74.0740740740741,4,1,2,60,0,1
125662,-86.9565217391304,4,1,2,60,0,0
125721,-74.0740740740741,4,1,2,60,0,1
131346,-133.333333333333,4,1,2,60,0,1
132517,-58.8235294117647,4,1,2,60,0,1
133221,-74.0740740740741,4,1,2,60,0,1
140252,-86.9565217391304,4,1,2,60,0,0

[Colours]
Combo1 : 217,0,0
Combo2 : 155,198,255
Combo3 : 205,254,173
Combo4 : 194,135,135
Combo5 : 255,199,142

[HitObjects]
56,304,1267,6,0,L|20:309,2,35.0000013351441,0|0|0,0:0|0:0|0:0,0:0:0:0:
144,280,1502,2,0,P|200:304|304:272,1,157.500006008148,12|0,0:0|0:0,0:0:0:0:
466,277,1971,6,0,P|428:212|364:180,1,140,4|0,0:0|0:0,0:0:0:0:
312,24,2322,1,0,0:0:0:0:
168,160,2439,2,0,P|248:149|304:88,1,140,12|0,0:0|0:0,0:0:0:0:
109,43,2791,1,0,0:0:0:0:
12,116,2908,2,0,L|4:188,1,70,4|0,0:0|0:0,0:0:0:0:
82,324,3142,2,0,L|90:252,1,70,0|0,0:0|0:0,0:0:0:0:
320,264,3377,2,0,P|232:264|179:218,1,140,12|0,0:0|0:0,0:0:0:0:
320,264,3728,1,0,0:0:0:0:
432,243,3846,6,0,L|415:317,1,70,4|0,0:0|0:0,0:0:0:0:
391,141,4080,2,0,L|407:93,2,35,0|0|0,0:0|0:0|0:0,0:0:0:0:
280,168,4314,2,0,P|280:112|236:28,1,140,12|0,0:0|0:0,0:0:0:0:
280,168,4666,1,0,0:0:0:0:
174,255,4783,2,0,L|178:331,1,70,4|0,0:0|0:0,0:0:0:0:
48,316,5017,2,0,L|41:354,2,35
20,204,5252,2,0,P|104:188|148:140,1,140,12|0,0:0|0:0,0:0:0:0:
288,220,5603,1,0,0:0:0:0:
408,272,5721,6,0,L|400:200,1,70,4|0,0:0|0:0,0:0:0:0:
488,112,5955,2,0,L|480:56,2,35,0|0|0,0:0|0:0|0:0,0:0:0:0:
368,72,6189,2,0,P|311:24|248:16,1,140,12|0,0:0|0:0,0:0:0:0:
312,200,6541,1,0,0:0:0:0:
232,288,6658,2,0,L|136:296,1,70,4|0,0:0|0:0,0:0:0:0:
52,316,6892,2,0,L|40:352,2,35,0|0|0,0:0|0:0|0:0,0:0:0:0:
40,136,7126,2,0,P|120:200|168:192,1,140,12|0,0:0|0:0,0:0:0:0:
256,112,7478,1,0,0:0:0:0:
480,160,7596,22,0,P|448:146|384:136,1,70,4|0,0:0|0:0,0:0:0:0:
332,248,7830,2,0,L|300:288,2,35
444,312,8064,2,0,P|448:200|428:168,1,140,12|0,0:0|0:0,0:0:0:0:
408,56,8416,1,0,0:0:0:0:
228,85,8533,2,0,L|304:56,1,70,4|0,0:0|0:0,0:0:0:0:
96,48,8767,2,0,L|8:40,1,70,0|0,0:0|0:0,0:0:0:0:
128,168,9002,2,0,P|136:256|176:304,1,140,12|0,0:0|0:0,0:0:0:0:
288,336,9314,1,2,0:0:0:0:
288,336,9392,1,2,0:0:0:0:
288,336,9471,6,0,P|200:336|144:384,1,140,4|0,0:0|0:0,0:0:0:0:
440,376,9939,1,12,0:0:0:0:
68,140,10174,1,0,0:0:0:0:
162,79,10291,1,0,0:0:0:0:
168,192,10408,2,0,L|152:264,1,70,4|0,0:0|0:0,0:0:0:0:
264,128,10642,2,0,L|257:58,1,70,0|0,0:0|0:0,0:0:0:0:
274,244,10877,2,0,P|330:224|434:252,1,140,12|0,0:0|0:0,0:0:0:0:
480,361,11228,1,0,0:0:0:0:
344,356,11346,6,0,P|268:380|192:356,1,140,4|0,0:0|0:0,0:0:0:0:
52,44,11814,2,0,P|128:20|204:44,1,140,12|0,0:0|0:0,0:0:0:0:
328,48,12166,1,0,0:0:0:0:
480,112,12283,2,0,L|392:152,1,70,4|0,0:0|0:0,0:0:0:0:
224,192,12517,2,0,L|296:208,1,70,0|0,0:0|0:0,0:0:0:0:
507,268,12752,2,0,P|437:264|368:304,1,140,12|0,0:0|0:0,0:0:0:0:
253,369,13103,1,0,0:0:0:0:
80,300,13221,6,0,P|166:311|238:263,1,140,4|0,0:0|0:0,0:0:0:0:
344,48,13689,2,0,P|324:121|368:196,1,140,12|0,0:0|0:0,0:0:0:0:
458,110,14041,1,0,0:0:0:0:
344,48,14158,2,0,P|256:32|200:60,1,140,4|0,0:0|0:0,0:0:0:0:
346,157,14510,1,0,0:0:0:0:
432,248,14627,2,0,P|360:278|272:254,1,140,12|0,0:0|0:0,0:0:0:0:
80,192,15096,22,0,P|184:168|160:80,1,210,4|0,0:0|0:0,0:0:0:0:
80,192,15564,2,0,P|150:218|230:188,1,140,12|0,0:0|0:0,0:0:0:0:
80,192,15916,1,0,0:0:0:0:
190,295,16033,6,0,L|206:399,1,87.5,4|0,0:0|0:0,0:0:0:0:
320,296,16267,2,0,P|326:249|336:204,1,87.5,0|0,0:0|0:0,0:0:0:0:
472,216,16502,2,0,L|484:256,6,26.2500010013581,12|0|0|0|0|0|0,0:0|0:0|0:0|0:0|0:0|0:0|0:0,0:0:0:0:
456,112,16971,6,0,P|360:128|304:112,1,140,4|0,0:2|0:0,0:0:0:0:
0,216,17439,1,8,0:0:0:0:
452,270,17674,1,0,0:0:0:0:
352,368,17791,1,0,0:0:0:0:
212,359,17908,2,0,P|148:303|140:239,2,140,0|0|8,0:0|0:0|0:0,0:0:0:0:
328,48,18611,1,0,0:0:0:0:
64,296,18846,5,0,0:0:0:0:
501,201,19080,1,0,0:0:0:0:
168,96,19314,1,8,0:0:0:0:
314,364,19549,1,0,0:0:0:0:
256,16,19783,2,0,P|280:96|264:160,1,140,0|0,0:0|0:0,0:0:0:0:
240,312,20135,1,0,0:0:0:0:
128,240,20252,2,0,P|200:184|336:216,1,210,8|0,0:0|0:0,0:0:0:0:
488,344,20721,22,0,P|436:336|376:320,1,83.9999974365235,4|0,0:2|0:0,0:0:0:0:
260,360,20955,2,0,P|300:320|316:272,1,83.9999974365235,0|0,0:0|0:0,0:0:0:0:
180,192,21189,2,0,P|180:240|196:280,1,83.9999974365235,8|0,0:0|0:0,0:0:0:0:
64,180,21424,5,0,0:0:0:0:
127,92,21541,1,0,0:0:0:0:
236,100,21658,2,0,P|276:116|340:108,1,80.5000015354157,0|0,0:0|0:0,0:0:0:0:
504,80,21892,2,0,P|456:88|404:128,1,80.5000015354157,0|0,0:0|0:0,0:0:0:0:
488,284,22127,6,0,L|496:164,1,97.9999970092775,8|0,0:0|0:0,0:0:0:0:
320,64,22361,2,0,L|336:168,1,97.9999970092775,0|0,0:0|0:0,0:0:0:0:
318,292,22596,6,0,P|266:320|214:314,1,83.9999974365235,0|0,0:0|0:0,0:0:0:0:
53,227,22830,2,0,P|108:246|166:231,1,83.9999974365235
321,134,23064,2,0,P|276:140|235:186,1,83.9999974365235,8|0,0:0|0:0,0:0:0:0:
324,238,23299,21,0,0:0:0:0:
270,354,23416,1,0,0:0:0:0:
231,254,23533,2,0,P|315:255|374:328,1,161.000003070831,0|0,0:0|0:0,0:0:0:0:
512,299,23885,1,0,0:0:0:0:
464,209,24002,2,0,P|388:192|319:251,1,161.000003070831,8|0,0:0|0:0,0:0:0:0:
160,336,24353,1,0,0:0:0:0:
113,190,24471,6,0,P|113:148|127:108,1,83.9999974365235,0|0,0:0|0:0,0:0:0:0:
67,260,24705,2,0,P|56:219|59:177,1,83.9999974365235,0|0,0:0|0:0,0:0:0:0:
42,341,24939,2,0,P|21:304|13:263,1,83.9999974365235,8|0,0:0|0:0,0:0:0:0:
148,230,25174,5,0,0:0:0:0:
161,335,25291,1,0,0:0:0:0:
266,356,25408,2,0,P|311:347|351:305,1,80.5000015354157,0|0,0:0|0:0,0:0:0:0:
409,195,25642,1,0,0:0:0:0:
500,279,25760,1,0,0:0:0:0:
409,195,25877,2,0,L|393:99,1,80.5000015354157,8|0,0:0|0:0,0:0:0:0:
491,33,26111,2,0,L|507:129,1,80.5000015354157,0|2,0:0|0:0,0:0:0:0:
274,158,26346,6,0,P|202:174|162:174,1,83.9999974365235,0|0,0:0|0:0,0:0:0:0:
72,260,26580,2,0,P|136:268|187:257,1,83.9999974365235,0|0,0:0|0:0,0:0:0:0:
0,192,26814,2,0,P|39:260|22:362,1,161.000003070831,8|0,0:0|0:0,0:0:0:0:
165,371,27166,21,0,0:0:0:0:
268,293,27283,2,0,P|308:293|344:313,1,80.5000015354157,0|0,0:0|0:0,0:0:0:0:
512,283,27517,1,0,0:0:0:0:
437,374,27635,1,2,0:0:0:0:
406,224,27752,2,0,L|414:120,1,97.9999970092774,8|0,0:0|0:0,0:0:0:0:
496,8,27986,2,0,P|461:30|392:32,1,97.9999970092775,0|0,0:0|0:0,0:0:0:0:
208,104,28221,6,0,P|265:87|330:101,1,125.999996154785,0|0,0:0|0:0,0:0:0:0:
272,192,28572,1,0,0:0:0:0:
128,168,28689,2,0,P|170:79|152:8,1,161.000003070831,8|0,0:0|0:0,0:0:0:0:
128,168,29041,1,0,0:0:0:0:
16,128,29158,2,0,L|72:280,1,125.999996154785,0|0,0:0|0:0,0:0:0:0:
16,128,29510,1,0,0:0:0:0:
24,360,29627,2,0,P|111:281|167:289,1,161.000003070831,8|0,0:0|0:0,0:0:0:0:
256,208,29978,1,0,0:0:0:0:
312,352,30096,6,0,P|264:328|232:288,1,80.5000015354157,0|0,0:0|0:0,0:0:0:0:
452,296,30330,2,0,L|444:376,1,80.5000015354157,0|0,0:0|0:0,0:0:0:0:
368,196,30564,2,0,L|353:116,1,80.5000015354157,8|0,0:0|0:0,0:0:0:0:
472,32,30799,2,0,P|462:93|440:128,1,80.5000015354157,0|0,0:0|0:0,0:0:0:0:
280,224,31033,2,0,B|344:136|448:272|520:188,1,241.500004606247,0|0,0:0|0:0,0:0:0:0:
272,96,31502,2,0,B|288:72|288:72|296:0,1,97.9999970092774,8|0,0:0|0:0,0:0:0:0:
136,192,31736,2,0,L|112:72,1,97.9999970092774,0|0,0:0|0:0,0:0:0:0:
184,296,31971,6,0,P|105:286|36:326,1,161.000003070831,0|0,0:0|0:0,0:0:0:0:
256,368,32322,1,0,0:0:0:0:
328,296,32439,2,0,P|406:286|475:326,1,161.000003070831,8|0,0:0|0:0,0:0:0:0:
256,368,32791,1,0,0:0:0:0:
105,225,32908,22,0,P|105:173|113:137,1,80.5000015354157,0|0,0:0|0:0,0:0:0:0:
239,168,33142,2,0,P|239:144|231:84,1,80.5000015354157,0|0,0:0|0:0,0:0:0:0:
376,213,33377,2,0,P|376:181|384:117,1,80.5000015354157,8|0,0:0|0:0,0:0:0:0:
512,176,33611,2,0,P|507:127|496:88,1,80.5000015354157,0|0,0:0|0:0,0:0:0:0:
316,300,33846,6,0,P|357:300|412:308,1,80.5000015354157,0|0,0:0|0:0,0:0:0:0:
180,156,34080,2,0,P|136:156|88:168,1,80.5000015354157,0|0,0:0|0:0,0:0:0:0:
320,160,34314,2,0,P|328:128|328:72,1,80.5000015354157,8|0,0:0|0:0,0:0:0:0:
172,296,34549,2,0,P|164:328|164:384,1,80.5000015354157,0|0,0:0|0:0,0:0:0:0:
248,228,34783,6,0,P|160:196|184:60,1,241.500004606247,0|0,0:0|0:0,0:0:0:0:
248,228,35252,2,0,P|128:212|80:228,1,161.000003070831,8|0,0:0|0:0,0:0:0:0:
248,228,35603,1,0,0:0:0:0:
396,200,35721,6,0,P|446:191|479:168,1,80.5000015354157,4|0,0:0|0:0,0:0:0:0:
265,152,35955,2,0,P|247:200|250:240,1,80.5000015354157,0|0,0:0|0:0,0:0:0:0:
361,62,36189,2,0,P|328:22|292:6,1,80.5000015354157,12|0,0:0|0:0,0:0:0:0:
123,61,36424,22,0,P|179:61|219:45,1,80.5000015354157,0|2,0:0|0:0,0:0:0:0:
124,161,36658,2,0,B|92:200|147:273|98:332,2,161.000003070831,4|0|12,0:0|0:0|0:0,0:0:0:0:
495,254,37361,1,0,0:0:0:0:
371,318,37478,1,0,0:0:0:0:
344,176,37596,6,0,P|394:177|434:189,1,80.5000015354157,4|0,0:0|0:0,0:0:0:0:
192,204,37830,2,0,P|142:224|92:228,1,80.5000015354157,0|0,0:0|0:0,0:0:0:0:
272,256,38064,2,0,P|244:172|284:84,1,161.000003070831,12|0,0:0|0:0,0:0:0:0:
435,35,38416,6,0,L|391:29,1,40.2500007677078,2|0,0:0|0:0,0:0:0:0:
328,24,38533,2,0,P|192:40|152:24,1,161.000003070831,4|0,0:0|0:0,0:0:0:0:
92,148,38885,2,0,L|132:164,1,40.2500007677078,2|0,0:0|0:0,0:0:0:0:
192,192,39002,2,0,P|98:220|52:288,1,161.000003070831,12|0,0:0|0:0,0:0:0:0:
307,316,39353,1,0,0:0:0:0:
307,316,39471,6,0,P|283:266|291:218,1,80.5000015354157,4|0,0:0|0:0,0:0:0:0:
445,173,39705,2,0,P|412:237|382:253,1,80.5000015354157,0|0,0:0|0:0,0:0:0:0:
269,104,39939,2,0,P|311:150|346:165,1,80.5000015354157,12|0,0:0|0:0,0:0:0:0:
399,42,40174,21,0,0:0:0:0:
250,2,40291,1,0,0:0:0:0:
115,70,40408,2,0,P|83:134|131:206,1,140,4|0,0:0|0:0,0:0:0:0:
164,317,40760,1,0,0:0:0:0:
164,317,40877,2,0,P|123:331|66:326,1,80.5000015354157,12|0,0:0|0:0,0:0:0:0:
295,349,41111,2,0,P|340:359|390:351,1,80.5000015354157,0|2,0:0|0:0,0:0:0:0:
256,216,41346,6,0,P|244:180|252:112,1,80.5000015354157,4|0,0:0|0:0,0:0:0:0:
364,164,41580,2,0,P|384:129|392:90,1,80.5000015354157,0|0,0:0|0:0,0:0:0:0:
431,260,41814,2,0,P|475:262|517:287,1,80.5000015354157,12|0,0:0|0:0,0:0:0:0:
376,360,42049,5,0,0:0:0:0:
256,333,42166,1,0,0:0:0:0:
247,334,42224,1,0,0:0:0:0:
238,336,42283,1,4,0:0:0:0:
80,146,42517,1,0,0:0:0:0:
132,46,42635,1,2,0:0:0:0:
241,67,42752,2,0,P|293:73|343:56,1,80.5000015354157,12|2,0:0|0:0,0:0:0:0:
455,8,42986,2,0,L|447:88,1,80.5000015354157,0|2,0:0|0:0,0:0:0:0:
512,200,43221,6,0,P|432:256|384:248,1,140,4|0,0:0|0:0,0:0:0:0:
192,216,43572,1,0,0:0:0:0:
296,272,43689,2,0,P|408:272|480:352,1,195.999994018555,12|0,0:0|0:0,0:0:0:0:
236,364,44041,1,2,0:0:0:0:
236,364,44099,1,0,0:0:0:0:
236,364,44158,2,0,P|172:380|60:320,1,195.999994018555,4|0,0:0|0:0,0:0:0:0:
16,180,44510,1,0,0:0:0:0:
192,216,44627,2,0,P|228:144|204:48,1,161.000003070831,12|0,0:0|0:0,0:0:0:0:
89,128,44978,1,0,0:0:0:0:
80,256,45096,22,0,B|120:212|192:216|192:216|247:259|328:248,1,241.500004606247,4|2,0:0|0:0,0:0:0:0:
364,152,45564,2,0,P|324:136|260:140,1,80.5000015354157,12|0,0:0|0:0,0:0:0:0:
408,272,45799,2,0,P|446:283|486:287,1,80.5000015354157,0|0,0:0|0:0,0:0:0:0:
349,134,46033,6,0,P|309:118|245:122,1,80.5000015354157,12|0,0:0|0:0,0:0:0:0:
88,60,46267,2,0,P|160:60|180:52,1,80.5000015354157,0|0,0:0|0:0,0:0:0:0:
374,7,46502,2,0,P|324:96|246:117,1,161.000003070831,12|0,0:0|0:0,0:0:0:0:
153,164,46853,1,2,0:0:0:0:
228,240,46971,6,0,P|140:212|68:248,1,161.000003070831,4|0,0:0|0:0,0:0:0:0:
152,336,47322,2,0,L|160:384,1,40.2500007677078
273,363,47439,2,0,P|325:335|345:295,1,80.5000015354157,12|0,0:0|0:0,0:0:0:0:
340,180,47674,2,0,P|322:142|292:116,1,80.5000015354157,0|2,0:0|0:0,0:0:0:0:
368,31,47908,2,0,P|277:64|184:37,1,195.999994018555,4|0,0:0|0:0,0:0:0:0:
88,184,48260,5,2,0:0:0:0:
208,136,48377,1,12,0:0:0:0:
148,244,48494,1,0,0:0:0:0:
280,176,48611,1,0,0:0:0:0:
208,300,48728,1,0,0:0:0:0:
354,212,48846,22,0,P|398:219|435:206,1,80.5000015354157,4|0,0:0|0:0,0:0:0:0:
148,244,49080,2,0,P|104:251|68:238,1,80.5000015354157,0|0,0:0|0:0,0:0:0:0:
265,304,49314,2,0,L|258:391,1,80.5000015354157,12|0,0:0|0:0,0:0:0:0:
239,161,49549,2,0,L|245:64,1,80.5000015354157,0|0,0:0|0:0,0:0:0:0:
375,141,49783,2,0,P|335:105|340:0,1,161.000003070831,4|0,0:0|0:0,0:0:0:0:
504,108,50135,2,0,P|496:132|488:148,1,40.2500007677078
455,198,50252,2,0,P|323:134|229:169,1,241.500004606247,12|0,0:0|0:0,0:0:0:0:
68,188,50721,6,0,P|8:108|16:20,2,189.000000720978,4|0|12,0:0|0:0|0:0,0:0:0:0:
480,176,51424,5,0,0:0:0:0:
454,304,51541,1,0,0:0:0:0:
328,352,51658,1,4,0:0:0:0:
96,227,51892,5,0,0:0:0:0:
212,212,52010,1,0,0:0:0:0:
164,316,52127,1,12,0:0:0:0:
137,68,52361,1,0,0:0:0:0:
164,316,52596,22,0,P|255:318|316:250,1,189.000000720978,4|0,0:0|0:0,0:0:0:0:
408,156,52947,1,0,0:0:0:0:
408,156,53064,2,0,P|356:224|368:328,1,189.000000720978,12|0,0:0|0:0,0:0:0:0:
476,260,53416,1,0,0:0:0:0:
452,84,53533,2,0,P|388:164|308:164,1,189.000000720978,4|0,0:0|0:0,0:0:0:0:
268,12,53885,1,0,0:0:0:0:
452,84,54002,2,0,L|468:196,1,94.5000003604889,12|0,0:0|0:0,0:0:0:0:
312,352,54236,2,0,P|332:292|320:232,1,94.5000003604889,0|0,0:0|0:0,0:0:0:0:
176,120,54471,6,0,P|281:103|357:172,1,189.000000720978,4|0,0:0|0:0,0:0:0:0:
244,224,54822,1,12,0:0:0:0:
124,232,54939,1,2,0:0:0:0:
176,120,55056,1,2,0:0:0:0:
244,224,55174,1,0,0:0:0:0:
124,232,55291,2,0,P|100:208|92:192,1,47.2500001802444
60,148,55408,6,0,P|160:116|216:36,1,189.000000720978,12|0,0:0|0:0,0:0:0:0:
392,88,55760,1,8,0:0:0:0:
472,224,55877,2,0,P|405:215|312:288,1,189.000000720978,12|8,0:0|0:0,0:0:0:0:
432,344,56228,1,8,0:0:0:0:
512,112,56346,21,4,0:0:0:0:
80,308,56580,1,0,0:0:0:0:
360,144,56814,2,0,L|344:208,1,52.5000020027161,8|0,0:0|0:0,0:0:0:0:
208,200,57049,2,0,L|232:264,1,52.5000020027161,0|0,0:0|0:0,0:0:0:0:
328,348,57283,1,0,0:0:0:0:
216,32,57517,1,0,0:0:0:0:
176,248,57752,6,0,P|125:270|69:277,1,112,10|0,0:0|0:0,0:0:0:0:
408,160,57986,2,0,P|347:151|300:129,1,112,2|0,0:0|0:0,0:0:0:0:
512,104,58221,6,0,L|480:208,1,94.5000003604889,4|0,0:0|0:0,0:0:0:0:
368,296,58455,2,0,P|416:304|488:288,1,94.5000003604889,0|0,0:0|0:0,0:0:0:0:
288,216,58689,2,0,P|249:211|184:232,1,94.5000003604889,12|0,0:0|0:0,0:0:0:0:
48,232,58924,5,0,0:0:0:0:
36,353,59041,1,0,0:0:0:0:
151,309,59158,2,0,P|167:181|127:125,1,189.000000720978,4|0,0:0|0:0,0:0:0:0:
168,8,59510,1,0,0:0:0:0:
56,56,59627,2,0,P|112:112|256:104,1,189.000000720978,12|0,0:0|0:0,0:0:0:0:
400,176,59978,1,0,0:0:0:0:
400,176,60096,5,4,0:0:0:0:
432,336,60330,1,0,0:0:0:0:
132,84,60564,1,12,0:0:0:0:
48,320,60799,21,0,0:0:0:0:
24,189,60916,1,2,0:0:0:0:
148,236,61033,1,4,0:0:0:0:
432,152,61267,5,0,0:0:0:0:
503,75,61384,1,0,0:0:0:0:
400,52,61502,1,12,0:0:0:0:
8,90,61736,5,0,0:0:0:0:
72,8,61853,1,8,0:0:0:0:
116,104,61971,2,0,P|132:192|52:272,1,189.000000720978,4|0,0:0|0:0,0:0:0:0:
83,364,62322,5,2,0:0:0:0:
175,311,62439,1,12,0:0:0:0:
291,330,62556,1,2,0:0:0:0:
333,219,62673,1,2,0:0:0:0:
215,198,62791,1,0,0:0:0:0:
119,270,62908,22,0,P|97:228|95:181,1,94.5000003604889,4|0,0:0|0:0,0:0:0:0:
315,127,63142,2,0,P|330:171|332:218,1,94.5000003604889,0|0,0:0|0:0,0:0:0:0:
238,299,63377,2,0,P|334:259|424:290,1,189.000000720978,12|0,0:0|0:0,0:0:0:0:
418,383,63728,1,0,0:0:0:0:
318,354,63846,6,0,P|302:282|358:178,1,189.000000720978,4|0,0:0|0:0,0:0:0:0:
200,216,64197,1,0,0:0:0:0:
200,216,64256,1,2,0:0:0:0:
200,216,64314,2,0,P|88:224|32:152,1,189.000000720978,12|4,0:0|0:0,0:0:0:0:
97,273,64666,1,0,0:0:0:0:
144,120,64783,2,0,P|248:104|312:160,1,189.000000720978,4|0,0:0|0:0,0:0:0:0:
465,233,65135,1,0,0:0:0:0:
336,288,65252,2,0,L|352:96,1,189.000000720978,12|0,0:0|0:0,0:0:0:0:
440,0,65603,1,0,0:0:0:0:
240,32,65721,6,0,L|232:128,1,94.5000003604889,4|0,0:2|0:0,0:0:0:0:
32,208,65955,2,0,P|83:218|168:200,1,94.5000003604889,0|0,0:0|0:0,0:0:0:0:
384,192,66189,2,0,P|280:232|256:320,1,189.000000720978,12|0,0:0|0:0,0:0:0:0:
384,316,66541,1,0,0:0:0:0:
384,192,66658,2,0,P|261:184|205:130,1,189.000000720978,4|0,0:0|0:0,0:0:0:0:
127,9,67010,1,0,0:0:0:0:
48,112,67127,2,0,P|172:129|232:88,1,189.000000720978,12|0,0:0|0:0,0:0:0:0:
392,72,67478,1,0,0:0:0:0:
480,240,67596,6,0,B|492:208|492:208|496:144,1,94.5000003604889,4|0,0:0|0:0,0:0:0:0:
336,296,67830,2,0,L|320:200,1,94.5000003604889,0|0,0:0|0:0,0:0:0:0:
56,256,68064,2,0,P|143:223|232:264,1,189.000000720978,12|0,0:0|0:0,0:0:0:0:
176,128,68416,1,0,0:0:0:0:
312,176,68533,2,0,P|368:224|480:240,1,189.000000720978,4|0,0:0|0:0,0:0:0:0:
360,328,68885,1,0,0:0:0:0:
232,384,69002,2,0,L|240:288,1,94.5000003604889,12|0,0:0|0:0,0:0:0:0:
116,232,69236,2,0,L|132:328,1,94.5000003604889,0|0,0:0|0:0,0:0:0:0:
176,128,69471,2,0,P|125:208|25:223,1,189.000000720978,4|0,0:0|0:0,0:0:0:0:
208,228,69822,21,2,0:0:0:0:
239,39,69939,1,12,0:0:0:0:
66,119,70056,1,2,0:0:0:0:
176,128,70174,1,0,0:0:0:0:
274,167,70291,2,0,L|298:207,1,47.2500001802444,2|2,0:0|0:0,0:0:0:0:
327,248,70408,6,0,P|379:144|459:136,1,189.000000720978,4|0,0:0|0:0,0:0:0:0:
392,328,70760,1,8,0:0:0:0:
428,228,70877,2,0,P|348:156|260:176,1,189.000000720978,12|0,0:0|0:0,0:0:0:0:
144,296,71228,1,8,0:0:0:0:
32,232,71346,38,0,B|220:246,1,189.000000720978,4|0,0:0|0:0,0:0:0:0:
328,288,71697,1,0,0:0:0:0:
416,192,71814,2,0,L|352:160,1,52.5000020027161,8|0,0:0|0:0,0:0:0:0:
512,272,72049,2,0,L|448:280,1,52.5000020027161,0|0,0:0|0:0,0:0:0:0:
512,112,72283,1,0,0:0:0:0:
368,384,72517,1,0,0:0:0:0:
88,132,72752,6,0,P|128:108|204:104,1,112,10|0,0:0|0:0,0:0:0:0:
440,168,72986,2,0,P|400:192|324:196,1,112,10|0,0:0|0:0,0:0:0:0:
176,224,73221,6,0,P|256:240|304:336,1,189.000000720978,4|0,0:0|0:0,0:0:0:0:
28,288,73572,1,0,0:0:0:0:
28,288,73689,2,0,P|52:232|52:184,1,94.5000003604889,12|0,0:0|0:0,0:0:0:0:
240,76,73924,2,0,P|200:92|136:84,1,94.5000003604889,0|0,0:0|0:0,0:0:0:0:
304,160,74158,2,0,P|333:44|412:12,1,189.000000720978,4|0,0:0|0:0,0:0:0:0:
304,160,74510,1,0,0:0:0:0:
416,128,74627,2,0,L|408:232,1,94.5000003604889,12|0,0:0|0:0,0:0:0:0:
272,264,74861,2,0,B|269:297|269:297|280:368,1,94.5000003604889,8|0,0:0|0:0,0:0:0:0:
152,224,75096,6,0,P|136:128|184:32,2,189.000000720978,4|0|12,0:0|0:0|0:0,0:0:0:0:
444,372,75799,5,0,0:0:0:0:
496,272,75916,1,2,0:0:0:0:
344,320,76033,1,4,0:0:0:0:
4,116,76267,21,0,0:0:0:0:
101,45,76385,1,0,0:0:0:0:
152,152,76502,1,12,0:0:0:0:
192,364,76736,5,8,0:0:0:0:
290,320,76853,1,0,0:0:0:0:
200,260,76971,2,0,P|300:264|366:202,1,189.000000720978,4|0,0:0|0:0,0:0:0:0:
424,112,77322,5,0,0:0:0:0:
320,68,77439,1,12,0:0:0:0:
260,164,77556,1,0,0:0:0:0:
362,208,77674,1,0,0:0:0:0:
232,80,77791,1,2,0:0:0:0:
200,260,77908,38,0,P|168:269|76:252,1,94.5000003604889,4|0,0:0|0:0,0:0:0:0:
292,280,78142,2,0,P|356:280|420:292,1,94.5000003604889,8|0,0:0|0:0,0:0:0:0:
228,348,78377,2,0,P|164:380|104:380,1,94.5000003604889,12|0,0:0|0:0,0:0:0:0:
316,368,78611,1,0,0:0:0:0:
424,312,78728,1,0,0:0:0:0:
432,176,78846,22,0,P|416:208|368:248,1,94.5000003604889,4|0,0:0|0:0,0:0:0:0:
120,192,79080,2,0,L|232:176,1,94.5000003604889,0|0,0:0|0:0,0:0:0:0:
304,48,79314,2,0,P|320:96|312:160,1,94.5000003604889,12|0,0:0|0:0,0:0:0:0:
248,312,79549,2,0,P|232:264|240:200,1,94.5000003604889,8|0,0:0|0:0,0:0:0:0:
248,312,79783,2,0,P|152:264|208:128,1,283.500001081467,4|0,0:0|0:0,0:0:0:0:
368,240,80252,5,12,0:0:0:0:
488,72,80721,22,0,P|432:88|360:80,1,105.000004005432,0|0,0:0|0:0,0:0:0:0:
256,36,81072,1,0,0:0:0:0:
256,36,81189,1,8,0:0:0:0:
25,276,81424,1,0,0:0:0:0:
136,176,81658,2,0,P|200:160|264:176,1,105.000004005432,0|0,0:0|0:0,0:0:0:0:
344,208,82010,1,0,0:0:0:0:
344,208,82127,1,8,0:0:0:0:
480,336,82361,1,0,0:0:0:0:
298,365,82596,6,0,P|229:379|146:333,1,140
52,288,82947,1,0,0:0:0:0:
52,288,83064,1,8,0:0:0:0:
432,16,83299,1,0,0:0:0:0:
488,144,83533,2,0,P|464:216|416:256,1,105.000004005432,0|0,0:0|0:0,0:0:0:0:
368,312,83885,1,0,0:0:0:0:
368,312,84002,1,8,0:0:0:0:
184,16,84236,1,0,0:0:0:0:
116,133,84471,6,0,P|183:153|261:124,1,140
372,173,84822,1,0,0:0:0:0:
372,173,84939,1,8,0:0:0:0:
15,300,85174,1,0,0:0:0:0:
180,329,85408,2,0,P|230:315|308:343,1,105.000004005432
417,303,85760,1,0,0:0:0:0:
417,303,85877,1,8,0:0:0:0:
312,160,86111,1,0,0:0:0:0:
352,24,86346,6,0,P|304:120|200:120,1,210,4|0,0:0|0:0,0:0:0:0:
24,200,86814,2,0,P|104:192|168:224,1,140,8|0,0:0|0:0,0:0:0:0:
256,340,87166,1,0,0:0:0:0:
356,268,87283,2,0,P|260:284|212:276,1,140,4|0,0:0|0:0,0:0:0:0:
368,168,87635,1,0,0:0:0:0:
264,240,87752,2,0,P|168:216|120:160,1,140,8|0,0:0|0:0,0:0:0:0:
80,96,88064,1,0,0:0:0:0:
80,96,88142,1,0,0:0:0:0:
80,96,88221,22,0,P|96:208|52:264,1,189.000000720978,4|0,0:0|0:0,0:0:0:0:
128,360,88572,1,0,0:0:0:0:
128,360,88689,1,8,0:0:0:0:
432,364,88924,1,0,0:0:0:0:
128,360,89158,2,0,P|264:312|312:344,1,189.000000720978,4|0,0:0|0:0,0:0:0:0:
384,272,89510,1,0,0:0:0:0:
384,272,89627,1,8,0:0:0:0:
408,28,89861,1,0,0:0:0:0:
384,272,90096,6,0,P|448:232|448:128,1,189.000000720978,4|0,0:0|0:0,0:0:0:0:
184,224,90447,2,0,P|137:164|173:66,1,189.000000720978,4|0,0:0|0:0,0:0:0:0:
304,176,90799,5,0,0:0:0:0:
292,204,90877,1,0,0:0:0:0:
280,232,90955,1,0,0:0:0:0:
268,260,91033,2,0,L|268:364,1,94.5000003604889,4|0,0:0|0:0,0:0:0:0:
144,268,91267,2,0,P|96:284|40:280,1,94.5000003604889,0|0,0:0|0:0,0:0:0:0:
212,184,91502,2,0,B|264:160|304:176|304:176|346:218|424:208,1,189.000000720978,8|0,0:0|0:0,0:0:0:0:
502,135,91853,1,0,0:0:0:0:
384,88,91971,6,0,P|309:68|272:8,1,140,4|0,0:0|0:0,0:0:0:0:
160,80,92322,2,0,P|113:77|72:52,1,70,0|8,0:0|0:0,0:0:0:0:
144,96,92674,1,4,0:0:0:0:
128,112,92908,2,0,P|110:180|96:248,1,140,4|0,0:0|0:0,0:0:0:0:
160,344,93260,1,0,0:0:0:0:
160,344,93377,1,12,0:0:0:0:
296,204,93611,2,0,L|281:141,1,52.5000020027161,0|0,0:0|0:0,0:0:0:0:
420,264,93846,22,0,L|404:213,3,52.5000020027161,4|0|0|0,0:0|0:0|0:0|0:0,0:0:0:0:
475,124,94314,2,0,L|459:64,3,52.5000020027161,12|0|0|2,0:0|0:0|0:0|0:0,0:0:0:0:
368,16,94783,5,4,0:0:0:0:
400,16,94861,1,2,0:0:0:0:
428,32,94939,1,2,0:0:0:0:
444,60,95017,1,0,0:0:0:0:
448,92,95096,1,8,0:0:0:0:
436,120,95174,1,8,0:0:0:0:
416,144,95252,5,12,0:0:0:0:
317,204,95369,1,0,0:0:0:0:
210,158,95486,1,0,0:0:0:0:
137,246,95603,1,0,0:0:0:0:
47,174,95721,6,0,P|106:143|220:163,1,175,4|0,0:0|0:0,0:0:0:0:
279,245,96072,1,0,0:0:0:0:
329,144,96189,2,0,P|241:205|145:176,1,175,12|0,0:0|0:0,0:0:0:0:
216,64,96541,2,0,L|232:120,1,43.75,2|0,0:0|0:0,0:0:0:0:
329,145,96658,2,0,P|409:105|499:142,1,175,4|0,0:0|0:0,0:0:0:0:
490,247,97010,1,0,0:0:0:0:
377,315,97127,1,12,0:0:0:0:
247,272,97244,1,0,0:0:0:0:
364,213,97361,21,0,0:0:0:0:
283,315,97478,1,2,0:0:0:0:
150,314,97596,2,0,P|78:274|62:170,1,175,4|0,0:0|0:0,0:0:0:0:
128,44,97947,1,0,0:0:0:0:
136,56,98064,2,0,L|232:48,1,87.5,12|0,0:0|0:0,0:0:0:0:
393,132,98299,1,0,0:0:0:0:
401,144,98416,2,0,L|345:140,1,43.75,2|0,0:0|0:0,0:0:0:0:
408,156,98533,22,0,P|296:196|288:260,1,175,4|0,0:0|0:0,0:0:0:0:
216,334,98885,1,0,0:0:0:0:
336,368,99002,2,0,L|432:352,1,87.5,12|0,0:0|0:0,0:0:0:0:
286,239,99236,1,0,0:0:0:0:
216,333,99353,1,0,0:0:0:0:
94,343,99471,2,0,P|38:279|46:167,1,175,4|0,0:0|0:0,0:0:0:0:
68,56,99822,1,2,0:0:0:0:
168,152,99939,6,0,P|148:192|136:248,1,87.5,12|0,0:0|0:0,0:0:0:0:
288,176,100174,1,0,0:0:0:0:
264,64,100291,1,2,0:0:0:0:
424,160,100408,22,0,P|416:204|392:256,1,87.5,4|0,0:0|0:0,0:0:0:0:
272,368,100642,1,2,0:0:0:0:
248,256,100760,1,0,0:0:0:0:
132,314,100877,22,0,P|100:328|48:336,1,87.5,12|0,0:0|0:0,0:0:0:0:
380,314,101111,2,0,P|411:328|464:336,1,87.5,0|2,0:0|0:0,0:0:0:0:
234,81,101346,5,12,0:0:0:0:
191,186,101463,1,0,0:0:0:0:
341,219,101581,1,0,0:0:0:0:
345,105,101698,1,2,0:0:0:0:
133,172,101814,21,12,0:0:0:0:
99,280,101931,1,0,0:0:0:0:
250,305,102049,1,0,0:0:0:0:
250,191,102166,1,2,0:0:0:0:
363,323,102283,21,4,0:0:0:0:
389,335,102361,1,2,0:0:0:0:
417,337,102439,1,2,0:0:0:0:
446,335,102517,2,0,B|483:337|512:322|512:322|493:361,1,87.5
456,199,102752,2,0,P|465:153|461:90,1,87.5,12|0,0:0|0:0,0:0:0:0:
310,183,102986,2,0,P|266:180|223:188,1,87.5,0|0,0:0|0:0,0:0:0:0:
48,248,103221,6,0,P|112:176|96:92,1,175,4|0,0:0|0:0,0:0:0:0:
188,8,103572,1,0,0:0:0:0:
256,120,103689,2,0,P|295:144|376:152,1,87.5,12|0,0:0|0:0,0:0:0:0:
452,264,103924,2,0,P|396:288|336:296,1,87.5,0|0,0:0|0:0,0:0:0:0:
120,288,104158,21,4,0:0:0:0:
168,144,104275,2,0,L|160:96,2,43.75,0|0|0,0:0|0:0|0:0,0:0:0:0:
63,192,104510,1,0,0:0:0:0:
224,248,104627,2,0,P|276:253|320:240,1,87.5,12|0,0:0|0:0,0:0:0:0:
337,29,104861,2,0,P|293:24|249:35,1,87.5,0|0,0:0|0:0,0:0:0:0:
416,196,105096,22,0,P|472:196|508:180,1,87.5
300,132,105330,1,0,0:0:0:0:
300,132,105447,1,0,0:0:0:0:
168,192,105564,2,0,P|144:240|156:304,1,87.5,12|0,0:0|0:0,0:0:0:0:
273,263,105799,5,0,0:0:0:0:
300,132,105916,1,2,0:0:0:0:
184,60,106033,2,0,P|128:48|80:52,1,87.5,0|0,0:0|0:0,0:0:0:0:
56,244,106267,2,0,P|128:232|152:220,1,87.5,0|0,0:0|0:0,0:0:0:0:
432,252,106502,2,0,P|344:288|256:248,1,175,12|0,0:0|0:0,0:0:0:0:
157,366,106853,1,0,0:0:0:0:
280,326,106971,22,0,P|368:290|456:330,1,175,4|0,0:0|0:0,0:0:0:0:
480,187,107322,1,2,0:0:0:0:
480,187,107381,1,0,0:0:0:0:
480,187,107439,2,0,P|480:143|456:79,1,87.5,12|0,0:0|0:0,0:0:0:0:
292,108,107674,2,0,P|252:112|205:108,1,87.5,0|2,0:0|0:0,0:0:0:0:
106,262,107908,37,4,0:0:0:0:
131,358,108025,1,0,0:0:0:0:
270,236,108142,37,0,0:0:0:0:
251,341,108260,1,2,0:0:0:0:
446,279,108377,5,12,0:0:0:0:
363,362,108494,1,0,0:0:0:0:
254,300,108611,1,0,0:0:0:0:
285,187,108728,1,2,0:0:0:0:
401,171,108846,6,0,P|404:217|411:271,1,87.5,4|0,0:0|0:0,0:0:0:0:
197,384,109080,2,0,P|190:336|190:296,1,87.5,0|0,0:0|0:0,0:0:0:0:
290,101,109314,2,0,P|290:141|282:197,1,87.5,12|0,0:0|0:0,0:0:0:0:
70,294,109549,2,0,P|54:242|50:202,1,87.5,0|0,0:0|0:0,0:0:0:0:
171,83,109783,2,0,B|229:67|290:100|290:100|337:177|417:171,1,262.5,4|0,0:0|0:0,0:0:0:0:
408,44,110252,1,12,0:0:0:0:
256,192,116346,12,0,117283,0:0:0:0:
332,276,117752,22,0,P|212:312|140:216,1,238.00000453949,12|0,0:0|0:0,0:0:0:0:
96,88,118103,1,0,0:0:0:0:
96,88,118221,6,0,P|48:100|-8:104,1,94.5000003604889,12|0,0:0|0:0,0:0:0:0:
152,192,118455,2,0,P|205:193|264:208,1,94.5000003604889,0|0,0:0|0:0,0:0:0:0:
425,97,118689,2,0,P|378:105|321:113,1,94.5000003604889,12|0,0:0|0:0,0:0:0:0:
403,261,118924,1,0,0:0:0:0:
476,186,119041,1,0,0:0:0:0:
307,210,119158,2,0,P|230:124|250:48,1,189.000000720978,4|0,0:0|0:0,0:0:0:0:
333,111,119510,1,0,0:0:0:0:
402,186,119627,2,0,P|258:162|194:194,1,189.000000720978,12|0,0:0|0:0,0:0:0:0:
32,248,119978,1,0,0:0:0:0:
32,248,120096,5,4,0:0:0:0:
184,8,120330,1,0,0:0:0:0:
138,302,120564,1,12,0:0:0:0:
37,78,120799,5,0,0:0:0:0:
122,152,120916,1,2,0:0:0:0:
208,224,121033,1,4,0:0:0:0:
412,251,121267,21,0,0:0:0:0:
426,137,121385,1,0,0:0:0:0:
440,24,121502,1,12,0:0:0:0:
184,290,121736,5,0,0:0:0:0:
262,384,121853,1,0,0:0:0:0:
312,272,121971,2,0,P|197:281|146:366,1,189.000000720978,4|0,0:0|0:0,0:0:0:0:
32,348,122322,21,2,0:0:0:0:
0,200,122439,1,12,0:0:0:0:
56,304,122556,1,2,0:0:0:0:
100,156,122674,1,0,0:0:0:0:
108,288,122791,1,2,0:0:0:0:
195,205,122908,2,0,P|234:174|267:109,1,94.5000003604889,4|0,0:0|0:0,0:0:0:0:
336,232,123142,2,0,L|320:328,1,94.5000003604889,0|0,0:0|0:0,0:0:0:0:
464,216,123377,2,0,P|352:176|352:112,1,189.000000720978,12|0,0:0|0:0,0:0:0:0:
216,48,123728,1,0,0:0:0:0:
100,156,123846,22,0,P|209:106|288:156,1,189.000000720978,4|0,0:0|0:0,0:0:0:0:
88,248,124197,1,2,0:0:0:0:
88,248,124256,1,0,0:0:0:0:
88,248,124314,2,0,L|112:56,1,189.000000720978,12|4,0:0|0:0,0:0:0:0:
16,176,124666,1,0,0:0:0:0:
16,176,124783,2,0,L|56:368,1,189.000000720978,4|0,0:0|0:0,0:0:0:0:
344,216,125252,2,0,P|248:248|160:208,1,189.000000720978,12|0,0:0|0:0,0:0:0:0:
256,80,125604,1,0,0:0:0:0:
496,176,125721,6,0,L|456:368,1,189.000000720978,4|0,0:0|0:0,0:0:0:0:
256,280,126072,1,0,0:0:0:0:
373,99,126189,2,0,L|352:192,1,94.5000003604889,12|0,0:0|0:0,0:0:0:0:
160,192,126424,2,0,L|136:88,1,94.5000003604889,0|0,0:0|0:0,0:0:0:0:
8,256,126658,2,0,P|98:236|182:276,1,189.000000720978,4|0,0:0|0:0,0:0:0:0:
256,192,127010,1,0,0:0:0:0:
368,288,127127,2,0,L|292:352,1,94.5000003604889,12|0,0:0|0:0,0:0:0:0:
352,104,127361,2,0,L|344:200,1,94.5000003604889,0|0,0:0|0:0,0:0:0:0:
264,40,127596,6,0,P|352:72|479:38,1,189.000000720978,4|0,0:0|0:0,0:0:0:0:
192,120,127947,1,0,0:0:0:0:
192,120,128064,2,0,P|70:105|-8:136,1,189.000000720978,12|0,0:0|0:0,0:0:0:0:
296,160,128416,1,0,0:0:0:0:
296,160,128533,2,0,P|400:176|488:152,1,189.000000720978,4|0,0:0|0:0,0:0:0:0:
220,232,128885,1,0,0:0:0:0:
312,384,129002,2,0,P|314:317|304:272,1,94.5000003604889,12|0,0:0|0:0,0:0:0:0:
40,248,129236,2,0,P|88:256|136:288,1,94.5000003604889,0|0,0:0|0:0,0:0:0:0:
352,152,129471,6,0,P|232:176|168:152,1,189.000000720978,4|0,0:0|0:0,0:0:0:0:
0,128,129822,1,2,0:0:0:0:
0,128,129939,2,0,P|54:109|112:104,1,94.5000003604889,12|2,0:0|0:0,0:0:0:0:
221,36,130174,2,0,P|273:48|336:39,1,94.5000003604889,0|2,0:0|0:0,0:0:0:0:
456,40,130408,2,0,P|413:129|440:240,1,189.000000720978,12|0,0:0|0:0,0:0:0:0:
496,336,130760,1,8,0:0:0:0:
496,336,130877,2,0,P|360:312|304:336,1,189.000000720978,12|8,0:0|0:0,0:0:0:0:
160,316,131229,1,8,0:0:0:0:
160,316,131346,5,4,0:0:0:0:
104,24,131580,1,0,0:0:0:0:
232,80,131814,2,0,L|176:112,1,52.5000020027161,12|0,0:0|0:0,0:0:0:0:
312,192,132049,2,0,L|240:192,1,52.5000020027161,0|0,0:0|0:0,0:0:0:0:
368,88,132283,1,4,0:0:0:0:
79,216,132517,1,0,0:0:0:0:
400,248,132752,6,0,P|344:288|272:288,1,119.000002269745,12|0,0:0|0:0,0:0:0:0:
38,107,132986,2,0,P|97:105|152:128,1,119.000002269745,0|0,0:0|0:0,0:0:0:0:
160,272,133221,6,0,P|192:192|208:232,1,189.000000720978,4|0,0:0|0:0,0:0:0:0:
312,192,133572,1,0,0:0:0:0:
316,52,133689,2,0,P|337:135|439:165,1,189.000000720978,12|0,0:0|0:0,0:0:0:0:
477,290,134041,1,2,0:0:0:0:
344,256,134158,2,0,P|256:296|217:378,1,189.000000720978,4|0,0:0|0:0,0:0:0:0:
184,224,134510,1,0,0:0:0:0:
184,224,134627,2,0,L|190:129,1,94.5000003604889,12|0,0:0|0:0,0:0:0:0:
72,224,134861,2,0,L|67:317,1,94.5000003604889,0|0,0:0|0:0,0:0:0:0:
280,184,135096,6,0,P|188:124|168:40,2,189.000000720978,4|0|12,0:0|0:0|0:0,0:0:0:0:
480,376,135799,5,0,0:0:0:0:
400,272,135916,1,2,0:0:0:0:
456,152,136033,1,4,0:0:0:0:
128,368,136267,21,0,0:0:0:0:
130,253,136385,1,0,0:0:0:0:
228,312,136502,1,12,0:0:0:0:
91,18,136736,5,0,0:0:0:0:
0,99,136853,1,0,0:0:0:0:
117,138,136971,2,0,P|208:159|302:151,1,189.000000720978,4|0,0:0|0:0,0:0:0:0:
416,80,137322,5,2,0:0:0:0:
336,224,137439,1,12,0:0:0:0:
488,136,137556,1,2,0:0:0:0:
336,224,137674,1,0,0:0:0:0:
472,232,137791,1,2,0:0:0:0:
336,224,137908,6,0,P|268:265|244:296,1,94.5000003604889,4|0,0:0|0:0,0:0:0:0:
72,228,138142,2,0,P|148:232|188:208,1,94.5000003604889,8|0,0:0|0:0,0:0:0:0:
252,94,138377,2,0,P|246:160|224:206,1,94.5000003604889,12|0,0:0|0:0,0:0:0:0:
154,41,138611,1,0,0:0:0:0:
274,12,138728,1,0,0:0:0:0:
376,80,138846,38,0,L|472:88,1,94.5000003604889,4|0,0:0|0:0,0:0:0:0:
253,168,139080,2,0,L|159:181,1,94.5000003604889,0|0,0:0|0:0,0:0:0:0:
399,193,139314,2,0,L|495:201,1,94.5000003604889,12|0,0:0|0:0,0:0:0:0:
280,280,139549,2,0,L|168:300,1,94.5000003604889,0|0,0:0|0:0,0:0:0:0:
422,308,139783,2,0,P|509:260|388:204,1,283.500001081467,4|0,0:0|0:0,0:0:0:0:
312,380,140252,5,12,0:0:0:0:
