osu file format v14

[General]
AudioFilename: M2U -Masquerade.mp3
AudioLeadIn: 0
PreviewTime: 49783
Countdown: 0
SampleSet: Soft
StackLeniency: 0.2
Mode: 0
LetterboxInBreaks: 1
WidescreenStoryboard: 0

[Editor]
Bookmarks: 35721
DistanceSpacing: 1.1
BeatDivisor: 4
GridSize: 8
TimelineZoom: 1.7

[Metadata]
Title:Masquerade
TitleUnicode:Masquerade
Artist:M2U
ArtistUnicode:M2U
Creator:Melt
Version:Another
Source:Cytus
Tags:wantuole Zweib OnosakiHito Cocytus Lambda Chapter VIII ANOTHER ME
BeatmapID:329261
BeatmapSetID:124857

[Difficulty]
HPDrainRate:6
CircleSize:4
OverallDifficulty:7
ApproachRate:8.8
SliderMultiplier:1.9
SliderTickRate:1

[Events]
//Background and Video events
0,0,"bg.jpg",0,0
//Break Periods
2,110721,115717
//Storyboard Layer 0 (Background)
//Storyboard Layer 1 (Fail)
//Storyboard Layer 2 (Pass)
//Storyboard Layer 3 (Foreground)
//Storyboard Sound Samples

[TimingPoints]
96,468.75,4,2,1,60,1,0
1971,-100,4,2,1,40,0,0
2205,-100,4,2,1,60,0,0
9236,-100,4,2,1,40,0,0
9471,-100,4,2,4,40,0,1
9588,-100,4,2,1,60,0,0
16033,-80,4,2,2,50,0,0
16502,-125,4,2,2,60,0,0
16971,-100,4,2,1,30,0,0
17205,-100,4,2,1,60,0,0
20252,-133.333333333333,4,2,1,60,0,0
20721,-111.111111111111,4,2,1,50,0,0
21424,-86.9565217391304,4,2,1,50,0,0
22127,-80,4,2,1,50,0,0
22596,-111.111111111111,4,2,1,50,0,0
23299,-86.9565217391304,4,2,1,50,0,0
24471,-111.111111111111,4,2,1,50,0,0
25174,-86.9565217391304,4,2,1,50,0,0
26346,-111.111111111111,4,2,1,50,0,0
26814,-86.9565217391304,4,2,1,50,0,0
27517,-80,4,2,1,50,0,0
27752,-86.9565217391304,4,2,1,50,0,0
28221,-111.111111111111,4,2,1,50,0,0
28689,-86.9565217391304,4,2,1,50,0,0
29158,-111.111111111111,4,2,1,50,0,0
29627,-86.9565217391304,4,2,1,50,0,0
35721,-86.9565217391304,4,2,1,40,0,0
35955,-86.9565217391304,4,2,3,60,0,0
40408,-100,4,2,3,60,0,0
40877,-86.9565217391304,4,2,3,60,0,0
43221,-100,4,2,3,60,0,0
43689,-80,4,2,3,60,0,0
44627,-86.9565217391304,4,2,3,60,0,0
47908,-71.4285714285714,4,2,3,60,0,0
48377,-86.9565217391304,4,2,3,60,0,0
50721,-80,4,2,1,50,0,1
50955,-80,4,2,3,70,0,1
56346,-133.333333333333,4,2,3,70,0,1
57752,-71.4285714285714,4,2,3,70,0,1
58221,-80,4,2,3,70,0,1
64783,-80,4,2,3,75,0,1
65252,-80,4,2,3,80,0,1
65662,-80,4,2,3,70,0,0
65721,-80,4,2,1,50,0,1
65955,-80,4,2,3,70,0,1
71346,-133.333333333333,4,2,3,70,0,1
72752,-71.4285714285714,4,2,3,70,0,1
73221,-80,4,2,3,70,0,1
80252,-100,4,2,4,60,0,0
80721,-100,4,2,1,30,0,0
87283,-100,4,2,2,40,0,0
88221,-80,4,2,2,40,0,0
90096,-100,4,2,2,40,0,0
92439,-100,4,2,1,40,0,0
92908,-100,4,2,2,40,0,0
93377,-100,4,2,1,40,0,0
94783,-100,4,2,2,40,0,0
94842,-100,4,2,2,35,0,0
94900,-100,4,2,2,30,0,0
94959,-100,4,2,2,40,0,0
95252,-100,4,2,3,60,0,0
95721,-86.9565217391304,4,2,1,40,0,0
95955,-86.9565217391304,4,2,3,50,0,0
110721,-86.9565217391304,4,2,1,40,0,0
116346,-86.9565217391304,4,2,3,40,0,0
116814,-86.9565217391304,4,2,3,45,0,0
117283,-86.9565217391304,4,2,3,50,0,0
117517,-86.9565217391304,4,2,3,55,0,0
117752,-71.4285714285714,4,2,3,70,0,0
118221,-74.0740740740741,4,2,1,50,0,1
118455,-74.0740740740741,4,2,3,70,0,1
124783,-74.0740740740741,4,2,3,75,0,1
125252,-74.0740740740741,4,2,3,80,0,1
125662,-86.9565217391304,4,2,3,70,0,0
125721,-74.0740740740741,4,2,1,50,0,1
125955,-74.0740740740741,4,2,3,70,0,1
131346,-117.647058823529,4,2,3,70,0,1
132752,-66.6666666666667,4,2,3,70,0,1
133221,-74.0740740740741,4,2,3,70,0,1
140252,-86.9565217391304,4,2,4,70,0,0

[Colours]
Combo1 : 217,0,0
Combo2 : 155,198,255
Combo3 : 205,254,173
Combo4 : 194,135,135
Combo5 : 255,199,142

[HitObjects]
165,121,1267,6,0,L|158:72,3,31.6666666666667
355,188,1971,6,0,L|260:188,1,95,4|0,0:0|0:0,0:0:0:0:
120,238,2439,2,0,P|143:280|198:302,1,95,0|0,3:0|0:0,0:0:0:0:
323,336,2908,2,0,P|390:329|454:371,1,142.5,0|0,0:0|0:0,0:0:0:0:
451,368,3377,2,0,L|465:267,1,95,0|0,3:0|0:0,0:0:0:0:
375,62,3846,2,0,L|361:163,1,95
236,261,4314,2,0,L|223:163,1,95,0|0,3:0|0:0,0:0:0:0:
150,58,4783,2,0,P|99:107|29:103,1,142.5,0|0,0:0|0:0,0:0:0:0:
31,104,5252,2,0,L|43:198,1,95,0|0,3:0|0:0,0:0:0:0:
99,321,5721,6,0,P|149:322|194:355,1,95,0|0,0:0|0:0,0:0:0:0:
325,345,6189,2,0,P|366:321|413:321,1,95,0|0,3:0|0:0,0:0:0:0:
256,282,6658,2,0,P|228:208|263:149,1,142.5
255,156,7127,2,0,P|276:111|270:60,1,95,0|0,3:0|0:0,0:0:0:0:
308,218,7596,2,0,P|336:258|383:278,1,95
228,233,8064,2,0,P|178:237|137:268,1,95,0|0,3:0|0:0,0:0:0:0:
0,169,8533,2,0,P|71:168|117:118,1,142.5,0|0,0:0|0:0,0:0:0:0:
117,118,9002,2,0,L|224:100,1,95,0|2,3:0|0:0,0:0:0:0:
228,84,9314,1,2,0:0:0:0:
253,84,9392,1,2,0:0:0:0:
273,69,9471,6,0,P|325:80|379:60,1,95,2|0,0:0|0:0,0:0:0:0:
491,14,9939,1,0,3:0:0:0:
512,178,10174,1,0,0:0:0:0:
504,160,10291,1,0,0:0:0:0:
497,142,10408,2,0,L|492:250,1,95
339,203,10877,2,0,L|351:303,1,95,0|0,3:0|0:0,0:0:0:0:
189,361,11346,21,0,0:0:0:0:
351,298,11580,1,0,0:0:0:0:
284,366,11814,1,0,3:0:0:0:
132,283,12049,1,0,0:0:0:0:
146,270,12166,1,0,0:0:0:0:
159,256,12283,2,0,B|49:262,1,95
0,123,12752,2,0,B|94:128,1,95
265,97,13221,6,0,P|257:56|283:-2,2,95,0|0|0,0:0|0:0|3:0,0:0:0:0:
384,181,13924,1,0,0:0:0:0:
380,199,14041,1,0,0:0:0:0:
386,216,14158,2,0,P|403:259|394:305,2,95,0|0|0,0:0|0:0|3:0,0:0:0:0:
483,84,14861,1,0,0:0:0:0:
483,84,15096,6,0,P|418:60|340:84,1,142.5,0|0,0:0|0:0,0:0:0:0:
258,123,15564,2,0,P|185:149|115:123,1,142.5,0|0,3:0|0:0,0:0:0:0:
33,94,16033,22,0,L|41:152,1,59.375,8|0,0:0|0:0,0:0:0:0:
188,63,16267,2,0,L|196:4,1,59.375,8|0,0:0|0:0,0:0:0:0:
353,74,16502,2,0,L|366:157,1,76,8|0,0:0|0:0,0:0:0:0:
511,182,16971,6,0,P|468:198|407:178,1,95,4|0,0:0|0:0,0:0:0:0:
255,250,17439,1,8,0:0:0:0:
463,118,17674,1,0,0:0:0:0:
336,210,17908,2,0,P|347:263|327:304,1,95,0|0,0:0|0:0,0:0:0:0:
68,337,18376,1,8,0:0:0:0:
255,250,18611,1,0,0:0:0:0:
34,251,18846,5,0,0:0:0:0:
34,251,19080,1,0,0:0:0:0:
336,210,19314,1,8,0:0:0:0:
336,210,19549,1,0,0:0:0:0:
224,338,19783,1,0,0:0:0:0:
288,160,20017,2,0,L|280:112,1,47.5,0|0,3:0|3:0,0:0:0:0:
211,186,20252,2,0,L|198:108,1,71.2500027179719,0|0,0:0|0:0,0:0:0:0:
20,79,20721,6,0,P|58:144|121:102,1,170.999994781494,2|8,0:0|0:0,0:0:0:0:
246,24,21424,2,0,L|301:31,1,54.6250010418892,2|0,0:0|0:0,0:0:0:0:
357,83,21658,2,0,P|406:103|476:80,1,109.250002083778,2|0,0:0|0:0,0:0:0:0:
512,262,22127,2,0,L|491:340,1,59.375,10|0,0:0|0:0,0:0:0:0:
381,248,22361,2,0,L|388:326,1,59.375,2|0,0:0|0:0,0:0:0:0:
303,350,22596,6,0,P|237:302|203:364,1,170.999994781494,2|8,0:0|0:0,0:0:0:0:
63,317,23299,2,0,L|70:252,1,54.6250010418892,2|0,0:0|0:0,0:0:0:0:
82,174,23533,2,0,P|132:191|200:167,1,109.250002083778,2|0,0:0|0:0,0:0:0:0:
493,133,24002,2,0,P|443:116|375:140,1,109.250002083778,10|2,0:0|0:0,0:0:0:0:
183,104,24471,22,0,P|132:46|200:8,1,170.999994781494,2|8,0:0|0:0,0:0:0:0:
398,78,25174,2,0,L|340:72,1,54.6250010418892,2|0,0:0|0:0,0:0:0:0:
262,77,25408,2,0,P|260:133|209:183,1,109.250002083778,2|0,0:0|0:0,0:0:0:0:
132,209,25760,1,0,0:0:0:0:
28,279,25877,2,0,L|101:274,1,54.6250010418892,10|0,0:0|0:0,0:0:0:0:
183,342,26111,2,0,L|256:347,1,54.6250010418892,2|2,0:0|0:0,0:0:0:0:
351,314,26346,6,0,P|369:244|433:224,1,128.249996086121,2|0,0:0|0:0,0:0:0:0:
492,184,26814,2,0,P|504:122|482:73,1,109.250002083778,10|2,0:0|0:0,0:0:0:0:
310,82,27283,1,2,0:0:0:0:
90,160,27517,2,0,L|84:101,1,59.375,2|2,0:0|0:0,0:0:0:0:
135,32,27752,2,0,P|197:18|254:44,1,109.250002083778,10|0,0:0|0:0,0:0:0:0:
321,165,28221,6,0,P|316:220|257:270,1,128.249996086121,2|0,0:0|0:0,0:0:0:0:
184,250,28689,2,0,P|133:234|64:266,1,109.250002083778,10|2,0:0|0:0,0:0:0:0:
74,362,29158,2,0,P|141:380|208:352,1,128.249996086121,2|0,0:0|0:0,0:0:0:0:
277,326,29627,2,0,P|322:317|382:342,1,109.250002083778,10|0,0:0|0:0,0:0:0:0:
448,374,29978,1,0,0:0:0:0:
499,315,30096,6,0,P|512:255|483:201,1,109.250002083778,2|2,0:0|0:0,0:0:0:0:
448,7,30564,2,0,P|435:67|464:121,1,109.250002083778,8|2,0:0|0:0,0:0:0:0:
393,197,31033,2,0,P|325:230|229:197,1,163.875003125668,2|0,0:0|0:0,0:0:0:0:
180,164,31502,1,10,0:0:0:0:
19,191,31736,1,2,0:0:0:0:
144,239,31971,22,0,P|97:166|146:89,1,163.875003125668,2|0,0:0|0:0,0:0:0:0:
199,62,32439,2,0,P|243:83|312:71,1,109.250002083778,10|0,0:0|0:0,0:0:0:0:
432,40,32908,2,0,P|391:67|367:133,1,109.250002083778,2|0,0:0|0:0,0:0:0:0:
332,253,33377,2,0,P|328:204|283:150,1,109.250002083778,10|2,0:0|0:0,0:0:0:0:
93,141,33846,21,2,0:0:0:0:
419,141,34080,1,2,0:0:0:0:
148,222,34314,1,8,0:0:0:0:
364,222,34549,1,2,0:0:0:0:
204,292,34783,2,0,P|97:295|63:197,1,218.500004167557,2|8,0:0|0:0,0:0:0:0:
64,63,35486,54,0,L|7:60,1,54.6250010418892
90,80,35721,2,0,B|173:83|173:83|192:56,2,109.250002083778,6|0|6,0:0|0:0|0:0,0:0:0:0:
315,143,36424,2,0,L|385:147,1,54.6250010418892,0|2,0:0|0:0,0:0:0:0:
289,160,36658,2,0,B|266:171|266:171|202:168|202:168|179:181,2,109.250002083778,2|0|4,0:0|0:0|0:0,0:0:0:0:
270,287,37361,2,0,L|340:291,1,54.6250010418892,2|2,0:0|0:0,0:0:0:0:
355,261,37596,6,0,B|378:250|378:250|442:253|442:253|465:240,2,109.250002083778,2|0|6,0:0|0:0|0:0,0:0:0:0:
212,375,38299,2,0,L|156:375,1,54.6250010418892,0|2,0:0|0:0,0:0:0:0:
88,341,38533,2,0,P|108:284|85:231,1,109.250002083778,2|0,0:0|0:0,0:0:0:0:
55,169,38885,1,2,0:0:0:0:
101,105,39002,2,0,P|90:55|125:0,1,109.250002083778,6|2,0:0|0:0,0:0:0:0:
250,71,39471,6,0,P|295:55|370:79,1,109.250002083778,2|0,0:0|0:0,0:0:0:0:
500,129,39939,1,4,0:0:0:0:
455,272,40174,1,2,0:0:0:0:
379,235,40291,1,0,0:0:0:0:
323,298,40408,2,0,P|263:322|176:288,1,142.5,2|0,0:0|0:0,0:0:0:0:
126,256,40877,2,0,L|50:266,1,54.6250010418892,6|0,0:0|0:0,0:0:0:0:
0,128,41111,2,0,L|54:135,1,54.6250010418892,2|2,0:0|0:0,0:0:0:0:
125,100,41346,22,0,P|148:47|123:-17,2,109.250002083778,2|0|6,0:0|0:0|0:0,0:0:0:0:
0,300,42049,1,2,0:0:0:0:
72,263,42166,1,2,0:0:0:0:
130,319,42283,2,0,P|182:335|242:319,1,109.250002083778,2|0,0:0|0:0,0:0:0:0:
273,302,42635,1,2,0:0:0:0:
315,291,42752,1,4,0:0:0:0:
358,291,42869,1,2,0:0:0:0:
400,302,42986,1,2,0:0:0:0:
439,321,43103,1,2,0:0:0:0:
466,347,43221,6,0,P|468:264|526:229,1,142.5,2|0,0:0|0:0,0:0:0:0:
466,97,43689,2,0,P|397:106|347:66,1,118.75,4|0,0:0|0:0,0:0:0:0:
303,27,44041,1,2,0:0:0:0:
238,66,44158,2,0,P|216:111|252:192,2,118.75,2|2|6,0:0|0:0|0:0,0:0:0:0:
421,32,44861,1,2,0:0:0:0:
233,175,45096,6,0,P|263:228|233:335,1,163.875003125668,0|2,0:0|0:0,0:0:0:0:
163,338,45564,2,0,L|95:325,3,54.6250010418892,6|0|2|0,0:0|0:0|0:0|0:0,0:0:0:0:
35,352,46033,2,0,P|10:298|31:244,2,109.250002083778,2|0|6,0:0|0:0|0:0,0:0:0:0:
255,305,46736,2,0,L|308:315,1,54.6250010418892,2|2,0:0|0:0,0:0:0:0:
361,364,46971,6,0,P|339:285|398:231,1,163.875003125668,2|2,0:0|0:0,0:0:0:0:
447,177,47439,2,0,L|508:183,1,54.6250010418892,6|0,0:0|0:0,0:0:0:0:
416,34,47674,2,0,L|353:44,1,54.6250010418892,2|2,0:0|0:0,0:0:0:0:
314,102,47908,2,0,P|249:122|183:98,1,132.999995941162,2|2,0:0|0:0,0:0:0:0:
111,65,48260,1,2,0:0:0:0:
51,128,48377,22,0,L|66:199,1,54.6250010418892,6|0,0:0|0:0,0:0:0:0:
0,283,48611,2,0,L|15:354,1,54.6250010418892,2|0,0:0|0:0,0:0:0:0:
84,375,48846,2,0,P|142:383|199:350,1,109.250002083778,2|2,0:0|0:0,0:0:0:0:
428,375,49314,2,0,P|370:383|313:350,1,109.250002083778,4|2,0:0|0:0,0:0:0:0:
256,192,49783,1,0,0:0:0:0:
256,192,50135,2,0,L|256:136,1,54.6250010418892,2|2,0:0|0:0,0:0:0:0:
144,83,50721,6,0,P|88:104|16:69,2,118.75,6|0|14,0:0|0:0|0:0,0:0:0:0:
313,18,51424,2,0,L|377:32,1,59.375,0|0,0:0|0:0,0:0:0:0:
425,88,51658,2,0,P|413:137|447:204,1,118.75,2|2,0:0|0:0,0:0:0:0:
480,263,52010,1,0,0:0:0:0:
429,321,52127,2,0,P|374:339|304:304,1,118.75,14|8,0:0|0:0,0:0:0:0:
158,376,52596,6,0,P|135:320|174:250,1,118.75,2|0,0:0|0:0,0:0:0:0:
181,81,53064,2,0,P|204:137|165:207,1,118.75,14|0,0:0|0:0,0:0:0:0:
109,204,53416,1,0,0:0:0:0:
36,177,53533,2,0,P|28:116|80:61,1,118.75,2|0,0:0|0:0,0:0:0:0:
124,27,53885,1,0,0:0:0:0:
181,81,54002,2,0,P|240:100|304:66,1,118.75,12|8,0:0|0:0,0:0:0:0:
475,4,54471,5,2,0:0:0:0:
451,169,54705,2,0,L|519:189,1,59.375,0|2,0:0|0:0,0:0:0:0:
444,290,54939,2,0,L|404:247,1,59.375,12|2,0:0|0:0,0:0:0:0:
325,292,55174,2,0,L|341:360,1,59.375,0|2,0:0|0:0,0:0:0:0:
261,373,55408,2,0,P|218:339|150:349,1,118.75,10|2,0:0|0:0,0:0:0:0:
82,372,55760,1,0,0:0:0:0:
15,323,55877,2,0,P|12:247|52:207,1,118.75,14|2,0:0|0:0,0:0:0:0:
116,191,56228,1,0,0:0:0:0:
201,172,56346,6,0,L|276:175,1,71.2500027179719,10|0,0:0|0:0,0:0:0:0:
396,287,56814,2,0,L|322:292,1,71.2500027179719,4|0,0:0|0:0,0:0:0:0:
207,299,57283,1,2,0:0:0:0:
388,181,57517,1,8,0:0:0:0:
286,62,57752,6,0,L|214:56,1,66.4999979705811,6|0,0:0|0:0,0:0:0:0:
94,113,57986,2,0,L|22:107,1,66.4999979705811,10|0,0:0|0:0,0:0:0:0:
28,107,58221,6,0,P|3:161|36:228,1,118.75,2|0,0:0|0:0,0:0:0:0:
140,349,58689,1,14,0:0:0:0:
22,214,58924,2,0,L|88:211,1,59.375,2|0,0:0|0:0,0:0:0:0:
152,265,59158,2,0,P|221:251|268:277,1,118.75,2|0,0:0|0:0,0:0:0:0:
326,320,59510,1,0,0:0:0:0:
387,263,59627,2,0,P|445:275|510:238,1,118.75,12|8,0:0|0:0,0:0:0:0:
476,69,60096,6,0,P|418:57|353:94,1,118.75,2|2,0:0|0:0,0:0:0:0:
199,183,60564,2,0,P|226:129|202:61,1,118.75,14|0,0:0|0:0,0:0:0:0:
138,50,60916,1,2,0:0:0:0:
74,96,61033,2,0,P|77:156|132:203,1,118.75,2|0,0:0|0:0,0:0:0:0:
168,258,61385,2,0,L|172:318,1,59.375,0|14,0:0|0:0,0:0:0:0:
340,366,61736,2,0,L|343:304,1,59.375,10|0,0:0|0:0,0:0:0:0:
404,260,61971,6,0,P|432:206|410:142,1,118.75,2|0,0:0|0:0,0:0:0:0:
430,106,62322,1,2,0:0:0:0:
396,72,62439,1,12,0:0:0:0:
350,58,62556,1,2,0:0:0:0:
303,64,62674,1,0,0:0:0:0:
264,91,62791,1,2,0:0:0:0:
238,130,62908,2,0,P|179:107|116:131,1,118.75,10|2,0:0|0:0,0:0:0:0:
0,282,63377,2,0,P|59:305|122:281,1,118.75,14|0,0:0|0:0,0:0:0:0:
150,223,63728,1,0,0:0:0:0:
189,292,63846,22,0,P|247:275|304:298,1,118.75,2|0,0:0|0:0,0:0:0:0:
311,373,64197,1,2,0:0:0:0:
375,327,64314,2,0,P|434:350|503:320,1,118.75,14|2,0:0|0:0,0:0:0:0:
436,272,64666,1,0,0:0:0:0:
485,336,64783,5,10,0:0:0:0:
375,108,65017,1,10,0:0:0:0:
311,373,65252,1,6,0:0:0:0:
375,108,65486,2,0,L|306:116,1,59.375,10|0,0:0|0:0,0:0:0:0:
179,185,65721,6,0,P|228:203|304:176,1,118.75,6|0,0:0|0:0,0:0:0:0:
467,114,66189,1,14,0:0:0:0:
305,37,66424,2,0,L|236:45,1,59.375
149,55,66658,1,2,0:0:0:0:
60,281,66892,2,0,L|66:339,1,59.375,2|0,0:0|0:0,0:0:0:0:
0,228,67127,2,0,P|58:203|129:235,1,118.75,14|8,0:0|0:0,0:0:0:0:
285,357,67596,6,0,P|269:297|305:236,1,118.75,2|0,0:0|0:0,0:0:0:0:
243,79,68064,2,0,P|259:139|223:200,1,118.75,14|0,0:0|0:0,0:0:0:0:
292,247,68416,1,0,0:0:0:0:
363,201,68533,2,0,P|423:194|480:228,1,118.75,2|2,0:0|0:0,0:0:0:0:
512,290,68885,1,0,0:0:0:0:
447,337,69002,2,0,P|387:344|330:310,1,118.75,14|8,0:0|0:0,0:0:0:0:
16,340,69471,21,2,0:0:0:0:
219,375,69705,2,0,L|226:307,1,59.375,0|2,0:0|0:0,0:0:0:0:
162,220,69939,2,0,L|156:280,1,59.375,12|2,0:0|0:0,0:0:0:0:
91,187,70174,2,0,L|98:119,1,59.375,0|2,0:0|0:0,0:0:0:0:
35,70,70408,6,0,P|95:89|165:56,1,118.75,10|2,0:0|0:0,0:0:0:0:
208,115,70760,1,0,0:0:0:0:
213,41,70877,2,0,P|269:24|324:43,1,118.75,14|2,0:0|0:0,0:0:0:0:
388,4,71228,1,0,0:0:0:0:
391,78,71346,38,0,L|395:158,1,71.2500027179719,10|0,0:0|0:0,0:0:0:0:
507,303,71814,2,0,L|510:231,1,71.2500027179719,4|0,0:0|0:0,0:0:0:0:
395,150,72283,1,2,0:0:0:0:
511,232,72517,1,8,0:0:0:0:
371,288,72752,6,0,L|305:282,1,66.4999979705811,6|0,0:0|0:0,0:0:0:0:
187,340,72986,2,0,L|121:334,1,66.4999979705811,10|0,0:0|0:0,0:0:0:0:
0,321,73221,5,2,0:0:0:0:
82,93,73455,1,0,0:0:0:0:
184,269,73689,1,14,0:0:0:0:
142,53,73924,2,0,L|207:59,1,59.375,2|0,0:0|0:0,0:0:0:0:
261,13,74158,2,0,P|274:70|231:129,1,118.75,2|2,0:0|0:0,0:0:0:0:
170,147,74510,1,0,0:0:0:0:
130,216,74627,2,0,P|108:270|143:331,1,118.75,14|8,0:0|0:0,0:0:0:0:
345,353,75096,6,0,P|382:308|368:239,1,118.75,2|2,0:0|0:0,0:0:0:0:
335,131,75564,1,14,0:0:0:0:
448,25,75799,2,0,L|385:22,1,59.375,0|2,0:0|0:0,0:0:0:0:
311,49,76033,2,0,P|258:69|185:38,1,118.75,2|0,0:0|0:0,0:0:0:0:
129,19,76385,1,0,0:0:0:0:
49,26,76502,2,0,P|25:74|55:144,1,118.75,14|2,0:0|0:0,0:0:0:0:
54,210,76853,1,0,0:0:0:0:
0,270,76971,6,0,P|57:250|125:284,1,118.75,2|0,0:0|0:0,0:0:0:0:
151,302,77322,1,2,0:0:0:0:
200,322,77439,1,12,0:0:0:0:
252,329,77556,1,2,0:0:0:0:
304,319,77674,1,0,0:0:0:0:
351,295,77791,1,2,0:0:0:0:
391,260,77908,2,0,P|450:278|512:242,1,118.75,10|0,0:0|0:0,0:0:0:0:
440,86,78377,1,14,0:0:0:0:
391,260,78611,22,0,L|399:331,1,59.375,0|0,0:0|0:0,0:0:0:0:
324,202,78846,2,0,P|381:221|452:186,1,118.75,10|0,0:0|0:0,0:0:0:0:
188,202,79314,2,0,P|131:221|60:186,1,118.75,6|2,0:0|0:0,0:0:0:0:
256,16,79783,2,0,P|272:69|250:137,1,118.75,10|2,0:0|0:0,0:0:0:0:
256,128,80252,1,2,0:0:0:0:
60,143,80721,6,0,L|52:38,1,95,0|0,0:0|0:0,0:0:0:0:
184,262,81189,2,0,L|181:365,1,95,8|0,0:0|0:0,0:0:0:0:
0,204,81658,2,0,P|56:223|139:182,1,142.5,0|0,0:0|0:0,0:0:0:0:
184,262,82127,2,0,L|181:365,1,95,8|0,0:0|0:0,0:0:0:0:
337,235,82596,6,0,P|389:249|437:233,1,95,0|0,0:0|0:0,0:0:0:0:
478,96,83064,2,0,P|429:82|378:98,1,95,8|0,0:0|0:0,0:0:0:0:
276,176,83533,2,0,P|302:229|259:313,1,142.5,0|0,0:0|0:0,0:0:0:0:
191,336,84002,2,0,L|89:333,1,95,8|0,0:0|0:0,0:0:0:0:
0,139,84471,38,0,L|103:135,1,95,0|0,0:0|0:0,0:0:0:0:
277,66,84939,2,0,P|326:77|383:57,1,95,8|0,0:0|0:0,0:0:0:0:
223,0,85408,2,0,P|193:50|232:138,1,142.5,0|0,0:0|0:0,0:0:0:0:
260,201,85877,2,0,P|274:243|250:302,1,95,8|0,0:0|0:0,0:0:0:0:
430,361,86346,6,0,P|386:377|341:366,1,95,2|0,0:0|0:0,0:0:0:0:
81,361,86814,2,0,P|125:377|171:366,1,95,2|0,0:0|0:0,0:0:0:0:
256,328,87166,1,0,0:0:0:0:
256,240,87283,2,0,P|232:168|257:106,1,142.5,10|0,0:0|0:0,0:0:0:0:
329,63,87752,2,0,P|370:82|434:66,1,95,0|0,0:0|0:0,0:0:0:0:
445,60,88064,21,0,0:0:0:0:
441,91,88142,1,0,0:0:0:0:
437,130,88221,2,0,P|434:213|516:247,1,178.125,10|0,0:0|0:0,0:0:0:0:
501,172,88689,1,0,0:0:0:0:
256,288,88924,1,0,0:0:0:0:
75,130,89158,22,0,P|77:213|-4:247,1,178.125,10|0,0:0|0:0,0:0:0:0:
11,172,89627,1,0,0:0:0:0:
256,288,89861,1,0,0:0:0:0:
166,129,90096,2,0,P|122:141|62:121,1,95,2|0,0:0|0:0,0:0:0:0:
346,129,90447,2,0,P|390:141|450:121,1,95,2|0,0:0|0:0,0:0:0:0:
256,42,90799,2,0,L|256:144,1,95,2|0,0:0|0:0,0:0:0:0:
227,180,91150,5,0,0:0:0:0:
210,229,91267,1,0,0:0:0:0:
226,279,91385,1,0,0:0:0:0:
256,321,91502,2,0,P|324:347|396:312,1,142.5,8|0,0:0|0:0,0:0:0:0:
447,255,91971,2,0,L|439:153,1,95,10|0,0:0|0:0,0:0:0:0:
383,34,92439,2,0,P|325:46|277:23,1,95,8|0,0:0|0:0,0:0:0:0:
154,43,92908,2,0,P|91:22|18:51,1,142.5,8|0,0:0|0:0,0:0:0:0:
0,151,93377,2,0,L|8:251,1,95,8|0,0:0|0:0,0:0:0:0:
156,338,93846,6,0,L|144:189,1,142.5,2|0,0:0|0:0,0:0:0:0:
194,126,94314,2,0,P|239:115|291:134,1,95,10|0,0:0|0:0,0:0:0:0:
236,195,94666,1,2,0:0:0:0:
328,296,94783,2,0,L|334:257,5,31.6666666666667,2|2|2|8|8|8,0:0|0:0|0:0|0:0|0:0|0:0,0:0:0:0:
367,225,95252,5,0,0:0:0:0:
360,170,95369,1,0,0:0:0:0:
353,115,95486,1,0,0:0:0:0:
346,60,95603,1,0,0:0:0:0:
295,39,95721,2,0,P|240:23|180:45,2,109.250002083778,6|0|6,0:0|0:0|0:0,0:0:0:0:
360,170,96424,2,0,L|366:224,1,54.6250010418892,0|2,0:0|0:0,0:0:0:0:
425,279,96658,2,0,P|370:265|311:290,1,109.250002083778,2|2,0:0|0:0,0:0:0:0:
240,357,97010,1,0,0:0:0:0:
133,326,97127,22,0,L|78:335,1,54.6250010418892,6|0,0:0|0:0,0:0:0:0:
0,202,97361,2,0,L|53:210,1,54.6250010418892,2|2,0:0|0:0,0:0:0:0:
145,129,97596,2,0,P|197:144|257:124,2,109.250002083778,2|0|4,0:0|0:0|0:0,0:0:0:0:
249,130,98299,1,0,0:0:0:0:
310,75,98416,1,2,0:0:0:0:
377,122,98533,2,0,P|434:112|492:147,1,109.250002083778,2|0,0:0|0:0,0:0:0:0:
415,229,99002,5,6,0:0:0:0:
456,271,99119,1,0,0:0:0:0:
429,324,99236,1,0,0:0:0:0:
370,315,99353,1,2,0:0:0:0:
360,255,99471,1,2,0:0:0:0:
331,102,99705,2,0,L|309:49,2,54.6250010418892,0|2|6,0:0|0:0|0:0,0:0:0:0:
134,88,100174,2,0,L|84:36,2,54.6250010418892,0|2|2,0:0|0:0|0:0,0:0:0:0:
56,233,100642,6,0,L|2:221,1,54.6250010418892,0|2,0:0|0:0,0:0:0:0:
67,312,100877,2,0,L|121:324,3,54.6250010418892,6|0|2|2,0:0|0:0|0:0|0:0,0:0:0:0:
150,284,101346,5,2,0:0:0:0:
191,258,101463,1,0,0:0:0:0:
239,249,101580,1,2,0:0:0:0:
287,257,101697,1,2,0:0:0:0:
333,345,101814,1,6,0:0:0:0:
376,367,101931,1,0,0:0:0:0:
424,373,102048,1,2,0:0:0:0:
471,361,102165,1,2,0:0:0:0:
508,328,102283,22,0,L|502:289,3,36.4166673612595,2|2|2|0,0:0|0:0|0:0|0:0,0:0:0:0:
489,209,102635,1,2,0:0:0:0:
416,256,102752,2,0,P|403:193|439:142,1,109.250002083778,6|2,0:0|0:0,0:0:0:0:
512,15,103221,21,2,0:0:0:0:
345,37,103455,2,0,L|286:45,1,54.6250010418892,2|0,0:0|0:0,0:0:0:0:
269,123,103689,2,0,P|221:143|150:115,1,109.250002083778,6|0,0:0|0:0,0:0:0:0:
12,40,104158,1,2,0:0:0:0:
46,127,104275,2,0,L|67:127,3,18.2083336806297,0|2|0|2,0:0|0:0|0:0|0:0,0:0:0:0:
11,213,104510,1,0,0:0:0:0:
42,302,104627,2,0,P|93:316|153:287,1,109.250002083778,6|0,0:0|0:0,0:0:0:0:
274,74,105096,5,2,0:0:0:0:
405,209,105330,1,2,0:0:0:0:
203,256,105564,1,6,0:0:0:0:
422,287,105799,2,0,L|485:296,1,54.6250010418892,2|2,0:0|0:0,0:0:0:0:
303,321,106033,2,0,L|240:312,1,54.6250010418892,2|0,0:0|0:0,0:0:0:0:
233,188,106267,2,0,L|296:197,1,54.6250010418892,2|0,0:0|0:0,0:0:0:0:
274,74,106502,2,0,L|211:65,1,54.6250010418892,6|0,0:0|0:0,0:0:0:0:
82,66,106736,22,0,L|19:75,1,54.6250010418892,0|0,0:0|0:0,0:0:0:0:
0,148,106971,2,0,P|-27:208|23:291,1,163.875003125668,2|2,0:0|0:0,0:0:0:0:
139,342,107439,2,0,L|216:352,1,54.6250010418892,6|0,0:0|0:0,0:0:0:0:
301,269,107674,2,0,L|373:265,1,54.6250010418892,2|2,0:0|0:0,0:0:0:0:
396,293,107908,5,2,0:0:0:0:
375,248,108025,1,0,0:0:0:0:
377,199,108142,1,2,0:0:0:0:
402,156,108260,1,2,0:0:0:0:
468,80,108377,1,6,0:0:0:0:
426,106,108494,1,0,0:0:0:0:
377,109,108611,1,2,0:0:0:0:
333,86,108728,1,2,0:0:0:0:
305,45,108846,22,0,L|232:54,1,54.6250010418892,2|0,0:0|0:0,0:0:0:0:
36,113,109080,2,0,L|109:122,1,54.6250010418892,0|0,0:0|0:0,0:0:0:0:
305,126,109314,2,0,L|232:135,1,54.6250010418892,6|0,0:0|0:0,0:0:0:0:
52,194,109548,2,0,L|125:203,1,54.6250010418892,2|0,0:0|0:0,0:0:0:0:
178,330,109783,2,0,P|259:363|337:312,1,163.875003125668,2|0,0:0|0:0,0:0:0:0:
251,266,110252,1,4,0:0:0:0:
256,192,116346,12,10,117283,0:0:0:0:
256,192,117517,21,8,0:0:0:0:
147,227,117752,2,0,L|123:315,1,66.4999979705811,0|0,0:0|0:0,0:0:0:0:
365,227,117986,2,0,L|389:315,1,66.4999979705811,8|0,0:0|0:0,0:0:0:0:
452,324,118221,6,0,P|396:367|325:342,1,128.250000489235,6|0,0:0|0:0,0:0:0:0:
168,325,118689,1,14,0:0:0:0:
0,366,118924,2,0,L|10:300,1,64.1250002446175,2|0,0:0|0:0,0:0:0:0:
24,214,119158,2,0,P|-4:152|44:83,1,128.250000489235,2|0,0:0|0:0,0:0:0:0:
39,14,119510,1,0,0:0:0:0:
104,73,119627,2,0,P|158:94|229:70,1,128.250000489235,14|8,0:0|0:0,0:0:0:0:
304,195,120096,6,0,L|235:198,1,64.1250002446175,2|0,0:0|0:0,0:0:0:0:
391,59,120330,2,0,L|460:62,1,64.1250002446175,2|0,0:0|0:0,0:0:0:0:
331,7,120564,2,0,P|312:56|360:132,1,128.250000489235,14|0,0:0|0:0,0:0:0:0:
414,163,120916,1,2,0:0:0:0:
471,224,121033,2,0,P|494:271|453:351,1,128.250000489235,2|0,0:0|0:0,0:0:0:0:
392,371,121385,2,0,L|306:365,1,64.1250002446175,0|14,0:0|0:0,0:0:0:0:
156,314,121736,2,0,L|242:308,1,64.1250002446175,2|14,0:0|0:0,0:0:0:0:
277,248,121971,6,0,P|295:191|258:125,1,128.250000489235,2|0,0:0|0:0,0:0:0:0:
265,75,122322,1,2,0:0:0:0:
218,38,122439,1,0,0:0:0:0:
161,28,122557,1,2,0:0:0:0:
104,44,122674,1,12,0:0:0:0:
63,83,122791,1,2,0:0:0:0:
40,138,122908,2,0,L|33:215,1,64.1250002446175,10|0,0:0|0:0,0:0:0:0:
86,361,123142,2,0,L|81:298,1,64.1250002446175,2|0,0:0|0:0,0:0:0:0:
140,234,123377,2,0,P|207:215|265:240,1,128.250000489235,14|0,0:0|0:0,0:0:0:0:
310,303,123728,1,0,0:0:0:0:
384,341,123846,22,0,P|427:292|411:217,1,128.250000489235,2|0,0:0|0:0,0:0:0:0:
457,158,124197,1,2,0:0:0:0:
512,90,124314,2,0,P|456:117|385:88,1,128.250000489235,14|2,0:0|0:0,0:0:0:0:
322,52,124666,1,0,0:0:0:0:
238,80,124783,37,10,0:0:0:0:
0,137,125017,1,10,0:0:0:0:
305,140,125252,1,6,0:0:0:0:
42,62,125486,2,0,L|117:71,1,64.1250002446175,10|0,0:0|0:0,0:0:0:0:
156,239,125721,38,0,P|135:184|168:123,1,128.250000489235,6|0,0:0|0:0,0:0:0:0:
389,108,126189,1,14,0:0:0:0:
217,188,126424,2,0,L|288:206,1,64.1250002446175,0|0,0:0|0:0,0:0:0:0:
375,227,126658,1,2,0:0:0:0:
156,239,126892,2,0,L|80:261,1,64.1250002446175,0|0,0:0|0:0,0:0:0:0:
11,191,127127,2,0,P|-2:118|41:69,1,128.250000489235,14|8,0:0|0:0,0:0:0:0:
198,30,127596,6,0,P|258:9|324:37,1,128.250000489235,2|0,0:0|0:0,0:0:0:0:
512,70,128064,2,0,P|452:91|386:63,1,128.250000489235,14|0,0:0|0:0,0:0:0:0:
317,30,128416,1,0,0:0:0:0:
257,95,128533,2,0,P|246:157|291:213,1,128.250000489235,2|0,0:0|0:0,0:0:0:0:
365,239,128885,1,0,0:0:0:0:
296,295,129002,2,0,P|251:327|163:298,1,128.250000489235,14|8,0:0|0:0,0:0:0:0:
12,296,129471,5,2,0:0:0:0:
69,138,129705,1,0,0:0:0:0:
113,175,129822,1,2,0:0:0:0:
166,196,129939,1,12,0:0:0:0:
223,199,130056,1,2,0:0:0:0:
279,184,130174,1,0,0:0:0:0:
327,152,130291,1,2,0:0:0:0:
368,112,130408,22,0,P|434:134|504:98,1,128.250000489235,10|0,0:0|0:0,0:0:0:0:
429,40,130760,1,0,0:0:0:0:
337,31,130877,2,0,P|271:9|201:45,1,128.250000489235,14|0,0:0|0:0,0:0:0:0:
139,24,131228,1,0,0:0:0:0:
110,98,131346,54,0,L|101:187,1,80.750001540184,10|0,0:0|0:0,0:0:0:0:
13,249,131814,2,0,L|21:344,1,80.750001540184,4|0,0:0|0:0,0:0:0:0:
13,249,132283,1,2,0:0:0:0:
243,298,132517,1,8,0:0:0:0:
243,298,132752,6,0,L|326:290,1,71.2500027179719,6|0,0:0|0:0,0:0:0:0:
444,178,132986,2,0,L|373:171,1,71.2500027179719,10|0,0:0|0:0,0:0:0:0:
199,113,133221,5,2,0:0:0:0:
372,8,133455,1,0,0:0:0:0:
411,281,133689,1,14,0:0:0:0:
292,31,133924,2,0,L|285:100,1,64.1250002446175,2|2,0:0|0:0,0:0:0:0:
257,183,134158,2,0,P|283:248|241:312,1,128.250000489235,2|2,0:0|0:0,0:0:0:0:
183,276,134510,1,0,0:0:0:0:
110,309,134627,2,0,P|84:244|126:180,1,128.250000489235,14|8,0:0|0:0,0:0:0:0:
38,0,135096,6,0,L|46:74,1,64.1250002446175,2|0,0:0|0:0,0:0:0:0:
142,47,135330,2,0,L|135:111,1,64.1250002446175,2|0,0:0|0:0,0:0:0:0:
237,7,135564,2,0,L|243:78,1,64.1250002446175,14|0,0:0|0:0,0:0:0:0:
337,110,135799,2,0,L|345:45,1,64.1250002446175,0|2,0:0|0:0,0:0:0:0:
443,77,136033,2,0,P|424:135|469:207,1,128.250000489235,2|0,0:0|0:0,0:0:0:0:
507,257,136385,1,0,0:0:0:0:
426,279,136502,2,0,P|378:314|289:287,1,128.250000489235,14|10,0:0|0:0,0:0:0:0:
251,363,136853,1,0,0:0:0:0:
167,353,136971,6,0,P|192:296|160:226,1,128.250000489235,2|0,0:0|0:0,0:0:0:0:
114,224,137322,1,2,0:0:0:0:
70,186,137439,1,12,0:0:0:0:
53,130,137556,1,2,0:0:0:0:
66,73,137674,1,0,0:0:0:0:
105,31,137791,1,2,0:0:0:0:
157,8,137908,2,0,L|222:18,1,64.1250002446175,10|0,0:0|0:0,0:0:0:0:
277,122,138142,2,0,L|342:132,1,64.1250002446175,2|0,0:0|0:0,0:0:0:0:
397,236,138377,1,14,0:0:0:0:
397,236,138611,22,0,L|405:308,1,64.1250002446175,0|0,0:0|0:0,0:0:0:0:
468,171,138846,2,0,P|410:198|332:171,1,128.250000489235,10|0,0:0|0:0,0:0:0:0:
181,127,139314,2,0,L|101:136,1,64.1250002446175,6|0,0:0|0:0,0:0:0:0:
14,257,139549,2,0,L|77:264,1,64.1250002446175,2|0,0:0|0:0,0:0:0:0:
198,334,139783,2,0,P|277:274|362:328,1,192.375000733852,10|0,0:0|0:0,0:0:0:0:
282,356,140252,1,2,0:0:0:0:
