osu file format v12

[General]
AudioFilename: M2U.mp3
AudioLeadIn: 0
PreviewTime: 110720
Countdown: 0
SampleSet: Soft
StackLeniency: 0.7
Mode: 0
LetterboxInBreaks: 1
WidescreenStoryboard: 0

[Editor]
Bookmarks: 110720,125720
DistanceSpacing: 1.1
BeatDivisor: 4
GridSize: 4

[Metadata]
Title:Masquerade
TitleUnicode:Masquerade
Artist:M2U
ArtistUnicode:M2U
Creator:Kpiez
Version:Another
Source:Cytus
Tags:Another Me Chapter VIII Gabe Teara Setsurei The_Epic_Backstabber
BeatmapID:347377
BeatmapSetID:138815

[Difficulty]
HPDrainRate:6
CircleSize:4
OverallDifficulty:8
ApproachRate:9
SliderMultiplier:2.59999990463257
SliderTickRate:1

[Events]
//Background and Video events
0,0,"72dqfi6nh983i7n2ndtji867k152c4373d614ad.jpg",0,0
//Break Periods
2,80720,94651
//Storyboard Layer 0 (Background)
//Storyboard Layer 1 (Fail)
//Storyboard Layer 2 (Pass)
//Storyboard Layer 3 (Foreground)
//Storyboard Sound Samples
//Background Colour Transformations
3,100,163,162,255

[TimingPoints]
95,468.75,4,2,1,70,1,0
27282,-66.6666666666667,4,2,1,70,0,0
27516,-100,4,2,1,70,0,0
34079,-66.6666666666667,4,2,1,70,0,0
34313,-100,4,2,1,70,0,0
50720,-83.3333333333333,4,2,1,80,0,1
50837,-83.3333333333333,4,2,1,80,0,0
65720,-83.3333333333333,4,2,1,80,0,1
65837,-83.3333333333333,4,2,1,80,0,0
95251,-100,4,2,1,80,0,0
110720,-83.3333333333333,4,2,1,80,0,1
110837,-83.3333333333333,4,2,1,80,0,0
125720,-83.3333333333333,4,2,1,80,0,1
125837,-83.3333333333333,4,2,1,80,0,0

[Colours]
Combo1 : 201,201,201
Combo2 : 0,128,255
Combo3 : 0,187,187
Combo4 : 255,81,255

[HitObjects]
76,152,1266,1,0,0:0:0:0:
76,152,1325,1,0,0:0:0:0:
76,152,1384,1,0,0:0:0:0:
76,152,1442,1,0,0:0:0:0:
76,152,1501,1,0,0:0:0:0:
368,56,1970,6,0,P|324:132|376:224,1,194.999992847443,6|0,0:0|0:0,0:0:0:0:
436,248,2438,1,8,0:0:0:0:
296,328,2673,1,0,0:0:0:0:
104,344,2907,2,0,P|172:320|204:208,1,194.999992847443,2|0,0:0|0:0,0:0:0:0:
168,148,3376,1,8,0:0:0:0:
320,300,3610,1,0,0:0:0:0:
476,184,3845,6,0,P|396:160|288:216,1,194.999992847443,2|0,0:0|0:0,0:0:0:0:
264,268,4313,1,8,0:0:0:0:
196,92,4548,1,0,0:0:0:0:
28,208,4782,2,0,P|96:160|204:184,1,194.999992847443,2|0,0:0|0:0,0:0:0:0:
248,236,5251,1,8,0:0:0:0:
360,148,5485,1,0,0:0:0:0:
260,336,5720,6,0,P|328:280|436:288,1,194.999992847443,2|0,0:0|0:0,0:0:0:0:
480,336,6188,1,8,0:0:0:0:
288,184,6423,1,0,0:0:0:0:
296,16,6657,2,0,P|324:80|440:112,1,194.999992847443,2|0,0:0|0:0,0:0:0:0:
504,84,7126,1,8,0:0:0:0:
344,228,7360,1,0,0:0:0:0:
208,88,7595,6,0,P|136:64|44:132,1,194.999992847443,2|0,0:0|0:0,0:0:0:0:
24,196,8063,1,8,0:0:0:0:
156,252,8298,1,0,0:0:0:0:
412,160,8532,2,0,P|316:156|240:224,1,194.999992847443,2|0,0:0|0:0,0:0:0:0:
228,288,9001,2,0,L|172:328,1,64.9999976158142,8|0,0:0|0:0,0:0:0:0:
104,336,9235,2,0,L|56:328,3,32.4999988079071
48,304,9470,5,2,0:0:0:0:
20,164,9704,1,0,0:0:0:0:
120,64,9938,2,0,P|160:124|136:248,1,194.999992847443,8|0,0:0|0:0,0:0:0:0:
100,296,10407,1,2,0:0:0:0:
264,140,10641,1,0,0:0:0:0:
356,32,10876,2,0,P|344:104|432:208,1,194.999992847443,8|0,0:0|0:0,0:0:0:0:
476,232,11345,5,2,0:0:0:0:
296,348,11579,1,0,0:0:0:0:
156,320,11813,2,0,P|208:264|196:144,1,194.999992847443,8|0,0:0|0:0,0:0:0:0:
152,96,12282,1,2,0:0:0:0:
92,224,12516,1,0,0:0:0:0:
300,172,12751,2,0,P|396:180|468:268,1,194.999992847443,8|0,0:0|0:0,0:0:0:0:
444,320,13220,5,2,0:0:0:0:
232,348,13454,1,0,0:0:0:0:
164,220,13688,2,0,P|240:188|292:80,1,194.999992847443,8|0,0:0|0:0,0:0:0:0:
260,28,14157,1,2,0:0:0:0:
380,204,14391,1,0,0:0:0:0:
264,288,14626,2,0,P|152:240|56:272,1,194.999992847443,8|0,0:0|0:0,0:0:0:0:
24,296,15095,6,0,P|52:232|44:152,1,129.999995231629,2|0,0:0|0:0,0:0:0:0:
20,108,15446,1,2,0:0:0:0:
64,52,15563,2,0,B|128:28|128:28|200:48,1,129.999995231629,2|0,0:0|0:0,0:0:0:0:
256,72,15915,1,2,0:0:0:0:
320,100,16032,2,0,L|396:88,1,64.9999976158143,2|0,0:0|0:0,0:0:0:0:
264,172,16266,2,0,L|199:182,1,64.9999976158143,2|2,0:0|0:0,0:0:0:0:
48,240,16501,2,0,L|224:280,1,129.999995231629,0|2,0:0|0:0,0:0:0:0:
408,336,16970,6,0,P|391:306|384:264,1,64.9999976158143,6|0,0:0|0:0,0:0:0:0:
424,132,17204,2,0,P|399:155|352:168,1,64.9999976158143,2|0,0:0|0:0,0:0:0:0:
292,268,17438,2,0,P|232:224|160:220,1,129.999995231629,8|0,0:0|0:0,0:0:0:0:
108,228,17790,1,2,0:0:0:0:
44,260,17907,2,0,L|8:316,1,64.9999976158143,2|0,0:0|0:0,0:0:0:0:
156,288,18141,2,0,L|120:344,1,64.9999976158143,2|0,0:0|0:0,0:0:0:0:
264,304,18376,2,0,P|232:240|256:164,1,129.999995231629,8|0,0:0|0:0,0:0:0:0:
280,124,18727,1,0,0:0:0:0:
336,80,18845,6,0,L|412:68,1,64.9999976158143,2|0,0:0|0:0,0:0:0:0:
188,40,19079,2,0,L|120:20,1,64.9999976158143,2|0,0:0|0:0,0:0:0:0:
32,152,19313,2,0,L|100:136,1,64.9999976158143,8|2,0:0|0:0,0:0:0:0:
208,232,19548,2,0,L|140:216,1,64.9999976158143,2|0,0:0|0:0,0:0:0:0:
220,332,19782,2,0,L|352:292,1,129.999995231629,2|0,0:0|0:0,0:0:0:0:
412,272,20134,1,2,0:0:0:0:
480,252,20251,2,0,P|452:184|340:200,1,194.999992847443
280,228,20720,6,0,P|312:160|176:140,1,259.999990463257,6|8,0:0|0:0,0:0:0:0:
44,356,21423,1,2,0:0:0:0:
104,320,21540,1,2,0:0:0:0:
172,304,21657,2,0,P|202:295|244:296,1,64.9999976158143
360,336,21891,2,0,L|416:288,1,64.9999976158143,2|0,0:0|0:0,0:0:0:0:
496,196,22126,2,0,L|446:153,1,64.9999976158143,8|2,0:0|0:0,0:0:0:0:
280,112,22360,2,0,L|329:154,1,64.9999976158143,2|0,0:0|0:0,0:0:0:0:
364,216,22595,6,0,P|288:176|172:280,1,259.999990463257,0|8,0:0|0:0,0:0:0:0:
204,340,23180,1,2,0:0:0:0:
148,296,23298,1,2,0:0:0:0:
76,284,23415,1,2,0:0:0:0:
12,316,23532,2,0,L|52:368,1,64.9999976158143,2|0,0:0|0:0,0:0:0:0:
48,204,23766,2,0,L|88:256,1,64.9999976158143,2|0,0:0|0:0,0:0:0:0:
108,92,24001,2,0,L|148:144,1,64.9999976158143,8|0,0:0|0:0,0:0:0:0:
280,32,24235,2,0,L|240:84,1,64.9999976158143,2|0,0:0|0:0,0:0:0:0:
232,156,24470,6,0,P|200:88|36:116,1,259.999990463257,0|8,0:0|0:0,0:0:0:0:
40,180,25055,1,2,0:0:0:0:
88,236,25173,1,2,0:0:0:0:
156,260,25290,1,2,0:0:0:0:
228,260,25407,2,0,P|296:216|364:224,1,129.999995231629,2|2,0:0|0:0,0:0:0:0:
412,232,25759,1,2,0:0:0:0:
472,272,25876,1,8,0:0:0:0:
464,344,25993,1,2,0:0:0:0:
396,368,26110,1,2,0:0:0:0:
332,336,26227,1,2,0:0:0:0:
308,268,26345,6,0,P|168:272|152:320,1,194.999992847443,2|2,0:0|0:0,0:0:0:0:
96,340,26813,2,0,L|24:352,1,64.9999976158143,8|0,0:0|0:0,0:0:0:0:
84,236,27048,2,0,L|156:224,1,64.9999976158143,2|0,0:0|0:0,0:0:0:0:
264,40,27282,2,0,B|324:32|324:32|377:63|377:63|464:52,1,195.000000286102,2|0,0:0|0:0,0:0:0:0:
448,124,27634,1,2,0:0:0:0:
480,188,27751,2,0,L|456:260,1,64.9999976158143,8|0,0:0|0:0,0:0:0:0:
352,200,27985,2,0,L|328:272,1,64.9999976158143,2|0,0:0|0:0,0:0:0:0:
304,328,28220,6,0,B|284:272|284:272|248:256|248:256|212:136,1,194.999992847443,2|0,0:0|0:0,0:0:0:0:
124,72,28688,2,0,L|140:136,1,64.9999976158143,8|0,0:0|0:0,0:0:0:0:
312,200,28923,2,0,L|296:136,1,64.9999976158143,2|0,0:0|0:0,0:0:0:0:
396,24,29157,2,0,B|412:64|412:64|404:132|404:132|428:228,1,194.999992847443,2|0,0:0|0:0,0:0:0:0:
288,288,29626,2,0,L|368:308,1,64.9999976158143,8|0,0:0|0:0,0:0:0:0:
424,300,29860,1,2,0:0:0:0:
484,264,29977,1,2,0:0:0:0:
496,192,30095,6,0,L|432:152,1,64.9999976158143,2|0,0:0|0:0,0:0:0:0:
328,68,30329,2,0,L|260:104,1,64.9999976158143,2|0,0:0|0:0,0:0:0:0:
124,44,30563,2,0,L|96:108,1,64.9999976158143,8|0,0:0|0:0,0:0:0:0:
16,220,30798,2,0,L|64:280,1,64.9999976158143,2|2,0:0|0:0,0:0:0:0:
212,344,31032,2,0,P|224:268|124:236,1,194.999992847443,2|0,0:0|0:0,0:0:0:0:
80,180,31501,2,0,P|95:150|100:112,1,64.9999976158143,8|0,0:0|0:0,0:0:0:0:
224,48,31735,2,0,P|208:77|204:116,1,64.9999976158143,2|0,0:0|0:0,0:0:0:0:
304,240,31970,6,0,P|228:184|136:248,1,194.999992847443,2|0,0:0|0:0,0:0:0:0:
116,288,32438,2,0,L|48:312,1,64.9999976158143,8|0,0:0|0:0,0:0:0:0:
268,324,32673,2,0,L|356:348,1,64.9999976158143,2|0,0:0|0:0,0:0:0:0:
248,224,32907,2,0,L|232:152,1,64.9999976158143,2|0,0:0|0:0,0:0:0:0:
200,96,33141,1,2,0:0:0:0:
140,56,33259,1,2,0:0:0:0:
68,52,33376,2,0,L|80:128,1,64.9999976158143,10|0,0:0|0:0,0:0:0:0:
172,224,33610,2,0,L|184:300,1,64.9999976158143
336,136,33845,6,0,L|416:108,1,64.9999976158143,2|0,0:0|0:0,0:0:0:0:
336,264,34079,2,0,L|248:216,1,97.5000001430512,2|0,0:0|0:0,0:0:0:0:
44,348,34313,2,0,L|96:288,1,64.9999976158143,8|0,0:0|0:0,0:0:0:0:
128,144,34548,2,0,L|76:204,1,64.9999976158143,2|0,0:0|0:0,0:0:0:0:
280,344,34782,2,0,P|240:260|312:176,1,194.999992847443,2|0,0:0|0:0,0:0:0:0:
484,112,35251,2,0,L|408:80,1,64.9999976158143,8|0,0:0|0:0,0:0:0:0:
356,104,35485,1,2,0:0:0:0:
300,60,35602,1,0,0:0:0:0:
232,76,35720,6,0,P|203:82|160:80,1,64.9999976158143,2|0,0:0|0:0,0:0:0:0:
24,168,35954,2,0,P|72:204|84:220,1,64.9999976158143,2|0,0:0|0:0,0:0:0:0:
164,348,36188,2,0,P|212:288|284:268,1,129.999995231629,8|0,0:0|0:0,0:0:0:0:
332,260,36540,1,2,0:0:0:0:
400,284,36657,2,0,P|430:265|456:236,1,64.9999976158143,2|0,0:0|0:0,0:0:0:0:
432,76,36891,2,0,P|404:88|356:96,1,64.9999976158143
188,76,37126,2,0,P|248:124|276:184,1,129.999995231629,8|2,0:0|0:0,0:0:0:0:
252,240,37477,1,2,0:0:0:0:
200,288,37595,6,0,L|128:296,1,64.9999976158143
280,336,37829,2,0,L|352:344,1,64.9999976158143,2|0,0:0|0:0,0:0:0:0:
464,160,38063,2,0,P|396:212|336:212,1,129.999995231629,8|0,0:0|0:0,0:0:0:0:
292,180,38415,1,2,0:0:0:0:
224,156,38532,2,0,L|144:148,1,64.9999976158143,2|2,0:0|0:0,0:0:0:0:
92,128,38766,1,2,0:0:0:0:
136,72,38884,1,2,0:0:0:0:
200,44,39001,2,0,P|272:64|344:48,1,129.999995231629,8|0,0:0|0:0,0:0:0:0:
280,112,39352,1,2,0:0:0:0:
264,180,39470,6,0,L|204:216,1,64.9999976158143,2|0,0:0|0:0,0:0:0:0:
280,336,39704,2,0,P|220:312|200:312,1,64.9999976158143
48,344,39938,2,0,P|72:288|56:216,1,129.999995231629,8|0,0:0|0:0,0:0:0:0:
24,160,40290,1,2,0:0:0:0:
0,92,40407,2,0,L|68:64,1,64.9999976158143,2|0,0:0|0:0,0:0:0:0:
124,100,40641,1,2,0:0:0:0:
188,128,40759,1,2,0:0:0:0:
252,160,40876,2,0,L|320:132,1,64.9999976158143,8|0,0:0|0:0,0:0:0:0:
312,260,41110,2,0,L|380:232,1,64.9999976158143,2|0,0:0|0:0,0:0:0:0:
260,344,41345,6,0,L|192:316,1,64.9999976158143,2|0,0:0|0:0,0:0:0:0:
168,200,41579,2,0,L|100:172,1,64.9999976158143,2|0,0:0|0:0,0:0:0:0:
44,148,41813,1,8,0:0:0:0:
264,64,42048,2,0,L|328:48,1,64.9999976158143,2|2,0:0|0:0,0:0:0:0:
396,28,42282,1,2,0:0:0:0:
448,276,42516,2,0,P|416:264|376:260,1,64.9999976158143,2|0,0:0|0:0,0:0:0:0:
280,344,42751,2,0,P|248:346|212:336,1,64.9999976158143,8|0,0:0|0:0,0:0:0:0:
64,236,42985,2,0,P|92:220|120:184,1,64.9999976158143,2|0,0:0|0:0,0:0:0:0:
172,44,43220,6,0,P|194:77|220:96,1,64.9999976158143,2|0,0:0|0:0,0:0:0:0:
288,116,43454,1,2,0:0:0:0:
288,116,43688,1,8,0:0:0:0:
160,328,43923,2,0,P|180:297|224:264,1,64.9999976158143,2|2,0:0|0:0,0:0:0:0:
336,196,44157,2,2,P|350:188|376:180,2,32.4999988079071
264,184,44391,2,0,L|120:172,2,129.999995231629,2|8|2,0:0|0:0|0:0,0:0:0:0:
444,344,45095,6,0,L|476:196,1,129.999995231629,2|2,0:0|0:0,0:0:0:0:
412,176,45446,2,2,L|440:136,2,32.4999988079071,0|0|8,0:0|0:0|0:0,0:0:0:0:
348,208,45680,1,2,0:0:0:0:
280,232,45798,1,2,0:0:0:0:
208,236,45915,1,2,0:0:0:0:
136,228,46032,2,0,P|108:215|72:208,1,64.9999976158143,2|0,0:0|0:0,0:0:0:0:
12,92,46266,2,0,P|44:82|80:64,1,64.9999976158143,2|0,0:0|0:0,0:0:0:0:
224,28,46501,2,0,P|296:20|368:40,1,129.999995231629,8|2,0:0|0:0,0:0:0:0:
404,80,46852,1,2,0:0:0:0:
472,60,46970,6,0,L|400:176,1,129.999995231629,2|0,0:0|0:0,0:0:0:0:
408,240,47321,2,2,L|444:252,2,32.4999988079071,0|0|8,0:0|0:0|0:0,0:0:0:0:
340,264,47555,1,2,0:0:0:0:
296,208,47673,1,2,0:0:0:0:
232,240,47790,1,2,0:0:0:0:
196,180,47907,2,0,P|232:116|300:100,1,129.999995231629,2|2,0:0|0:0,0:0:0:0:
212,96,48259,1,2,0:0:0:0:
144,76,48376,1,8,0:0:0:0:
96,24,48493,1,2,0:0:0:0:
144,76,48610,1,2,0:0:0:0:
156,148,48727,1,2,0:0:0:0:
132,216,48845,6,0,L|88:280,1,64.9999976158143,2|0,0:0|0:0,0:0:0:0:
264,216,49079,2,0,P|297:202|336:200,1,64.9999976158143,2|0,0:0|0:0,0:0:0:0:
492,128,49313,2,0,P|461:127|420:104,1,64.9999976158143,8|0,0:0|0:0,0:0:0:0:
472,276,49548,2,0,L|496:340,1,64.9999976158143,2|0,0:0|0:0,0:0:0:0:
356,176,49782,2,0,L|308:48,1,129.999995231629,2|0,0:0|0:0,0:0:0:0:
252,144,50134,1,2,0:0:0:0:
252,144,50251,2,0,P|180:96|124:96,1,129.999995231629,8|0,0:0|0:0,0:0:0:0:
252,336,50720,6,0,P|320:284|400:296,2,155.999989517212,6|2|2,0:0|0:0|0:0,0:0:0:0:
48,176,51423,2,0,L|28:92,1,77.9999947586062,2|2,0:0|0:0,0:0:0:0:
72,200,51657,2,0,L|120:40,1,155.999989517212,2|2,0:0|0:0,0:0:0:0:
160,172,52009,1,2,0:0:0:0:
160,172,52126,2,0,P|216:108|260:88,1,77.9999947586062,2|0,0:0|0:0,0:0:0:0:
412,84,52360,2,0,P|373:71|336:40,1,77.9999947586062,2|0,0:0|0:0,0:0:0:0:
388,164,52595,6,0,P|356:240|384:332,2,155.999989517212,2|2|2,0:0|0:0|0:0,0:0:0:0:
212,336,53298,2,0,P|178:312|136:300,1,77.9999947586062,2|2,0:0|0:0,0:0:0:0:
256,348,53532,2,0,P|228:264|248:192,1,155.999989517212,2|2,0:0|0:0,0:0:0:0:
252,116,53884,1,2,0:0:0:0:
252,116,54001,2,0,P|204:192|140:224,2,155.999989517212,2|2|2,0:0|0:0|0:0,0:0:0:0:
476,180,54704,5,2,0:0:0:0:
392,196,54821,1,2,0:0:0:0:
328,252,54938,1,2,0:0:0:0:
260,304,55055,1,2,0:0:0:0:
172,312,55173,1,2,0:0:0:0:
96,272,55290,2,2,L|56:288,2,38.9999973793031
184,40,55641,2,2,L|96:24,2,77.9999947586062
440,104,56110,2,2,L|360:120,1,77.9999947586062
308,188,56345,5,2,0:0:0:0:
316,200,56579,1,2,0:0:0:0:
324,212,56813,1,2,0:0:0:0:
220,88,57282,1,2,0:0:0:0:
212,100,57516,1,2,0:0:0:0:
204,112,57751,2,2,L|120:116,1,77.9999947586062
52,160,57985,2,2,L|136:156,1,77.9999947586062
212,248,58220,6,0,B|176:252|176:252|110:306|110:306|56:320,2,155.999989517212,2|2|2,0:0|0:0|0:0,0:0:0:0:
452,48,58923,1,2,0:0:0:0:
452,48,59040,1,2,0:0:0:0:
452,48,59157,2,0,L|472:216,1,155.999989517212,2|2,0:0|0:0,0:0:0:0:
368,112,59509,1,2,0:0:0:0:
368,112,59626,2,0,L|384:208,1,77.9999947586062,2|0,0:0|0:0,0:0:0:0:
320,344,59860,2,0,L|304:248,1,77.9999947586062,2|0,0:0|0:0,0:0:0:0:
280,348,60095,6,0,P|200:304|128:308,2,155.999989517212,2|2|2,0:0|0:0|0:0,0:0:0:0:
168,120,60798,1,2,0:0:0:0:
197,39,60915,1,2,0:0:0:0:
252,105,61032,2,0,P|192:157|204:249,1,155.999989517212,2|0,0:0|0:0,0:0:0:0:
232,305,61384,1,2,0:0:0:0:
232,305,61501,2,0,P|140:261|88:281,1,155.999989517212,2|2,0:0|0:0,0:0:0:0:
152,213,61852,1,2,0:0:0:0:
152,213,61970,6,0,P|188:133|148:69,1,155.999989517212,2|2,0:0|0:0,0:0:0:0:
228,129,62321,1,0,0:0:0:0:
300,173,62438,1,2,0:0:0:0:
384,181,62555,1,2,0:0:0:0:
464,149,62673,1,2,0:0:0:0:
488,69,62790,1,2,0:0:0:0:
420,17,62907,2,0,P|377:17|328:37,1,77.9999947586062,2|0,0:0|0:0,0:0:0:0:
248,152,63141,2,0,P|208:168|156:172,1,77.9999947586062,2|2,0:0|0:0,0:0:0:0:
64,312,63376,2,0,P|104:296|156:292,1,77.9999947586062,2|2,0:0|0:0,0:0:0:0:
224,308,63610,1,2,0:0:0:0:
308,328,63727,1,2,0:0:0:0:
392,312,63845,6,0,P|432:232|404:168,1,155.999989517212,2|0,0:0|0:0,0:0:0:0:
340,124,64196,2,2,L|376:96,2,38.9999973793031
100,40,64548,1,2,0:0:0:0:
156,104,64665,1,2,0:0:0:0:
108,172,64782,2,0,B|79:193|79:193|60:240,1,77.9999947586062,2|0,0:0|0:0,0:0:0:0:
160,344,65016,2,0,L|196:256,1,77.9999947586062,2|0,0:0|0:0,0:0:0:0:
316,144,65251,2,0,L|280:232,1,77.9999947586062,2|2,0:0|0:0,0:0:0:0:
372,236,65485,1,2,0:0:0:0:
432,176,65602,1,2,0:0:0:0:
428,88,65720,6,0,P|360:40|264:48,2,155.999989517212,6|2|2,0:0|0:0|0:0,0:0:0:0:
296,340,66423,2,0,P|330:317|384:312,1,77.9999947586062,2|2,0:0|0:0,0:0:0:0:
452,328,66657,2,0,P|406:293|360:184,1,155.999989517212,2|0,0:0|0:0,0:0:0:0:
292,256,67009,1,2,0:0:0:0:
292,256,67126,2,0,P|232:212|212:208,1,77.9999947586062,2|0,0:0|0:0,0:0:0:0:
48,196,67360,2,0,P|85:179|124:144,1,77.9999947586062,2|0,0:0|0:0,0:0:0:0:
240,36,67595,6,0,P|144:20|76:48,2,155.999989517212,2|2|2,0:0|0:0|0:0,0:0:0:0:
476,192,68298,1,2,0:0:0:0:
396,224,68415,1,2,0:0:0:0:
476,192,68532,2,0,P|492:108|444:40,1,155.999989517212,2|2,0:0|0:0,0:0:0:0:
396,132,68884,1,2,0:0:0:0:
396,132,69001,2,0,P|328:80|240:80,2,155.999989517212,2|2|2,0:0|0:0|0:0,0:0:0:0:
212,340,69704,6,0,P|243:317|292:316,1,77.9999947586062,2|2,0:0|0:0,0:0:0:0:
368,312,69938,2,0,P|406:308|437:285,1,77.9999947586062,2|2,0:0|0:0,0:0:0:0:
460,204,70173,1,2,0:0:0:0:
440,120,70290,2,2,L|472:88,2,38.9999973793031
100,64,70641,5,2,0:0:0:0:
100,64,70759,1,2,0:0:0:0:
100,64,70876,2,0,L|176:224,1,155.999989517212,2|2,0:0|0:0,0:0:0:0:
228,96,71227,1,2,0:0:0:0:
228,96,71345,6,0,L|176:268,2,155.999989517212,2|2|2,0:0|0:0|0:0,0:0:0:0:
292,156,71930,1,2,0:0:0:0:
380,156,72048,1,2,0:0:0:0:
456,120,72165,1,2,0:0:0:0:
508,52,72282,2,0,L|484:224,1,155.999989517212,2|0,0:0|0:0,0:0:0:0:
416,256,72634,1,2,0:0:0:0:
444,336,72751,1,2,0:0:0:0:
272,80,72985,1,2,0:0:0:0:
44,260,73220,6,0,P|120:212|196:212,2,155.999989517212,2|2|2,0:0|0:0|0:0,0:0:0:0:
384,56,73923,1,2,0:0:0:0:
384,56,74040,1,2,0:0:0:0:
384,56,74157,2,0,P|308:96|236:96,1,155.999989517212,2|2,0:0|0:0,0:0:0:0:
312,144,74509,1,2,0:0:0:0:
312,144,74626,2,0,P|224:116|144:124,1,155.999989517212,2|2,0:0|0:0,0:0:0:0:
352,340,75095,6,0,B|384:340|384:340|456:272|456:272|500:268,2,155.999989517212,2|2|2,0:0|0:0|0:0,0:0:0:0:
216,248,75798,2,0,P|176:224|148:188,1,77.9999947586062,2|2,0:0|0:0,0:0:0:0:
196,288,76032,2,0,P|256:232|340:216,1,155.999989517212,2|2,0:0|0:0,0:0:0:0:
244,192,76384,1,2,0:0:0:0:
244,192,76501,2,0,P|164:152|84:160,1,155.999989517212,2|2,0:0|0:0,0:0:0:0:
176,116,76852,1,2,0:0:0:0:
176,116,76970,6,0,P|264:88|312:32,1,155.999989517212,2|0,0:0|0:0,0:0:0:0:
268,120,77321,1,2,0:0:0:0:
276,204,77438,1,2,0:0:0:0:
312,280,77555,1,2,0:0:0:0:
396,304,77673,1,2,0:0:0:0:
480,288,77790,1,2,0:0:0:0:
504,204,77907,2,0,P|408:180|340:200,2,155.999989517212,2|2|2,0:0|0:0|0:0,0:0:0:0:
120,336,78610,5,2,0:0:0:0:
172,268,78727,1,2,0:0:0:0:
172,180,78845,2,0,L|88:196,1,77.9999947586062,2|0,0:0|0:0,0:0:0:0:
348,216,79079,6,0,L|264:232,1,77.9999947586062,2|0,0:0|0:0,0:0:0:0:
376,240,79313,2,0,L|392:324,1,77.9999947586062,2|0,0:0|0:0,0:0:0:0:
392,204,79548,2,0,L|476:188,1,77.9999947586062,2|0,0:0|0:0,0:0:0:0:
280,152,79782,2,0,L|456:116,1,155.999989517212,2|2,0:0|0:0,0:0:0:0:
176,48,80251,5,2,0:0:0:0:
144,76,95251,5,2,0:0:0:0:
124,108,95368,1,2,0:0:0:0:
112,144,95485,1,2,0:0:0:0:
112,184,95602,1,2,0:0:0:0:
120,224,95720,2,0,P|184:272|244:280,2,129.999995231629,2|0|0,0:0|0:0|0:0,0:0:0:0:
320,72,96423,5,2,0:0:0:0:
284,60,96540,1,2,0:0:0:0:
252,36,96657,1,2,0:0:0:0:
324,252,96891,5,2,0:0:0:0:
340,216,97009,1,2,0:0:0:0:
368,188,97126,1,2,0:0:0:0:
404,172,97243,1,2,0:0:0:0:
444,172,97360,1,2,0:0:0:0:
480,184,97477,1,2,0:0:0:0:
508,212,97595,2,0,P|480:144|488:88,1,129.999995231629,2|2,0:0|0:0,0:0:0:0:
504,56,97946,5,2,0:0:0:0:
472,32,98063,1,2,0:0:0:0:
432,28,98180,1,2,0:0:0:0:
392,36,98298,1,2,0:0:0:0:
360,56,98415,2,2,L|316:40,2,32.4999988079071
352,92,98649,1,2,0:0:0:0:
328,120,98766,1,2,0:0:0:0:
292,132,98884,1,2,0:0:0:0:
256,124,99001,2,0,P|192:96|136:108,1,129.999995231629,2|2,0:0|0:0,0:0:0:0:
104,132,99352,1,2,0:0:0:0:
96,172,99470,6,0,L|128:316,1,129.999995231629,2|2,0:0|0:0,0:0:0:0:
160,312,99821,1,2,0:0:0:0:
196,324,99938,1,2,0:0:0:0:
408,188,100173,5,2,0:0:0:0:
372,204,100290,1,2,0:0:0:0:
336,220,100407,1,2,0:0:0:0:
144,48,100641,5,2,0:0:0:0:
184,52,100759,1,2,0:0:0:0:
220,60,100876,1,2,0:0:0:0:
252,80,100993,1,2,0:0:0:0:
284,104,101110,1,2,0:0:0:0:
300,140,101227,1,2,0:0:0:0:
304,180,101345,5,2,0:0:0:0:
268,196,101462,1,2,0:0:0:0:
288,228,101579,1,2,0:0:0:0:
256,248,101696,1,2,0:0:0:0:
264,284,101813,1,2,0:0:0:0:
224,280,101930,1,2,0:0:0:0:
220,320,102048,1,2,0:0:0:0:
184,304,102165,1,2,0:0:0:0:
168,340,102282,2,2,L|172:372,4,32.4999988079071
140,312,102634,5,2,0:0:0:0:
112,336,102751,2,0,P|64:288|64:216,1,129.999995231629,2|2,0:0|0:0,0:0:0:0:
156,28,103220,2,0,P|204:76|204:148,1,129.999995231629,2|2,0:0|0:0,0:0:0:0:
192,172,103571,1,2,0:0:0:0:
164,200,103688,1,2,0:0:0:0:
324,336,103923,1,2,0:0:0:0:
464,136,104157,2,0,L|392:152,1,64.9999976158143,2|2,0:0|0:0,0:0:0:0:
376,176,104391,2,2,L|336:168,3,32.4999988079071
324,164,104626,2,0,P|276:212|280:288,1,129.999995231629,2|2,0:0|0:0,0:0:0:0:
112,96,105095,5,2,0:0:0:0:
124,60,105212,1,2,0:0:0:0:
156,84,105329,1,2,0:0:0:0:
176,52,105446,1,2,0:0:0:0:
204,76,105563,1,2,0:0:0:0:
232,48,105680,1,2,0:0:0:0:
252,84,105798,1,2,0:0:0:0:
280,60,105915,1,2,0:0:0:0:
320,52,106032,6,0,L|392:40,1,64.9999976158143,2|0,0:0|0:0,0:0:0:0:
308,160,106266,2,0,L|380:148,1,64.9999976158143,2|0,0:0|0:0,0:0:0:0:
332,236,106501,2,0,L|220:164,1,129.999995231629,2|2,0:0|0:0,0:0:0:0:
188,148,106852,1,2,0:0:0:0:
148,144,106970,5,2,0:0:0:0:
244,340,107204,2,2,L|204:344,3,32.4999988079071
192,344,107438,1,2,0:0:0:0:
156,332,107555,1,2,0:0:0:0:
124,308,107673,1,2,0:0:0:0:
108,272,107790,1,2,0:0:0:0:
72,288,107907,5,2,0:0:0:0:
72,248,108024,1,2,0:0:0:0:
96,216,108141,1,2,0:0:0:0:
132,196,108259,1,2,0:0:0:0:
172,196,108376,1,2,0:0:0:0:
208,208,108493,1,2,0:0:0:0:
236,236,108610,1,2,0:0:0:0:
248,272,108727,1,2,0:0:0:0:
240,312,108845,5,2,0:0:0:0:
432,228,109079,1,2,0:0:0:0:
180,160,109313,1,2,0:0:0:0:
392,104,109548,1,2,0:0:0:0:
264,20,109782,1,2,0:0:0:0:
276,32,110251,1,2,0:0:0:0:
80,316,110720,6,0,L|240:288,2,155.999989517212,6|2|2,0:0|0:0|0:0,0:0:0:0:
48,80,111423,2,0,L|28:172,2,77.9999947586062,2|2|2,0:0|0:0|0:0,0:0:0:0:
216,44,111891,2,0,L|196:136,1,77.9999947586062,2|2,0:0|0:0,0:0:0:0:
176,204,112126,2,0,L|320:80,1,155.999989517212,2|2,0:0|0:0,0:0:0:0:
340,268,112595,5,2,0:0:0:0:
120,132,112829,1,0,0:0:0:0:
208,292,113063,2,0,P|304:308|352:356,1,155.999989517212,2|2,0:0|0:0,0:0:0:0:
340,268,113415,1,2,0:0:0:0:
340,268,113532,2,0,P|328:176|372:112,1,155.999989517212,2|2,0:0|0:0,0:0:0:0:
420,64,113884,1,2,0:0:0:0:
420,64,114001,2,0,L|344:28,1,77.9999947586062,2|2,0:0|0:0,0:0:0:0:
220,144,114235,2,0,L|136:168,1,77.9999947586062,2|0,0:0|0:0,0:0:0:0:
232,160,114470,6,0,P|272:232|256:308,1,155.999989517212,2|2,0:0|0:0,0:0:0:0:
188,348,114821,1,2,0:0:0:0:
104,336,114938,1,2,0:0:0:0:
48,272,115055,1,2,0:0:0:0:
44,184,115173,1,2,0:0:0:0:
104,124,115290,1,2,0:0:0:0:
104,124,115348,1,2,0:0:0:0:
104,124,115407,2,0,B|160:104|192:164|284:104,1,155.999989517212,2|2,0:0|0:0,0:0:0:0:
204,52,115759,1,2,0:0:0:0:
204,52,115876,2,0,P|288:32|360:52,1,155.999989517212,2|2,0:0|0:0,0:0:0:0:
440,40,116227,1,2,0:0:0:0:
440,40,116345,6,0,P|376:68|372:168,1,155.999989517212,2|2,0:0|0:0,0:0:0:0:
360,146,116813,1,2,0:0:0:0:
76,340,117282,2,0,B|52:312|52:312|56:232|56:232|20:180,1,155.999989517212,2|0,0:0|0:0,0:0:0:0:
228,32,117751,2,0,B|205:64|205:64|209:144|209:144|185:172,2,155.999989517212,2|2|6,0:0|0:0|0:0,0:0:0:0:
104,152,118454,5,2,0:0:0:0:
360,88,118688,1,2,0:0:0:0:
248,320,118923,2,0,P|290:321|336:300,1,77.9999947586062,2|2,0:0|0:0,0:0:0:0:
400,344,119157,2,0,P|348:264|356:192,1,155.999989517212,2|2,0:0|0:0,0:0:0:0:
388,128,119509,1,2,0:0:0:0:
388,128,119626,2,0,L|256:240,1,155.999989517212,2|2,0:0|0:0,0:0:0:0:
60,40,120095,6,0,P|144:16|216:68,1,155.999989517212,2|2,0:0|0:0,0:0:0:0:
200,46,120563,1,2,0:0:0:0:
56,268,120798,1,2,0:0:0:0:
56,268,120915,1,2,0:0:0:0:
56,268,121032,2,0,L|212:328,1,155.999989517212,2|0,0:0|0:0,0:0:0:0:
140,208,121384,1,2,0:0:0:0:
140,208,121501,2,0,L|240:328,1,155.999989517212,2|2,0:0|0:0,0:0:0:0:
228,244,121852,1,2,0:0:0:0:
204,160,121970,1,2,0:0:0:0:
472,56,122204,5,2,0:0:0:0:
420,124,122321,1,2,0:0:0:0:
336,144,122438,1,2,0:0:0:0:
260,100,122555,1,2,0:0:0:0:
184,60,122673,1,2,0:0:0:0:
100,68,122790,1,2,0:0:0:0:
24,108,122907,2,0,P|16:200|48:264,2,155.999989517212,2|2|2,0:0|0:0|0:0,0:0:0:0:
188,52,123610,2,0,L|224:132,1,77.9999947586062,2|2,0:0|0:0,0:0:0:0:
372,52,123845,6,0,L|280:188,1,155.999989517212,2|0,0:0|0:0,0:0:0:0:
216,224,124196,2,2,L|248:180,2,38.9999973793031
352,328,124548,2,0,L|440:328,1,77.9999947586062,2|2,0:0|0:0,0:0:0:0:
296,256,124782,1,2,0:0:0:0:
24,352,125016,1,2,0:0:0:0:
176,204,125251,2,0,P|172:288|224:336,1,155.999989517212,2|2,0:0|0:0,0:0:0:0:
140,304,125602,1,2,0:0:0:0:
60,336,125720,5,6,0:0:0:0:
228,60,125954,1,2,0:0:0:0:
32,216,126188,2,0,B|64:184|64:184|188:168,1,155.999989517212,2|2,0:0|0:0,0:0:0:0:
60,104,126540,1,2,0:0:0:0:
60,104,126657,2,0,L|216:148,1,155.999989517212,2|2,0:0|0:0,0:0:0:0:
128,32,127009,1,2,0:0:0:0:
128,32,127126,2,0,L|248:144,1,155.999989517212,2|0,0:0|0:0,0:0:0:0:
460,328,127595,6,0,P|384:304|296:312,2,155.999989517212,2|2|2,0:0|0:0|0:0,0:0:0:0:
336,152,128298,2,0,P|369:127|408:120,1,77.9999947586062,2|2,0:0|0:0,0:0:0:0:
324,136,128532,2,0,P|232:112|180:64,1,155.999989517212,2|2,0:0|0:0,0:0:0:0:
236,200,128884,1,2,0:0:0:0:
236,200,129001,2,0,P|176:132|108:108,1,155.999989517212,2|2,0:0|0:0,0:0:0:0:
116,109,129470,1,2,0:0:0:0:
32,328,129704,6,0,P|70:337|108:360,1,77.9999947586062,2|0,0:0|0:0,0:0:0:0:
244,288,129938,2,0,P|283:274|316:256,1,77.9999947586062,2|0,0:0|0:0,0:0:0:0:
368,188,130173,1,2,0:0:0:0:
384,104,130290,2,2,P|388:80|384:48,2,38.9999973793031
72,208,130641,1,2,0:0:0:0:
72,208,130759,1,2,0:0:0:0:
72,208,130876,1,2,0:0:0:0:
424,312,131110,1,2,0:0:0:0:
424,312,131227,1,2,0:0:0:0:
424,312,131345,5,2,0:0:0:0:
256,348,131579,1,2,0:0:0:0:
256,176,131813,1,2,0:0:0:0:
88,76,132282,5,2,0:0:0:0:
164,232,132516,1,2,0:0:0:0:
40,348,132751,2,2,L|124:332,1,77.9999947586062,2|0,0:0|0:0,0:0:0:0:
264,228,132985,2,0,L|348:212,1,77.9999947586062,2|0,0:0|0:0,0:0:0:0:
472,72,133220,6,0,P|380:48|312:80,2,155.999989517212,6|2|2,0:0|0:0|0:0,0:0:0:0:
356,324,133923,1,2,0:0:0:0:
356,324,134040,1,2,0:0:0:0:
356,324,134157,2,0,P|420:272|448:196,1,155.999989517212,2|2,0:0|0:0,0:0:0:0:
324,348,134509,1,2,0:0:0:0:
324,348,134626,2,0,P|336:248|288:184,2,155.999989517212,2|2|2,0:0|0:0|0:0,0:0:0:0:
72,272,135329,6,0,P|103:251|152:240,1,77.9999947586062,2|0,0:0|0:0,0:0:0:0:
276,136,135563,2,0,P|239:117|208:88,1,77.9999947586062,2|0,0:0|0:0,0:0:0:0:
160,24,135798,1,2,0:0:0:0:
160,24,135915,1,2,0:0:0:0:
160,24,136032,2,0,P|184:96|180:196,1,155.999989517212,2|2,0:0|0:0,0:0:0:0:
232,104,136384,1,2,0:0:0:0:
232,104,136501,2,0,P|324:60|400:72,1,155.999989517212,2|2,0:0|0:0,0:0:0:0:
452,100,136852,1,2,0:0:0:0:
496,176,136970,1,2,0:0:0:0:
152,344,137204,5,2,0:0:0:0:
216,288,137321,1,2,0:0:0:0:
300,280,137438,1,2,0:0:0:0:
376,316,137555,1,2,0:0:0:0:
460,304,137673,1,2,0:0:0:0:
500,228,137790,1,2,0:0:0:0:
460,152,137907,2,0,B|396:88|396:88|396:16,2,155.999989517212,2|2|2,0:0|0:0|0:0,0:0:0:0:
72,280,138610,5,2,0:0:0:0:
136,224,138727,1,2,0:0:0:0:
156,140,138845,2,0,L|68:120,1,77.9999947586062,2|0,0:0|0:0,0:0:0:0:
160,88,139079,2,0,L|248:108,1,77.9999947586062,2|0,0:0|0:0,0:0:0:0:
342,172,139313,6,0,L|360:96,1,77.9999947586062,2|0,0:0|0:0,0:0:0:0:
275,278,139548,2,0,L|352:296,1,77.9999947586062,2|0,0:0|0:0,0:0:0:0:
169,211,139782,2,0,L|152:288,1,77.9999947586062,2|0,0:0|0:0,0:0:0:0:
256,184,140016,2,0,L|256:20,1,155.999989517212,2|6,0:0|0:0,0:0:0:0:
