osu file format v14

[General]
AudioFilename: M2U Magnolia.mp3
AudioLeadIn: 0
PreviewTime: 76153
Countdown: 0
SampleSet: Normal
StackLeniency: 0.7
Mode: 0
LetterboxInBreaks: 0
StoryFireInFront: 0
EpilepsyWarning: 1
WidescreenStoryboard: 1

[Editor]
Bookmarks: 2653,14653,28153,40153,52153,70153,82153,94153,106153,118153,136153,151059
DistanceSpacing: 1
BeatDivisor: 4
GridSize: 4
TimelineZoom: 1

[Metadata]
Title:Magnolia
TitleUnicode:Magnolia
Artist:M2U
ArtistUnicode:M2U
Creator:-Napoleon-
Version:Normal
Source:Deemo
Tags:Guriri Flower Cry OnosakiHito Tree
BeatmapID:381328
BeatmapSetID:154973

[Difficulty]
HPDrainRate:4
CircleSize:3.5
OverallDifficulty:4
ApproachRate:4
SliderMultiplier:1.1
SliderTickRate:1

[Events]
//Background and Video events
0,0,"wallpaper-871450.jpg",0,0
//Break Periods
2,14853,26458
2,70353,77833
//Storyboard Layer 0 (Background)
Sprite,Background,Centre,"wallpaper-871450.jpg",320,240 S,0,-1847,,0.6266667 F,0,-1847,149653,1
//Storyboard Layer 1 (Fail)
//Storyboard Layer 2 (Pass)
//Storyboard Layer 3 (Foreground)
Sprite,Foreground,Centre,"SB/Light2.png",320,240 M,0,52153,,320,240 F,2,52153,55153,0,1 S,1,52153,70153,1.469333,1.885333 R,1,52153,70153,0,1.514667 F,0,55153,70153,1
Sprite,Foreground,Centre,"SB/Flash.png",320,240 S,0,40153,,0.4453333 F,0,40153,41653,1,0.03200001 F,0,46153,47653,1,0 F,0,52153,53653,1,0 S,0,52153,53653,0.4453333,0.484 F,0,70153,71653,1,0 S,0,70153,71653,0.4453333,0.5053333
Sprite,Foreground,Centre,"SB/Black.jpg",320,240 M,0,-1847,,320,240 F,0,-1847,,1 S,0,-1847,,1.50271 F,0,2653,14653,0.5786667,0.6906667 F,0,14746,,0 F,0,70153,76153,0,0.6399999 F,0,76153,82153,0.6399999,0.6386132
Sprite,Foreground,Centre,"SB/Light.png",320,240 L,0,0 L,0,2 F,0,8653,10153,0.4933332,0 F,0,10153,11653,0 M,0,8653,,332,262 S,0,8653,,2.056 R,0,8653,,0 R,0,11653,,-1.578667
Sprite,Foreground,Centre,"SB/Ring.png",320,240 L,0,0 L,0,2 F,1,8653,10153,1,0 S,1,8653,10153,0.1,0.9106667 F,0,10153,11653,0
Sprite,Foreground,Centre,"SB/White.jpg",320,240 S,0,2653,,1.426667 F,0,2653,4153,1,0.01066667 F,0,5465,5653,0,0.3413335 F,0,5653,7153,0.3413335,0 F,0,14653,16153,1,0
Sprite,Foreground,Centre,"SB/wave 01.png",320,240 S,0,70153,,1.309333 F,0,70153,76153,0,1 M,0,70153,82153,196,366,405,374
Sprite,Foreground,Centre,"SB/Ring.png",320,240 F,0,81590,82153,1,0 S,0,81590,82153,0.1725513,0.7013335
Sprite,Foreground,Centre,"SB/OP effect.png",320,240 F,0,81590,82153,1,0 S,0,81590,82153,1,1.149333
Sprite,Foreground,Centre,"SB/SNOW.png",320,240 S,0,70153,,2.194666 F,0,70153,76153,0,1 M,0,70153,82153,324,457,321,-62 F,0,76153,81590,1 F,0,81590,82153,1,0
Sprite,Foreground,Centre,"SB/White.jpg",320,240 S,0,81590,,1.405333 F,0,81590,82153,0.4613334,0
Sprite,Foreground,Centre,"SB/White.jpg",320,240 F,0,69965,70153,0,0.568 S,0,70153,,1.394667 F,0,70153,70528,0.568,0 F,0,82153,83653,1,0
Sprite,Foreground,Centre,"SB/Black.jpg",320,240 S,0,136153,,1.501333 F,0,136153,146653,0.728 F,0,146653,148153,0.728,0
Sprite,Foreground,Centre,"SB/White.jpg",320,240 M,0,136153,,320,240 S,0,136153,,1.373333 F,0,136153,137653,1,0
Sprite,Foreground,Centre,"SB/Flash.png",320,240 T,HitSoundClap,82153,106153 F,0,0,375,1,0 S,0,0,375,0.4453333,0.484
//Storyboard Sound Samples

[TimingPoints]
2653,375,4,2,2,100,1,0
40153,-100,4,1,2,50,0,0
40246,-100,4,2,2,100,0,0
46153,-100,4,1,2,50,0,0
46246,-100,4,2,2,100,0,0
52153,-100,4,1,2,50,0,1
52246,-100,4,2,2,100,0,0
58153,-100,4,1,2,50,0,0
58246,-100,4,2,2,100,0,0
68371,-100,4,2,2,5,0,0
70153,-100,4,1,2,50,0,1
70246,-100,4,2,2,100,0,0
82153,-66.6666666666667,4,1,2,50,0,1
83653,-66.6666666666667,4,1,1,75,0,1
83746,-66.6666666666667,4,1,2,50,0,1
85153,-66.6666666666667,4,1,1,75,0,1
85246,-66.6666666666667,4,1,2,50,0,1
86653,-66.6666666666667,4,1,1,75,0,1
86746,-66.6666666666667,4,1,2,50,0,1
89653,-66.6666666666667,4,1,1,75,0,1
89746,-66.6666666666667,4,1,2,50,0,1
91153,-66.6666666666667,4,1,1,75,0,1
91246,-66.6666666666667,4,1,1,50,0,1
92653,-66.6666666666667,4,2,1,100,0,1
92746,-66.6666666666667,4,1,2,50,0,1
93215,-66.6666666666667,4,2,1,100,0,1
93309,-66.6666666666667,4,1,2,50,0,1
93590,-66.6666666666667,4,2,1,100,0,1
93684,-66.6666666666667,4,1,2,50,0,1
94059,-66.6666666666667,4,2,2,100,0,0
94153,-66.6666666666667,4,1,2,50,0,1
95653,-66.6666666666667,4,1,1,75,0,1
95746,-66.6666666666667,4,1,2,50,0,1
97153,-66.6666666666667,4,1,1,75,0,1
97246,-66.6666666666667,4,1,2,50,0,1
98659,-66.6666666666667,4,1,1,75,0,1
98746,-66.6666666666667,4,1,2,50,0,1
100153,-66.6666666666667,4,1,1,100,0,1
100246,-66.6666666666667,4,1,2,50,0,1
101653,-66.6666666666667,4,1,1,100,0,1
101746,-66.6666666666667,4,1,2,50,0,1
103153,-66.6666666666667,4,2,1,100,0,1
103246,-66.6666666666667,4,1,2,50,0,1
103715,-66.6666666666667,4,2,1,100,0,1
103809,-66.6666666666667,4,1,2,50,0,1
104278,-66.6666666666667,4,2,1,100,0,1
104371,-66.6666666666667,4,1,2,50,0,1
104840,-66.6666666666667,4,2,1,100,0,1
104934,-66.6666666666667,4,1,2,50,0,1
106059,-100,4,1,2,100,0,0
106153,-100,4,1,2,50,0,1
106246,-100,4,2,2,100,0,0
118153,-100,4,1,2,75,0,1
118246,-100,4,2,2,100,0,0
124153,-100,4,1,2,75,0,0
124246,-100,4,2,2,100,0,0
136153,-100,4,1,2,75,0,1
136246,-100,4,2,2,100,0,0

[Colours]
Combo1 : 61,0,187
Combo2 : 255,128,255
Combo3 : 128,0,64
Combo4 : 255,0,128
Combo5 : 128,0,128
Combo6 : 255,0,128
Combo7 : 64,0,128
Combo8 : 64,0,64

[HitObjects]
68,56,2653,6,0,P|92:104|160:136,1,110,6|0,0:0|0:0,0:0:0:0:
236,184,3403,2,0,P|256:116|236:68,2,110,0|0|0,0:0|0:0|0:0,0:0:0:0:
164,268,4528,1,0,0:0:0:0:
84,344,4903,1,4,0:0:0:0:
288,264,5653,6,0,P|244:320|244:376,1,110,6|0,0:0|0:0,0:0:0:0:
348,332,6403,2,0,P|396:272|396:224,2,110
244,292,7528,1,0,0:0:0:0:
152,232,7903,1,4,0:0:0:0:
256,40,8653,6,0,P|204:84|156:92,1,110,6|0,0:0|0:0,0:0:0:0:
64,44,9403,2,0,P|56:104|84:152,2,110,8|0|0,0:0|0:0|0:0,0:0:0:0:
164,92,10528,2,0,P|172:168|140:196,1,110,4|8,0:0|0:0,0:0:0:0:
112,292,11278,1,0,0:0:0:0:
152,188,11653,6,0,P|236:180|276:204,1,110,6|0,0:0|0:0,0:0:0:0:
352,248,12403,1,8,0:0:0:0:
436,176,12778,1,0,0:0:0:0:
408,68,13153,1,0,0:0:0:0:
300,72,13528,1,4,0:0:0:0:
256,172,13903,2,0,P|224:240|96:196,1,220,8|4,0:0|1:0,0:0:0:0:
116,80,27778,6,0,P|156:120|212:116,1,110,0|4,0:0|0:0,0:0:0:0:
300,60,28528,1,0,0:0:0:0:
404,92,28903,2,0,P|364:144|320:164,1,110,4|0,0:0|0:0,0:0:0:0:
216,156,29653,2,0,P|220:212|268:256,2,110,4|0|4,0:0|0:0|0:0,0:0:0:0:
168,56,31153,6,0,P|112:100|100:148,1,110,4|0,0:0|0:0,0:0:0:0:
128,240,31903,1,4,0:0:0:0:
216,308,32278,1,0,0:0:0:0:
324,304,32653,2,0,P|324:240|288:184,2,110,4|0|4,0:0|0:0|0:0,0:0:0:0:
240,372,33778,1,0,0:0:0:0:
348,380,34153,6,0,P|388:332|404:268,1,110,6|0,0:0|0:0,0:0:0:0:
384,180,34903,2,0,P|312:224|316:264,1,110,4|0,0:0|0:0,0:0:0:0:
232,320,35653,2,0,P|200:252|208:208,2,110,4|0|4,0:0|0:0|0:0,0:0:0:0:
336,352,36778,1,0,0:0:0:0:
312,244,37153,2,0,P|364:164|296:72,1,220,2|4,0:0|0:0,0:0:0:0:
240,164,38278,1,0,0:0:0:0:
180,72,38653,2,0,P|115:153|167:242,1,220,2|4,0:0|0:0,0:0:0:0:
440,224,40153,6,0,B|344:276|344:276|332:336|264:352,1,220,4|8,0:0|0:0,0:0:0:0:
236,244,41278,1,0,0:0:0:0:
132,212,41653,2,0,P|156:156|216:136,2,110,0|8|8,0:0|0:0|0:0,0:0:0:0:
260,32,43153,2,0,P|324:132|280:212,1,220,0|8,0:0|0:0,0:0:0:0:
192,280,44278,1,0,0:0:0:0:
84,272,44653,2,0,P|92:212|156:184,1,110,0|8,0:0|0:0,0:0:0:0:
164,80,45403,2,0,P|216:128|232:184,1,110,8|0,0:0|0:0,0:0:0:0:
232,272,46153,6,0,P|296:240|320:104,1,220,4|8,0:0|0:0,0:0:0:0:
232,40,47278,1,0,0:0:0:0:
124,56,47653,2,0,P|152:112|208:136,1,110,0|8,0:0|0:0,0:0:0:0:
300,120,48403,1,8,0:0:0:0:
404,312,49153,2,0,P|308:344|256:248,1,220,0|8,0:0|0:0,0:0:0:0:
288,144,50278,2,0,P|336:160|360:220,1,110
220,204,51028,1,8,0:0:0:0:
192,96,51403,1,8,0:0:0:0:
288,144,51778,1,0,0:0:0:0:
208,224,52153,6,0,P|172:260|56:224,2,165,0|8|8,0:0|0:0|0:0,0:0:0:0:
128,160,53653,2,0,P|114:110|204:28,2,165,0|8|8,0:0|0:0|0:0,0:0:0:0:
224,112,55153,2,0,P|273:125|299:243,1,165,0|8,0:0|0:0,0:0:0:0:
176,336,56278,1,8,0:0:0:0:
80,304,56653,2,0,P|116:244|216:240,2,165,0|8|8,0:0|0:0|0:0,0:0:0:0:
192,320,58153,6,0,B|128:268|128:268|96:172,2,165,0|8|8,0:0|0:0|0:0,0:0:0:0:
208,208,59653,2,0,B|285:178|285:178|384:198,2,165,0|8|8,0:0|0:0|0:0,0:0:0:0:
304,272,61153,2,0,B|381:302|381:302|480:282,1,165,0|8,0:0|0:0,0:0:0:0:
400,128,62278,1,8,0:0:0:0:
372,20,62653,2,0,P|440:20|496:104,2,165,0|8|0,0:0|0:0|0:0,0:0:0:0:
400,128,64153,6,0,P|324:148|236:104,2,165,0|8|0,0:0|0:0|0:0,0:0:0:0:
448,276,66403,1,8,0:0:0:0:
244,352,67153,2,0,P|256:272|216:180,1,165
256,192,68278,12,4,70153,0:0:0:0:
104,64,79153,6,0,P|144:120|244:136,2,165,8|8|8,0:0|0:0|0:0,0:0:0:0:
212,56,80653,2,0,P|284:60|320:108,1,110,8|8,0:0|0:0,0:0:0:0:
332,136,81215,2,0,L|380:256,1,110,8|8,0:0|0:0,0:0:0:0:
140,328,82153,6,0,P|80:248|108:188,1,165.000006294251,12|0,0:0|0:0,0:0:0:0:
220,80,82903,1,8,0:0:0:0:
360,150,83278,2,0,P|316:218|240:244,1,165.000006294251,0|8,0:0|0:0,0:0:0:0:
220,80,84028,2,0,P|172:124|144:236,1,165.000006294251,0|10,0:0|0:0,0:0:0:0:
180,292,84590,1,2,0:0:0:0:
256,320,84778,2,0,P|316:332|348:300,1,82.5000031471254,2|8,0:0|0:0,0:0:0:0:
400,272,85153,1,2,0:0:0:0:
352,112,85528,5,0,0:0:0:0:
192,80,85903,1,8,0:0:0:0:
64,192,86278,2,0,P|128:248|216:240,1,165.000006294251,0|8,0:0|0:0,0:0:0:0:
288,224,86840,2,0,L|376:200,1,82.5000031471254,2|2,0:0|0:0,0:0:0:0:
352,288,87215,2,0,L|440:264,1,82.5000031471254,2|2,0:0|0:0,0:0:0:0:
448,192,87590,1,0,0:0:0:0:
448,112,87778,2,0,P|352:88|284:124,1,165.000006294251,0|12,0:0|0:0,0:0:0:0:
128,128,88528,5,0,0:0:0:0:
128,292,88903,1,8,0:0:0:0:
284,352,89278,1,0,0:0:0:0:
396,228,89653,1,8,0:0:0:0:
300,92,90028,1,0,0:0:0:0:
140,128,90403,2,0,L|168:224,1,82.5000031471254,10|2,0:0|0:0,0:0:0:0:
80,204,90778,2,0,L|108:300,1,82.5000031471254,10|2,0:0|0:0,0:0:0:0:
184,280,91153,6,0,P|252:280|320:200,1,165.000006294251,8|0,0:0|0:0,0:0:0:0:
408,76,91903,2,0,P|328:68|256:100,2,123.750004720688,8|0|0,0:0|0:0|0:0,0:0:0:0:
352,136,92653,1,4,0:0:0:0:
256,364,93215,1,4,0:0:0:0:
116,276,93590,2,0,P|124:192|200:124,1,165.000006294251,12|0,0:0|0:0,0:0:0:0:
216,60,94153,6,0,P|256:116|224:200,1,165.000006294251,12|0,0:0|0:0,0:0:0:0:
112,320,94903,1,8,0:0:0:0:
272,352,95278,1,0,0:0:0:0:
432,320,95653,1,8,0:0:0:0:
448,160,96028,2,0,P|392:148|344:52,1,165.000006294251,0|8,0:0|0:0,0:0:0:0:
256,208,96778,1,0,0:0:0:0:
172,58,97153,2,0,P|143:133|68:160,1,165.000006294251,8|0,0:0|0:0,0:0:0:0:
76,324,97903,6,0,P|120:280|216:292,1,165.000006294251,8|0,0:0|0:0,0:0:0:0:
256,132,98653,1,8,0:0:0:0:
296,291,99028,2,0,P|374:273|436:324,1,165.000006294251,0|8,0:0|0:0,0:0:0:0:
456,160,99778,1,0,0:0:0:0:
324,60,100153,2,0,P|272:112|280:200,1,165.000006294251,8|0,0:0|0:0,0:0:0:0:
128,268,100903,2,0,P|180:216|172:128,1,165.000006294251,8|0,0:0|0:0,0:0:0:0:
40,32,101653,5,8,0:0:0:0:
204,28,102028,2,0,P|240:76|272:192,1,165.000006294251
192,288,102684,1,0,0:0:0:0:
304,256,102965,1,0,0:0:0:0:
304,256,103153,5,4,0:0:0:0:
124,192,103715,1,4,0:0:0:0:
304,32,104278,2,0,P|348:140|304:260,1,247.500009441376,4|4,0:0|0:0,0:0:0:0:
64,304,105403,1,12,0:0:0:0:
160,112,106153,6,0,P|196:184|240:188,1,110,4|0,0:0|0:0,0:0:0:0:
304,272,106903,2,0,P|336:204|260:72,1,220,8|0,0:0|0:0,0:0:0:0:
176,112,108028,1,0,0:0:0:0:
64,128,108403,2,0,P|76:168|144:204,1,110,8|0,0:0|0:0,0:0:0:0:
240,160,109153,2,0,P|268:220|188:336,1,220,0|8,0:0|0:0,0:0:0:0:
112,256,110278,1,0,0:0:0:0:
64,160,110653,6,0,P|136:132|184:140,1,110,8|8,0:0|0:0,0:0:0:0:
224,240,111403,2,0,P|304:220|328:192,1,110,8|8,0:0|0:0,0:0:0:0:
416,144,112153,2,0,P|404:200|468:344,1,220,6|8,0:0|0:0,0:0:0:0:
352,336,113278,1,0,0:0:0:0:
240,320,113653,2,0,P|280:264|288:216,1,110,0|8,0:0|0:0,0:0:0:0:
256,112,114403,1,8,0:0:0:0:
160,64,114778,1,0,0:0:0:0:
64,112,115153,6,0,P|144:160|256:112,1,220,8|8,0:0|0:0,0:0:0:0:
336,48,116278,1,0,0:0:0:0:
400,144,116653,2,0,P|356:192|392:288,2,165,8|8|8,0:0|0:0|0:0,0:0:0:0:
320,76,118153,6,0,P|264:120|160:116,2,165,4|8|8,0:0|0:0|0:0,0:0:0:0:
212,56,119653,2,0,P|124:64|80:140,2,165,0|8|8,0:0|0:0|0:0,0:0:0:0:
180,160,121153,2,0,P|216:172|208:284,1,165,0|8,0:0|0:0,0:0:0:0:
376,320,122278,1,8,0:0:0:0:
440,232,122653,2,0,P|460:176|408:80,2,165,0|8|8,0:0|0:0|0:0,0:0:0:0:
360,156,124153,6,0,P|256:160|224:112,2,165,4|8|8,0:0|0:0|0:0,0:0:0:0:
300,64,125653,2,0,P|200:48|128:88,2,165,0|8|8,0:0|0:0|0:0,0:0:0:0:
212,128,127153,2,0,P|160:188|200:272,1,165,0|8,0:0|0:0,0:0:0:0:
332,336,128278,1,8,0:0:0:0:
424,276,128653,2,0,P|448:224|408:120,1,165,0|8,0:0|0:0,0:0:0:0:
152,40,130153,6,0,P|116:104|144:208,2,165,0|8|0,0:0|0:0|0:0,0:0:0:0:
388,268,132403,1,8,0:0:0:0:
244,104,133153,2,0,P|160:164|88:160,2,165,0|8|0,0:0|0:0|0:0,0:0:0:0:
256,192,134653,12,4,136153,0:0:0:0:
432,192,137278,6,0,P|332:228|216:212,1,220
116,244,138403,1,2,0:0:0:0:
196,320,138778,1,0,0:0:0:0:
304,332,139153,2,0,P|368:296|392:196,2,165,0|8|8,0:0|0:0|0:0,0:0:0:0:
256,192,140653,12,0,141778,0:0:0:0:
