osu file format v14

[General]
AudioFilename: Lunatic Sky.mp3
AudioLeadIn: 0
PreviewTime: 109516
Countdown: 0
SampleSet: None
StackLeniency: 0.7
Mode: 0
LetterboxInBreaks: 1
WidescreenStoryboard: 1

[Editor]
DistanceSpacing: 1
BeatDivisor: 4
GridSize: 4
TimelineZoom: 1.4

[Metadata]
Title:Lunatic Sky
TitleUnicode:Lunatic Sky
Artist:M2U
ArtistUnicode:M2U
Creator:sodarose
Version:AR9
Source:Rhythm Master
Tags:节奏大师 jie zou da shi
BeatmapID:701733
BeatmapSetID:194613

[Difficulty]
HPDrainRate:7
CircleSize:4
OverallDifficulty:8
ApproachRate:9.2
SliderMultiplier:2
SliderTickRate:1

[Events]
//Background and Video events
0,0,"BG.jpg",0,0
//Break Periods
//Storyboard Layer 0 (Background)
//Storyboard Layer 1 (Fail)
//Storyboard Layer 2 (Pass)
//Storyboard Layer 3 (Foreground)
//Storyboard Sound Samples

[TimingPoints]
16,375,4,2,1,70,1,0
1516,-133.333333333333,4,2,1,70,0,0
13516,-100,4,2,1,70,0,0
22516,-83.3333333333333,4,2,1,70,0,0
23641,-100,4,2,1,70,0,0
36016,-142.857142857143,4,2,1,70,0,0
36297,-111.111111111111,4,2,1,70,0,0
36578,-90.9090909090909,4,2,1,70,0,0
37141,-71.4285714285714,4,2,1,70,0,0
37516,-83.3333333333333,4,2,1,70,0,0
44641,-100,4,2,1,70,0,0
45016,-83.3333333333333,4,2,1,70,0,0
48016,-66.6666666666667,4,2,1,70,0,0
49422,-100,4,2,1,70,0,0
59922,-83.3333333333333,4,2,1,70,0,0
71969,-66.6666666666667,4,2,1,70,0,0
73516,-66.6666666666667,4,2,1,70,0,1
73609,-66.6666666666667,4,2,1,100,0,0
83547,-66.6666666666667,4,2,1,60,0,0
84016,-66.6666666666667,4,2,1,100,0,0
84109,-66.6666666666667,4,2,1,60,0,0
84391,-66.6666666666667,4,2,1,100,0,0
84484,-66.6666666666667,4,2,1,60,0,0
84766,-66.6666666666667,4,2,1,100,0,0
84859,-66.6666666666667,4,2,1,60,0,0
85141,-66.6666666666667,4,2,1,100,0,0
85234,-66.6666666666667,4,2,1,60,0,0
85516,-66.6666666666667,4,2,1,60,0,1
85609,-66.6666666666667,4,2,1,100,0,0
96016,-66.6666666666667,4,2,1,50,0,0
97516,-100,4,2,1,70,0,0
98078,-100,4,2,1,40,0,0
105766,-100,4,2,1,60,0,0
106516,-80,4,2,1,70,0,0
106797,-80,4,2,1,50,0,0
107266,-80,4,2,1,70,0,0
107359,-80,4,2,1,50,0,0
108016,-80,4,2,1,70,0,0
108766,-80,4,2,1,60,0,0
109516,-66.6666666666667,4,2,1,70,0,1
109609,-66.6666666666667,4,2,1,100,0,1
119453,-66.6666666666667,4,2,1,60,0,1
120016,-66.6666666666667,4,2,1,50,0,1
121422,-66.6666666666667,4,2,1,70,0,0
121516,-66.6666666666667,4,2,1,70,0,1
121609,-66.6666666666667,4,2,1,70,0,0

[HitObjects]
116,108,1516,6,0,L|208:100,1,75.0000028610231,4|0,0:0|0:0,0:0:0:0:
300,48,1891,2,0,L|388:84,1,75.0000028610231,0|0,1:0|0:0,0:0:0:0:
116,108,2266,1,0,0:0:0:0:
300,48,2453,1,0,0:0:0:0:
317,55,2546,1,0,0:0:0:0:
334,62,2640,1,0,0:0:0:0:
352,69,2734,1,0,0:0:0:0:
369,76,2828,1,0,0:0:0:0:
408,228,3016,6,0,P|416:296|408:320,1,75.0000028610231
296,324,3391,2,0,P|256:344|208:348,1,75.0000028610231,0|0,1:0|0:0,0:0:0:0:
408,228,3766,1,0,0:0:0:0:
296,324,3953,1,0,0:0:0:0:
280,334,4046,1,0,0:0:0:0:
263,341,4140,1,0,0:0:0:0:
245,346,4234,1,0,0:0:0:0:
226,348,4328,1,0,0:0:0:0:
148,216,4516,6,0,L|256:228,1,75.0000028610231
296,136,4891,2,0,L|248:52,1,75.0000028610231,0|0,1:0|0:0,0:0:0:0:
148,216,5266,1,0,0:0:0:0:
296,136,5453,1,0,0:0:0:0:
286,119,5546,1,0,0:0:0:0:
277,103,5640,1,0,0:0:0:0:
268,87,5734,1,0,0:0:0:0:
258,70,5828,1,0,0:0:0:0:
148,216,6016,6,0,P|136:256|100:296,1,75.0000028610231
212,344,6391,2,0,P|233:313|248:276,1,75.0000028610231,0|0,1:0|0:0,0:0:0:0:
148,216,6766,1,0,0:0:0:0:
212,344,6953,1,0,0:0:0:0:
223,329,7046,1,0,0:0:0:0:
233,313,7140,1,0,0:0:0:0:
241,296,7234,1,0,0:0:0:0:
247,278,7328,1,0,0:0:0:0:
284,116,7516,6,0,L|384:144,1,75.0000028610231
468,140,7891,2,0,P|492:192|492:224,1,75.0000028610231,0|0,1:0|0:0,0:0:0:0:
392,256,8266,1,0,0:0:0:0:
356,136,8453,1,0,0:0:0:0:
338,131,8546,1,0,0:0:0:0:
320,126,8640,1,0,0:0:0:0:
302,121,8734,1,0,0:0:0:0:
284,116,8828,1,0,0:0:0:0:
132,52,9016,6,0,L|100:140,1,75.0000028610231
116,236,9391,2,0,L|184:288,1,75.0000028610231,0|0,1:0|0:0,0:0:0:0:
116,236,9766,1,0,0:0:0:0:
106,122,9953,1,0,0:0:0:0:
112,104,10046,1,0,0:0:0:0:
118,86,10140,1,0,0:0:0:0:
125,69,10234,1,0,0:0:0:0:
131,51,10328,1,0,0:0:0:0:
232,164,10516,6,0,P|256:224|256:256,1,75.0000028610231
276,344,10891,2,0,P|324:324|352:292,1,75.0000028610231,0|0,1:0|0:0,0:0:0:0:
232,164,11266,1,0,0:0:0:0:
276,344,11453,1,0,0:0:0:0:
294,339,11546,1,0,0:0:0:0:
311,332,11640,1,0,0:0:0:0:
326,321,11734,1,0,0:0:0:0:
340,308,11828,1,0,0:0:0:0:
408,172,12016,6,0,B|392:124|408:100|408:100|388:60|388:60|464:52|464:52|484:100|484:100|472:132|472:132|480:160,1,300.000011444092,0|0,1:0|0:0,0:0:0:0:
408,172,12859,5,0,0:0:0:0:
408,172,12953,2,0,L|340:176,1,37.5000014305115
268,176,13141,2,0,L|208:156,1,37.5000014305115
144,112,13328,2,0,L|128:52,1,37.5000014305115
134,75,13516,6,0,L|128:184,1,100,4|0,0:0|0:0,0:0:0:0:
52,240,13797,1,0,0:0:0:0:
52,240,13891,2,0,L|52:296,1,50,0|0,1:0|0:0,0:0:0:0:
64,324,14078,1,0,0:0:0:0:
100,320,14172,1,0,0:0:0:0:
132,336,14266,1,0,1:0:0:0:
164,328,14359,1,0,0:0:0:0:
200,317,14453,1,0,0:0:0:0:
231,296,14547,1,0,0:0:0:0:
256,267,14640,1,0,1:0:0:0:
280,296,14734,1,0,0:0:0:0:
311,317,14828,1,0,0:0:0:0:
348,328,14922,1,0,0:0:0:0:
412,300,15015,5,0,1:0:0:0:
404,264,15109,1,0,0:0:0:0:
396,232,15203,1,0,0:0:0:0:
388,196,15297,1,0,0:0:0:0:
460,140,15391,5,0,1:0:0:0:
420,109,15484,1,0,0:0:0:0:
371,105,15578,1,0,0:0:0:0:
327,126,15672,1,0,0:0:0:0:
296,164,15766,5,0,1:0:0:0:
288,148,15859,1,0,0:0:0:0:
280,128,15953,1,0,0:0:0:0:
272,112,16047,1,0,0:0:0:0:
264,96,16141,1,0,1:0:0:0:
256,80,16234,1,0,0:0:0:0:
248,64,16328,1,0,0:0:0:0:
240,48,16422,1,0,0:0:0:0:
228,32,16516,6,0,L|164:56,1,50,0|0,1:0|0:0,0:0:0:0:
100,108,16703,2,0,L|36:132,1,50
132,188,16891,2,0,L|68:212,1,50,0|0,1:0|0:0,0:0:0:0:
160,272,17078,2,0,L|96:296,1,50
196,352,17266,1,0,1:0:0:0:
196,352,17359,1,0,0:0:0:0:
196,352,17453,1,0,0:0:0:0:
196,352,17547,1,0,0:0:0:0:
196,352,17641,2,0,L|132:376,3,50,0|0|0|0,1:0|0:0|0:0|0:0,0:0:0:0:
316,352,18016,6,0,L|368:372,24,33.3333333333333
352,272,19891,6,0,L|398:289,1,50
380,188,20079,2,0,L|426:205,1,50
412,108,20266,1,4,1:0:0:0:
168,116,20641,6,0,L|104:144,1,50
176,32,20828,2,0,L|112:4,1,50
248,84,21016,1,4,1:0:0:0:
156,352,21391,6,0,L|220:380,1,50
148,268,21578,2,0,L|212:240,1,50
76,320,21766,1,4,1:0:0:0:
348,321,22141,6,0,L|352:261,1,50
380,188,22328,2,0,L|380:120,1,50
412,44,22516,6,0,B|411:87|411:87|416:96|416:96|414:164|414:164|420:176|420:176|412:192|412:192|412:228,1,179.999994506836,4|0,1:0|0:0,0:0:0:0:
380,188,22891,2,0,L|296:188,1,59.9999981689454
284,188,23078,2,0,L|252:188,4,29.9999990844727
304,48,23453,1,0,0:0:0:0:
124,52,23641,6,2,L|124:112,1,50
32,200,23828,2,2,L|83:170,1,50
212,200,24016,2,2,L|160:170,1,50
124,60,24203,6,2,L|124:120,1,50
32,208,24390,2,2,L|83:178,1,50
212,208,24578,2,2,L|160:178,1,50
124,72,24766,6,2,L|124:132,1,50
32,220,24953,2,2,L|83:190,1,50
212,220,25141,2,2,L|160:190,1,50
124,84,25328,6,2,L|124:144,1,50
124,272,25516,6,0,B|188:308|188:308|232:308,1,100,4|0,0:0|0:0,0:0:0:0:
300,312,25797,2,0,L|400:312,1,100,2|0,0:0|0:0,0:0:0:0:
480,340,26078,2,0,L|380:340,1,100,2|0,0:0|0:0,0:0:0:0:
300,312,26359,1,0,0:0:0:0:
304,276,26453,1,0,0:0:0:0:
308,240,26547,1,0,0:0:0:0:
312,204,26641,2,0,L|292:96,1,100,2|0,0:0|0:0,0:0:0:0:
132,52,27016,6,0,P|68:96|56:152,1,100,2|0,0:0|0:0,0:0:0:0:
148,144,27297,2,0,L|148:252,1,100,2|0,0:0|0:0,0:0:0:0:
59,269,27578,2,0,P|87:311|132:332,1,100,2|0,0:0|0:0,0:0:0:0:
148,244,27859,1,0,0:0:0:0:
148,210,27952,1,0,0:0:0:0:
148,177,28046,1,0,0:0:0:0:
148,144,28141,2,0,P|204:128|256:140,1,100,2|0,0:0|0:0,0:0:0:0:
412,156,28516,6,0,P|460:104|464:48,1,100,2|0,0:0|0:0,0:0:0:0:
328,144,28797,2,0,P|349:211|395:243,1,100,2|0,0:0|0:0,0:0:0:0:
380,76,29078,2,0,P|310:60|260:84,1,100,2|0,0:0|0:0,0:0:0:0:
328,144,29359,1,0,0:0:0:0:
331,176,29452,1,0,0:0:0:0:
345,206,29546,1,0,0:0:0:0:
369,230,29641,2,0,B|304:216|304:216|260:240,1,100,2|0,0:0|0:0,0:0:0:0:
136,324,30016,6,0,B|92:288|92:288|92:164,2,150,2|2|2,0:0|0:0|0:0,0:0:0:0:
256,72,30859,1,2,0:0:0:0:
92,194,31047,1,0,0:0:0:0:
92,194,31141,2,0,L|92:88,1,100,2|0,0:0|0:0,0:0:0:0:
256,72,31516,6,0,B|328:68|328:68|376:100,1,100,2|0,0:0|0:0,0:0:0:0:
304,160,31797,2,0,L|184:168,1,100,2|0,0:0|0:0,0:0:0:0:
280,248,32078,2,0,B|351:243|351:243|395:205,1,100,2|0,0:0|0:0,0:0:0:0:
304,160,32359,1,0,0:0:0:0:
270,162,32452,1,0,0:0:0:0:
237,164,32546,1,0,0:0:0:0:
204,166,32641,2,0,B|182:147|182:147|166:77,1,100,2|0,0:0|0:0,0:0:0:0:
344,40,33016,6,0,L|456:52,1,100,2|0,0:0|0:0,0:0:0:0:
368,126,33297,2,0,L|480:138,1,100,2|0,0:0|0:0,0:0:0:0:
392,212,33578,2,0,L|504:224,1,100,2|0,0:0|0:0,0:0:0:0:
412,296,33859,1,0,0:0:0:0:
378,292,33952,1,0,0:0:0:0:
345,288,34046,1,0,0:0:0:0:
312,285,34141,2,0,L|376:368,1,100,2|0,0:0|0:0,0:0:0:0:
138,364,34516,6,0,L|200:285,1,100,2|0,0:0|0:0,0:0:0:0:
92,288,34797,2,0,L|153:208,1,100,2|0,0:0|0:0,0:0:0:0:
44,212,35078,2,0,L|105:132,1,100,2|0,0:0|0:0,0:0:0:0:
48,56,35359,1,0,0:0:0:0:
77,40,35452,1,0,0:0:0:0:
109,36,35546,1,0,0:0:0:0:
142,44,35641,2,0,P|188:80|200:128,1,100,2|0,0:0|0:0,0:0:0:0:
284,224,36016,6,0,P|324:184|328:156,1,69.9999978637696,2|0,0:0|0:0,0:0:0:0:
336,92,36297,6,0,L|400:196,1,89.9999972534181,2|0,0:0|0:0,0:0:0:0:
456,208,36578,6,0,B|472:172|472:172|424:92,1,110.000003356934,2|0,0:0|0:0,0:0:0:0:
384,32,36859,2,0,P|312:20|272:48,1,110.000003356934,2|0,0:0|0:0,0:0:0:0:
241,142,37141,6,0,L|133:35,1,139.999995727539,2|0,0:0|0:0,0:0:0:0:
184,252,37516,6,0,P|216:304|288:324,1,119.999996337891,6|0,0:0|0:0,0:0:0:0:
324,260,37797,2,0,B|384:252|384:252|472:260,1,119.999996337891,2|0,0:0|0:0,0:0:0:0:
388,322,38078,2,0,B|328:330|328:330|240:322,1,119.999996337891,2|0,0:0|0:0,0:0:0:0:
76,308,38453,1,2,0:0:0:0:
56,240,38547,1,2,0:0:0:0:
36,172,38641,1,2,0:0:0:0:
76,308,38828,1,0,0:0:0:0:
128,160,39016,6,0,B|104:80|104:80|120:40,1,119.999996337891,2|0,0:0|0:0,0:0:0:0:
228,20,39297,2,0,B|258:39|258:39|284:119,1,119.999996337891,2|0,0:0|0:0,0:0:0:0:
224,204,39578,2,0,L|184:76,1,119.999996337891,2|0,0:0|0:0,0:0:0:0:
348,32,39859,2,0,L|383:146,1,119.999996337891,2|0,0:0|0:0,0:0:0:0:
476,204,40141,2,0,L|448:328,1,119.999996337891,2|2,0:0|0:0,0:0:0:0:
208,348,40516,6,0,P|148:336|24:360,2,179.999994506836,2|2|2,0:0|0:0|0:0,0:0:0:0:
348,32,41359,1,2,0:0:0:0:
320,100,41453,1,2,0:0:0:0:
292,168,41547,1,2,0:0:0:0:
288,240,41641,2,2,L|340:128,1,119.999996337891
348,32,42016,6,0,P|264:52|260:144,2,179.999994506836,2|2|2,0:0|0:0|0:0,0:0:0:0:
444,224,42859,2,0,L|393:332,1,119.999996337891,2|0,0:0|0:0,0:0:0:0:
324,352,43141,1,2,0:0:0:0:
444,224,43328,1,2,0:0:0:0:
348,32,43516,5,2,0:0:0:0:
128,216,43797,1,2,0:0:0:0:
408,148,44078,1,2,0:0:0:0:
136,56,44359,1,2,0:0:0:0:
128,216,44641,2,0,L|160:320,1,100,2|2,0:0|0:0,0:0:0:0:
400,311,45016,6,0,P|436:231|408:148,2,179.999994506836,2|2|2,0:0|0:0|0:0,0:0:0:0:
128,216,45859,1,2,0:0:0:0:
336,176,46141,2,0,P|364:224|308:280,1,119.999996337891,2|2,0:0|0:0,0:0:0:0:
128,216,46516,6,0,L|200:108,1,119.999996337891,2|0,0:0|0:0,0:0:0:0:
120,148,46797,2,0,L|229:78,1,119.999996337891,2|0,0:0|0:0,0:0:0:0:
140,84,47078,2,0,L|268:65,1,119.999996337891,2|0,0:0|0:0,0:0:0:0:
184,36,47359,2,0,L|308:71,1,119.999996337891,2|0,0:0|0:0,0:0:0:0:
336,176,47641,1,2,0:0:0:0:
128,216,47828,1,2,0:0:0:0:
300,308,48016,6,0,B|348:320|380:288|380:288|408:320|408:320|460:292|504:320,2,225.000008583069,0|0|0,1:0|1:0|1:0,0:0:0:0:
40,100,48859,1,0,1:0:0:0:
324,236,49141,2,0,B|292:176|316:136|316:136|342:189,1,150.000005722046,0|0,1:0|0:0,0:0:0:0:
335,176,49516,6,0,P|272:152|256:88,1,100,4|0,0:0|0:0,0:0:0:0:
300,60,49797,2,0,P|317:77|332:104,1,50
236,228,50078,1,0,0:0:0:0:
104,320,50266,2,0,L|44:328,2,50,2|0|0,0:0|0:0|0:0,0:0:0:0:
184,336,50547,1,0,0:0:0:0:
200,340,50641,1,0,0:0:0:0:
216,344,50734,1,0,0:0:0:0:
232,348,50828,1,0,0:0:0:0:
392,328,51016,6,0,P|372:280|396:224,1,100
464,228,51297,2,0,P|460:264|448:288,1,50
296,288,51578,1,0,0:0:0:0:
272,128,51766,1,2,0:0:0:0:
296,108,51859,1,0,0:0:0:0:
316,88,51953,1,0,0:0:0:0:
336,68,52047,1,0,0:0:0:0:
336,100,52141,2,0,L|336:164,2,50
188,36,52516,6,0,B|168:32|168:32|184:80|148:120,1,100,4|0,0:0|0:0,0:0:0:0:
76,108,52797,2,0,L|104:52,1,50
148,216,53078,1,0,0:0:0:0:
44,340,53266,2,0,L|112:376,1,50,2|0,0:0|0:0,0:0:0:0:
148,308,53453,2,0,L|216:344,1,50
264,356,53641,1,0,0:0:0:0:
280,352,53734,1,0,0:0:0:0:
296,348,53828,1,0,0:0:0:0:
360,200,54016,6,0,B|424:208|424:208|472:192,1,100
484,272,54297,2,0,L|419:296,1,50
420,128,54578,1,0,0:0:0:0:
280,52,54766,1,2,0:0:0:0:
256,60,54859,1,0,0:0:0:0:
232,68,54953,1,0,0:0:0:0:
208,76,55047,1,0,0:0:0:0:
184,116,55141,1,0,0:0:0:0:
184,100,55234,1,0,0:0:0:0:
184,84,55328,1,0,0:0:0:0:
24,64,55516,6,0,L|24:168,1,100,4|0,0:0|0:0,0:0:0:0:
72,228,55797,2,0,P|68:257|72:296,1,50
216,336,56078,1,0,0:0:0:0:
340,232,56266,1,2,0:0:0:0:
340,232,56359,1,0,0:0:0:0:
340,232,56453,2,0,B|312:208|312:208|292:204,1,50
204,232,56641,2,0,L|256:268,2,50
416,144,57016,6,0,L|319:76,1,100,4|0,0:0|0:0,0:0:0:0:
260,120,57297,2,0,B|266:131|266:131|297:150,1,50
440,72,57578,1,0,0:0:0:0:
428,232,57766,1,2,0:0:0:0:
428,252,57859,1,0,0:0:0:0:
380,288,57953,1,0,0:0:0:0:
380,308,58046,1,0,0:0:0:0:
332,344,58141,2,0,L|332:276,2,50
172,316,58516,6,0,P|120:328|64:308,1,100,4|0,0:0|0:0,0:0:0:0:
124,252,58797,2,0,P|152:240|180:236,1,50
332,216,59078,1,0,0:0:0:0:
171,147,59266,2,0,P|146:142|124:132,1,50,4|0,0:0|0:0,0:0:0:0:
116,52,59453,1,0,0:0:0:0:
128,52,59547,1,0,0:0:0:0:
138,52,59641,1,0,0:0:0:0:
148,56,59734,1,0,0:0:0:0:
156,60,59828,1,0,0:0:0:0:
332,216,60016,6,0,B|368:152|368:152|324:44,2,179.999994506836,0|0|0,1:0|1:0|1:0,0:0:0:0:
72,336,60859,2,0,B|140:312|140:312|192:332,1,119.999996337891,0|0,1:0|0:0,0:0:0:0:
276,364,61141,2,0,L|240:224,1,119.999996337891,0|0,1:0|0:0,0:0:0:0:
124,132,61516,6,0,P|188:120|244:88,1,119.999996337891,4|0,1:0|0:0,0:0:0:0:
300,40,61797,1,0,0:0:0:0:
336,48,61891,1,0,1:0:0:0:
372,48,61984,1,0,0:0:0:0:
408,44,62078,2,0,P|424:120|400:160,1,119.999996337891,0|0,0:0|1:0,0:0:0:0:
340,204,62359,1,0,0:0:0:0:
336,240,62453,2,0,L|360:296,1,59.9999981689454
248,240,62641,2,0,L|272:296,2,59.9999981689454,0|0|0,1:0|0:0|0:0,0:0:0:0:
124,132,63016,6,0,P|84:184|80:240,1,119.999996337891,0|0,1:0|0:0,0:0:0:0:
140,296,63297,1,0,0:0:0:0:
164,324,63391,2,0,L|228:320,1,59.9999981689454,0|0,1:0|0:0,0:0:0:0:
256,340,63578,2,0,B|332:324|332:324|380:356,1,119.999996337891,0|0,0:0|1:0,0:0:0:0:
428,288,63859,1,0,0:0:0:0:
444,256,63953,1,0,0:0:0:0:
460,224,64047,1,0,0:0:0:0:
400,264,64141,2,0,L|364:200,2,59.9999981689454,0|0|0,1:0|0:0|0:0,0:0:0:0:
384,116,64516,6,0,P|320:124|276:180,1,119.999996337891,4|0,1:0|0:0,0:0:0:0:
232,228,64797,1,0,0:0:0:0:
212,200,64891,2,0,P|203:161|212:132,2,59.9999981689454,0|0|0,1:0|0:0|0:0,0:0:0:0:
160,276,65266,1,0,0:0:0:0:
144,250,65359,1,0,0:0:0:0:
133,222,65453,1,0,0:0:0:0:
126,193,65547,1,0,0:0:0:0:
123,163,65641,1,0,1:0:0:0:
126,133,65734,1,0,0:0:0:0:
133,104,65828,1,0,0:0:0:0:
284,32,66016,6,0,P|344:40|416:32,1,119.999996337891,0|0,1:0|0:0,0:0:0:0:
456,100,66297,1,0,0:0:0:0:
456,100,66391,1,0,1:0:0:0:
456,100,66484,1,0,0:0:0:0:
456,184,66578,2,0,L|436:312,1,119.999996337891,0|0,0:0|1:0,0:0:0:0:
372,356,66859,1,0,0:0:0:0:
356,324,66953,2,0,P|352:288|372:252,1,59.9999981689454
372,232,67141,2,0,L|324:168,2,59.9999981689454,0|0|0,1:0|0:0|0:0,0:0:0:0:
228,316,67516,6,0,B|160:316|160:316|108:288,1,119.999996337891,4|0,1:0|0:0,0:0:0:0:
64,240,67797,1,0,0:0:0:0:
60,204,67891,1,0,1:0:0:0:
56,168,67984,1,0,0:0:0:0:
120,132,68078,2,0,L|132:260,1,119.999996337891,0|0,0:0|1:0,0:0:0:0:
114,291,68359,1,0,0:0:0:0:
64,240,68453,1,0,0:0:0:0:
60,204,68547,1,0,0:0:0:0:
56,168,68641,2,0,P|52:132|56:96,2,59.9999981689454,0|0|0,1:0|0:0|0:0,0:0:0:0:
224,172,69016,6,0,P|228:100|192:56,1,119.999996337891,4|0,1:0|0:0,0:0:0:0:
152,132,69297,1,0,0:0:0:0:
138,169,69390,1,0,1:0:0:0:
145,208,69484,1,0,0:0:0:0:
172,237,69578,2,0,P|220:256|288:220,1,119.999996337891,0|0,0:0|1:0,0:0:0:0:
304,200,69859,1,0,0:0:0:0:
307,160,69952,1,0,0:0:0:0:
292,123,70046,1,0,0:0:0:0:
224,172,70140,1,0,1:0:0:0:
224,172,70234,1,0,0:0:0:0:
224,172,70328,1,0,0:0:0:0:
224,172,70422,1,0,0:0:0:0:
224,172,70516,6,0,L|216:104,1,59.9999981689454,4|0,1:0|0:0,0:0:0:0:
364,40,70703,2,0,L|371:99,1,59.9999981689454,0|0,1:0|0:0,0:0:0:0:
240,180,70891,2,0,L|232:112,1,59.9999981689454,0|0,1:0|0:0,0:0:0:0:
380,48,71078,2,0,L|387:107,1,59.9999981689454,0|0,1:0|0:0,0:0:0:0:
252,188,71266,2,0,L|244:120,1,59.9999981689454,0|0,1:0|0:0,0:0:0:0:
392,56,71453,2,0,L|399:115,1,59.9999981689454,0|0,1:0|0:0,0:0:0:0:
412,224,71641,1,0,1:0:0:0:
324,260,71734,1,0,1:0:0:0:
236,296,71828,1,0,1:0:0:0:
148,332,71922,1,0,1:0:0:0:
96,224,72016,6,0,B|80:156|124:108|124:108|108:56|108:56|48:40,2,225.000008583069
440,328,72859,1,0,0:0:0:0:
256,20,73141,2,0,B|248:48|248:48|264:48|264:48|256:40|256:40|256:176,1,150.000005722046
256,344,73516,6,0,P|252:272|256:184,1,150.000005722046,4|2,1:2|0:0,0:0:0:0:
104,100,73797,2,0,P|168:132|242:180,1,150.000005722046,2|2,0:0|0:0,0:0:0:0:
400,100,74078,2,0,P|339:139|261:180,1,150.000005722046,2|2,0:0|0:0,0:0:0:0:
256,344,74359,2,0,P|252:272|256:184,1,150.000005722046,2|2,0:0|0:0,0:0:0:0:
104,100,74641,2,0,L|176:142,1,75.0000028610231,2|0,0:0|0:0,0:0:0:0:
400,100,74828,2,0,L|327:142,1,75.0000028610231,2|0,0:0|0:0,0:0:0:0:
256,344,75016,6,2,P|240:268|264:184,1,150.000005722046
104,100,75297,2,2,P|177:124|238:186,1,150.000005722046
400,100,75578,2,2,P|342:151|257:173,1,150.000005722046
256,344,75859,2,2,P|240:268|264:184,1,150.000005722046
104,100,76141,2,2,P|144:109|186:133,1,75.0000028610231,2|0,0:0|0:0,0:0:0:0:
400,100,76328,2,2,P|371:130|329:154,1,75.0000028610231,2|0,0:0|0:0,0:0:0:0:
196,335,76516,6,2,P|221:267|261:188,1,150.000005722046
157,50,76797,2,2,P|202:105|250:179,1,150.000005722046
427,171,77078,2,2,P|355:181|267:187,1,150.000005722046
196,335,77359,2,2,P|221:267|261:188,1,150.000005722046
157,50,77641,2,0,L|205:117,1,75.0000028610231,2|0,0:0|0:0,0:0:0:0:
427,171,77828,2,0,L|343:179,1,75.0000028610231,2|0,0:0|0:0,0:0:0:0:
196,335,78016,6,2,P|212:259|268:192,1,150.000005722046
156,50,78297,2,2,P|212:101|243:183,1,150.000005722046
426,170,78578,2,2,P|352:193|265:178,1,150.000005722046
196,335,78859,2,2,P|212:259|268:192,1,150.000005722046
156,50,79141,2,0,P|188:74|217:113,1,75.0000028610231,2|0,0:0|0:0,0:0:0:0:
426,170,79328,2,0,P|387:185|339:190,1,75.0000028610231,2|0,0:0|0:0,0:0:0:0:
144,303,79516,6,2,P|194:251|263:195,1,150.000005722046
224,27,79797,2,2,P|242:95|256:182,1,150.000005722046
421,247,80078,2,2,P|351:226|268:196,1,150.000005722046
144,303,80359,2,2,P|194:251|263:195,1,150.000005722046
224,27,80641,2,0,L|240:107,1,75.0000028610231,2|0,0:0|0:0,0:0:0:0:
421,247,80828,2,0,L|341:220,1,75.0000028610231,2|0,0:0|0:0,0:0:0:0:
144,303,81016,6,2,P|189:240|267:201,1,150.000005722046
223,26,81297,2,2,P|253:95|248:182,1,150.000005722046
421,246,81578,2,2,P|344:236|270:187,1,150.000005722046
144,303,81859,2,2,P|189:240|267:201,1,150.000005722046
223,26,82141,2,0,P|242:60|253:108,1,75.0000028610231,2|0,0:0|0:0,0:0:0:0:
421,246,82328,2,0,P|379:243|333:228,1,75.0000028610231,2|0,0:0|0:0,0:0:0:0:
128,156,82516,6,0,L|84:8,1,150.000005722046,0|0,1:0|0:0,0:0:0:0:
104,184,82797,1,0,0:0:0:0:
76,216,82891,2,0,L|88:52,1,150.000005722046
223,26,83266,2,0,L|212:175,1,150.000005722046,0|0,1:0|0:0,0:0:0:0:
240,188,83547,1,2,0:0:0:0:
232,231,83640,1,2,0:0:0:0:
245,274,83734,1,2,0:0:0:0:
277,305,83828,1,2,0:0:0:0:
319,318,83922,1,2,0:0:0:0:
363,310,84016,6,2,P|371:265|368:224,1,75.0000028610231,0|2,1:0|0:0,0:0:0:0:
312,132,84203,1,2,0:0:0:0:
284,106,84296,1,2,0:0:0:0:
249,93,84390,1,0,1:0:0:0:
212,96,84484,1,2,0:0:0:0:
179,112,84578,1,2,0:0:0:0:
155,141,84671,1,2,0:0:0:0:
144,176,84766,6,2,P|178:205|215:223,1,75.0000028610231,0|2,1:0|0:0,0:0:0:0:
328,228,84953,1,2,0:0:0:0:
369,212,85046,1,2,0:0:0:0:
399,179,85140,1,0,1:0:0:0:
410,136,85234,1,2,0:0:0:0:
399,92,85328,1,2,0:0:0:0:
370,59,85421,1,2,0:0:0:0:
256,40,85516,6,0,P|236:120|256:192,1,150.000005722046,4|2,1:2|0:0,0:0:0:0:
108,280,85797,2,2,P|187:257|239:204,1,150.000005722046
388,292,86078,2,2,P|328:234|256:216,1,150.000005722046
256,40,86359,2,2,P|236:120|256:192,1,150.000005722046
108,280,86641,2,0,P|152:272|192:256,1,75.0000028610231,2|0,0:0|0:0,0:0:0:0:
388,292,86828,2,0,P|359:257|325:231,1,75.0000028610231,2|0,0:0|0:0,0:0:0:0:
256,40,87016,6,2,B|232:120|232:120|256:192,1,150.000005722046
108,280,87297,2,2,B|189:260|189:260|239:204,1,150.000005722046
388,292,87578,2,2,B|330:231|330:231|256:216,1,150.000005722046
256,40,87859,2,2,B|232:120|232:120|256:192,1,150.000005722046
108,280,88141,2,0,L|188:260,1,75.0000028610231,2|0,0:0|0:0,0:0:0:0:
388,292,88328,2,0,L|330:232,1,75.0000028610231,2|0,0:0|0:0,0:0:0:0:
198,49,88516,6,2,P|212:130|259:187,1,150.000005722046
160,329,88797,2,2,P|222:275|248:206,1,150.000005722046
421,226,89078,2,2,P|342:197|269:210,1,150.000005722046
198,49,89359,2,2,P|212:130|259:187,1,150.000005722046
160,329,89641,2,0,P|196:303|226:272,1,75.0000028610231,2|0,0:0|0:0,0:0:0:0:
421,226,89828,2,0,P|380:205|338:195,1,75.0000028610231,2|0,0:0|0:0,0:0:0:0:
198,49,90016,6,2,B|208:131|208:131|259:187,1,150.000005722046
160,329,90297,2,2,B|225:277|225:277|248:206,1,150.000005722046
421,226,90578,2,2,B|343:193|343:193|269:210,1,150.000005722046
198,49,90859,2,2,B|208:131|208:131|259:187,1,150.000005722046
160,329,91141,2,0,L|224:278,1,75.0000028610231,2|0,0:0|0:0,0:0:0:0:
421,226,91328,2,0,L|343:194,1,75.0000028610231,2|0,0:0|0:0,0:0:0:0:
149,81,91516,6,2,P|195:149|261:182,1,150.000005722046
228,352,91797,2,2,P|263:277|259:203,1,150.000005722046
424,151,92078,2,2,P|340:156|279:198,1,150.000005722046
149,81,92359,2,2,P|195:149|261:182,1,150.000005722046
228,352,92641,2,0,P|251:313|266:273,1,75.0000028610231,2|0,0:0|0:0,0:0:0:0:
424,151,92828,2,0,P|378:149|336:157,1,75.0000028610231,2|0,0:0|0:0,0:0:0:0:
149,81,93016,6,2,B|192:152|192:152|261:182,1,150.000005722046
228,352,93297,2,2,B|267:278|267:278|259:203,1,150.000005722046
424,151,93578,2,2,B|339:153|339:153|279:198,1,150.000005722046
149,81,93859,2,2,B|192:152|192:152|261:182,1,150.000005722046
228,352,94141,2,0,L|266:279,1,75.0000028610231,2|0,0:0|0:0,0:0:0:0:
424,151,94328,2,0,L|340:153,1,75.0000028610231,2|0,0:0|0:0,0:0:0:0:
168,232,94516,6,0,L|31:170,1,150.000005722046,4|0,1:0|0:0,0:0:0:0:
140,268,94797,1,0,0:0:0:0:
112,304,94891,2,0,L|252:220,1,150.000005722046
424,152,95266,2,0,P|440:248|408:304,1,150.000005722046,4|0,0:1|0:0,0:0:0:0:
384,304,95547,1,0,0:0:0:0:
348,292,95641,1,0,0:0:0:0:
316,276,95734,1,0,0:0:0:0:
280,264,95828,2,0,L|224:336,1,75.0000028610231
112,304,96016,5,0,1:0:0:0:
96,276,96109,1,0,1:0:0:0:
90,244,96203,1,0,1:0:0:0:
94,212,96297,1,0,1:0:0:0:
109,184,96391,1,0,1:0:0:0:
131,161,96484,1,0,1:0:0:0:
160,147,96578,1,0,1:0:0:0:
192,143,96672,1,0,1:0:0:0:
188,240,96766,5,0,1:0:0:0:
145,236,96859,1,0,1:0:0:0:
109,213,96953,1,0,1:0:0:0:
86,177,97047,1,0,1:0:0:0:
82,135,97141,1,0,1:0:0:0:
97,95,97234,1,0,1:0:0:0:
128,66,97328,1,0,1:0:0:0:
169,54,97422,1,0,1:0:0:0:
208,40,97516,6,0,P|320:28|404:48,1,200,2|2,0:0|0:0,0:0:0:0:
404,180,98078,1,2,0:0:0:0:
400,200,98172,1,2,0:0:0:0:
396,220,98266,1,2,0:0:0:0:
392,240,98359,1,2,0:0:0:0:
388,260,98453,1,2,0:0:0:0:
384,280,98547,1,2,0:0:0:0:
440,304,98641,5,2,0:0:0:0:
426,319,98735,1,2,0:0:0:0:
412,334,98829,1,2,0:0:0:0:
398,349,98922,1,2,0:0:0:0:
385,364,99016,1,2,0:0:0:0:
371,379,99110,1,2,0:0:0:0:
312,324,99203,5,2,0:0:0:0:
296,302,99296,1,2,0:0:0:0:
276,283,99390,1,2,0:0:0:0:
254,268,99484,1,2,0:0:0:0:
230,256,99578,1,2,0:0:0:0:
204,249,99671,1,2,0:0:0:0:
177,247,99765,1,2,0:0:0:0:
150,248,99859,1,2,0:0:0:0:
124,255,99953,1,2,0:0:0:0:
100,265,100046,1,2,0:0:0:0:
77,280,100140,1,2,0:0:0:0:
57,298,100234,1,2,0:0:0:0:
41,319,100328,1,2,0:0:0:0:
28,343,100421,1,2,0:0:0:0:
98,362,100516,6,0,P|110:306|94:254,1,100,2|0,0:0|0:0,0:0:0:0:
52,188,100798,1,2,0:0:0:0:
80,160,100891,2,0,L|72:100,3,50,2|2|2|2,0:0|0:0|0:0|0:0,0:0:0:0:
152,80,101266,2,0,L|160:20,3,50,2|2|2|2,0:0|0:0|0:0|0:0,0:0:0:0:
240,52,101641,2,0,L|275:2,3,50,2|2|2|2,0:0|0:0|0:0|0:0,0:0:0:0:
352,44,102016,5,2,0:0:0:0:
386,63,102109,1,2,0:0:0:0:
415,91,102203,1,2,0:0:0:0:
435,125,102297,1,2,0:0:0:0:
445,164,102391,1,2,0:0:0:0:
445,204,102484,1,2,0:0:0:0:
364,244,102578,5,2,0:0:0:0:
374,216,102671,1,2,0:0:0:0:
376,186,102765,1,2,0:0:0:0:
369,157,102859,1,2,0:0:0:0:
353,131,102953,1,2,0:0:0:0:
331,112,103046,1,2,0:0:0:0:
284,192,103141,5,2,0:0:0:0:
276,196,103234,1,2,0:0:0:0:
268,200,103328,1,2,0:0:0:0:
260,204,103422,1,2,0:0:0:0:
252,208,103516,6,0,L|124:208,1,100,4|0,0:1|0:0,0:0:0:0:
124,228,103797,1,0,0:0:0:0:
100,252,103891,2,0,L|232:252,1,100,2|0,0:0|0:0,0:0:0:0:
252,208,104172,1,2,0:0:0:0:
247,186,104265,1,2,0:0:0:0:
238,165,104359,1,2,0:0:0:0:
226,147,104453,1,2,0:0:0:0:
210,131,104547,1,2,0:0:0:0:
192,118,104640,1,2,0:0:0:0:
172,109,104734,1,2,0:0:0:0:
151,103,104828,1,2,0:0:0:0:
129,102,104922,1,2,0:0:0:0:
108,104,105016,5,2,0:0:0:0:
137,95,105109,1,2,0:0:0:0:
167,86,105203,1,2,0:0:0:0:
197,77,105297,1,2,0:0:0:0:
227,68,105391,1,2,0:0:0:0:
257,59,105484,1,2,0:0:0:0:
287,50,105578,1,2,0:0:0:0:
317,41,105672,1,2,0:0:0:0:
347,32,105766,5,2,0:0:0:0:
336,80,105859,1,2,0:0:0:0:
338,130,105953,1,2,0:0:0:0:
353,178,106047,1,2,0:0:0:0:
412,224,106141,5,2,0:0:0:0:
408,305,106234,1,2,0:0:0:0:
352,364,106328,1,2,0:0:0:0:
271,372,106422,1,2,0:0:0:0:
204,324,106516,6,0,L|68:360,1,125,4|0,1:0|0:0,0:0:0:0:
96,280,106797,5,2,0:0:0:0:
120,273,106890,1,2,0:0:0:0:
144,267,106984,1,2,0:0:0:0:
168,260,107078,1,2,0:0:0:0:
192,254,107172,1,2,0:0:0:0:
216,248,107265,5,0,1:0:0:0:
246,252,107359,1,2,0:0:0:0:
276,264,107453,1,2,0:0:0:0:
308,272,107547,1,2,0:0:0:0:
292,240,107641,1,2,0:0:0:0:
268,204,107734,1,2,0:0:0:0:
256,160,107828,1,2,0:0:0:0:
256,116,107922,1,2,0:0:0:0:
260,72,108016,6,0,L|112:88,1,125,0|0,1:0|0:0,0:0:0:0:
64,156,108297,1,0,0:0:0:0:
64,156,108391,2,0,L|212:172,1,125,0|0,1:0|0:0,0:0:0:0:
256,160,108672,1,0,0:0:0:0:
348,96,108766,5,0,1:0:0:0:
368,188,108859,1,0,1:0:0:0:
408,272,108953,1,0,1:0:0:0:
484,328,109047,1,0,1:0:0:0:
452,240,109141,5,0,1:0:0:0:
368,204,109234,1,0,1:0:0:0:
276,208,109328,1,0,1:0:0:0:
208,276,109422,1,0,1:0:0:0:
260,352,109516,6,0,P|248:272|264:184,1,150.000005722046,4|2,1:2|0:0,0:0:0:0:
108,104,109797,2,2,P|183:133|251:191,1,150.000005722046
408,100,110078,2,2,P|344:150|260:180,1,150.000005722046
260,352,110359,2,2,P|248:272|264:184,1,150.000005722046
108,104,110641,2,0,P|144:112|196:140,1,75.0000028610231,2|0,0:0|0:0,0:0:0:0:
408,100,110828,2,0,P|383:127|332:158,1,75.0000028610231,2|0,0:0|0:0,0:0:0:0:
199,340,111016,6,2,P|220:262|270:188,1,150.000005722046
161,51,111297,2,2,P|217:107|256:188,1,150.000005722046
436,169,111578,2,2,P|357:188|268:181,1,150.000005722046
199,340,111859,2,2,P|220:262|270:188,1,150.000005722046
161,51,112141,2,0,P|190:72|226:119,1,75.0000028610231,2|0,0:0|0:0,0:0:0:0:
436,169,112328,2,0,P|402:183|342:191,1,75.0000028610231,2|0,0:0|0:0,0:0:0:0:
136,308,112516,6,2,P|187:245|263:198,1,150.000005722046
219,29,112797,2,2,P|247:104|250:193,1,150.000005722046
422,248,113078,2,2,P|342:233|263:191,1,150.000005722046
136,308,113359,2,2,P|187:245|263:198,1,150.000005722046
219,29,113641,2,0,P|237:61|251:118,1,75.0000028610231,2|0,0:0|0:0,0:0:0:0:
422,248,113828,2,0,P|385:247|328:230,1,75.0000028610231,2|0,0:0|0:0,0:0:0:0:
104,255,114016,6,2,P|176:218|265:206,1,150.000005722046
293,33,114297,2,2,P|288:113|254:195,1,150.000005722046
389,316,114578,2,2,P|321:270|267:199,1,150.000005722046
104,255,114859,2,2,P|176:218|265:206,1,150.000005722046
293,33,115141,2,0,P|296:69|285:127,1,75.0000028610231,2|0,0:0|0:0,0:0:0:0:
389,316,115328,2,0,P|355:300|310:261,1,75.0000028610231,2|0,0:0|0:0,0:0:0:0:
92,188,115516,6,2,P|172:184|258:209,1,150.000005722046
354,62,115797,2,2,P|317:133|252:195,1,150.000005722046
327,359,116078,2,2,P|283:290|262:203,1,150.000005722046
92,188,116359,2,2,P|172:184|258:209,1,150.000005722046
354,62,116641,2,0,P|342:96|308:145,1,75.0000028610231,2|0,0:0|0:0,0:0:0:0:
327,359,116828,2,0,P|302:331|277:277,1,75.0000028610231,2|0,0:0|0:0,0:0:0:0:
108,124,117016,6,2,P|183:153|251:211,1,150.000005722046
398,115,117297,2,2,P|335:165|251:195,1,150.000005722046
253,375,117578,2,2,P|241:294|257:206,1,150.000005722046
108,124,117859,2,2,P|183:153|251:211,1,150.000005722046
398,115,118141,2,0,P|373:142|322:173,1,75.0000028610231,2|0,0:0|0:0,0:0:0:0:
253,375,118328,2,0,P|242:339|240:280,1,75.0000028610231,2|0,0:0|0:0,0:0:0:0:
239,52,118516,6,0,L|101:129,1,150.000005722046,0|0,1:0|0:0,0:0:0:0:
92,168,118797,1,0,0:0:0:0:
76,208,118891,2,0,L|200:88,1,150.000005722046,2|0,0:0|0:0,0:0:0:0:
340,52,119266,2,0,P|320:136|368:200,1,150.000005722046,0|2,1:0|0:0,0:0:0:0:
376,216,119547,1,2,0:0:0:0:
400,244,119641,1,2,0:0:0:0:
428,272,119734,1,2,0:0:0:0:
408,304,119828,1,2,0:0:0:0:
372,316,119922,1,2,0:0:0:0:
208,312,120016,5,0,1:0:0:0:
155,279,120109,1,0,1:0:0:0:
128,224,120203,1,0,1:0:0:0:
135,162,120297,1,0,1:0:0:0:
173,114,120391,1,0,1:0:0:0:
231,94,120484,1,0,1:0:0:0:
291,108,120578,2,0,P|283:159|259:199,1,75.0000028610231,0|0,1:0|1:0,1:0:0:0:
136,352,120766,5,0,1:0:0:0:
94,313,120859,1,0,1:0:0:0:
67,264,120953,1,0,1:0:0:0:
56,210,121047,1,0,1:0:0:0:
63,154,121141,1,0,1:0:0:0:
86,103,121234,1,0,1:0:0:0:
124,62,121328,1,0,1:0:0:0:
173,34,121422,1,0,1:0:0:0:
228,23,121516,5,2,1:2:0:0:
464,264,122078,1,2,0:0:0:0:
60,336,122641,1,2,0:0:0:0:
440,40,123203,1,2,0:0:0:0:
