osu file format v14

[General]
AudioFilename: Lunatic Sky.mp3
AudioLeadIn: 0
PreviewTime: 73512
Countdown: 0
SampleSet: Soft
StackLeniency: 0.2
Mode: 0
LetterboxInBreaks: 1
WidescreenStoryboard: 0

[Editor]
Bookmarks: 25512
DistanceSpacing: 1.2
BeatDivisor: 4
GridSize: 4
TimelineZoom: 3.899999

[Metadata]
Title:Lunatic Sky
TitleUnicode:Lunatic Sky
Artist:M2U
ArtistUnicode:M2U
Creator:salinqi
Version:Insane
Source:Rhythm Master
Tags:Reimoe -[Hikari]- Hakurei Yoru 节奏大师 trance
BeatmapID:668940
BeatmapSetID:298049

[Difficulty]
HPDrainRate:6
CircleSize:4.2
OverallDifficulty:7.5
ApproachRate:9
SliderMultiplier:1.6
SliderTickRate:1

[Events]
//Background and Video events
0,0,"11954029657ba3455ao.jpg",0,0
//Break Periods
//Storyboard Layer 0 (Background)
//Storyboard Layer 1 (Fail)
//Storyboard Layer 2 (Pass)
//Storyboard Layer 3 (Foreground)
//Storyboard Sound Samples

[TimingPoints]
1512.26533979673,375,4,2,1,70,1,0
45012,-100,4,2,1,91,0,0
45106,-100,4,2,1,70,0,0
73512,-100,4,2,1,70,0,1
83262,-100,4,2,1,80,0,1
84387,-100,4,2,1,85,0,1
84762,-100,4,2,1,90,0,1
85512,-83.3333333333333,4,2,1,75,0,1
96012,-83.3333333333333,4,2,1,80,0,1
96762,-83.3333333333333,4,2,1,96,0,1
97512,-100,4,2,1,96,0,0
97887,-100,4,2,1,75,0,0
99012,-100,4,2,1,79,0,0
102762,-100,4,2,1,70,0,0
104637,-100,4,2,1,80,0,0
106512,-100,4,2,1,90,0,0
108762,-66.6666666666667,4,2,1,90,0,0
109512,-66.6666666666667,4,2,1,90,0,1
120387,-100,4,2,1,90,0,1
120668,-66.6666666666667,4,2,1,90,0,1
121512,-66.6666666666667,4,2,1,90,0,0
122074,-66.6666666666667,4,2,0,90,0,0
122121,-66.6666666666667,4,2,0,5,0,0
122637,-55.5555555555556,4,2,0,90,0,0
122684,-55.5555555555556,4,2,0,5,0,0
123199,-50,4,2,0,90,0,0
123246,-50,4,2,0,5,0,0

[Colours]
Combo1 : 90,245,191
Combo2 : 37,37,218
Combo3 : 255,102,255
Combo4 : 238,173,134

[HitObjects]
80,60,1512,6,0,L|96:144,1,80
180,116,1887,2,0,L|196:200,1,80
140,264,2262,1,0,0:0:0:0:
212,316,2449,1,0,0:0:0:0:
243,313,2542,1,0,0:0:0:0:
275,311,2636,1,0,0:0:0:0:
307,309,2730,1,0,0:0:0:0:
339,307,2824,1,0,0:0:0:0:
482,227,3012,6,0,L|404:244,1,80
412,156,3387,2,0,L|333:172,1,80
312,88,3762,1,0,0:0:0:0:
228,120,3949,1,0,0:0:0:0:
221,151,4042,1,0,0:0:0:0:
215,182,4136,1,0,0:0:0:0:
209,214,4230,1,0,0:0:0:0:
202,245,4324,1,0,0:0:0:0:
124,288,4512,6,0,P|88:256|40:252,1,80
28,168,4887,2,0,P|52:116|88:92,1,80
124,32,5262,1,0,0:0:0:0:
124,32,5449,1,0,0:0:0:0:
151,47,5542,1,0,0:0:0:0:
183,54,5636,1,0,0:0:0:0:
214,52,5730,1,0,0:0:0:0:
244,41,5824,1,0,0:0:0:0:
332,32,6012,6,0,P|340:70|335:110,1,80
260,156,6387,2,0,P|251:194|256:234,1,80
208,308,6762,1,0,0:0:0:0:
328,325,6949,1,0,0:0:0:0:
301,308,7043,1,0,0:0:0:0:
270,299,7137,1,0,0:0:0:0:
238,299,7231,1,0,0:0:0:0:
208,308,7324,1,0,0:0:0:0:
80,236,7512,5,0,0:0:0:0:
116,148,7699,1,0,0:0:0:0:
208,180,7887,1,8,0:0:0:0:
80,236,8074,5,0,0:0:0:0:
98,192,8168,1,0,0:0:0:0:
116,148,8261,1,0,0:0:0:0:
207,31,8449,1,0,0:0:0:0:
372,84,8637,1,8,0:0:0:0:
410,95,8730,1,0,0:0:0:0:
443,117,8824,1,0,0:0:0:0:
467,149,8918,1,0,0:0:0:0:
484,189,9012,5,2,0:0:0:0:
465,307,9199,1,0,0:0:0:0:
372,231,9387,1,8,0:0:0:0:
484,189,9574,5,0,0:0:0:0:
474,248,9667,1,0,0:0:0:0:
464,307,9761,1,0,0:0:0:0:
291,309,9949,1,0,0:0:0:0:
64,336,10137,1,8,0:0:0:0:
94,310,10230,1,0,0:0:0:0:
132,302,10324,1,0,0:0:0:0:
170,315,10418,1,0,0:0:0:0:
200,340,10512,6,0,P|204:288|216:252,1,80
173,129,10887,2,0,L|160:78,2,40,8|0|0,0:0|0:0|0:0,0:0:0:0:
283,176,11262,2,0,P|330:165|359:131,1,80
434,56,11637,2,0,L|466:87,2,40,8|0|0,0:0|0:0|0:0,0:0:0:0:
256,192,12012,12,4,13512,0:0:0:0:
48,149,13887,6,0,L|28:189,1,40,8|0,0:0|0:0,0:0:0:0:
128,195,14074,2,0,L|136:239,1,40
126,110,14262,2,0,P|206:74|242:94,1,120
317,123,14637,2,0,L|365:107,1,40,8|0,0:0|0:0,0:0:0:0:
396,184,14824,2,0,L|444:168,1,40
400,272,15012,6,0,L|287:314,1,120
148,352,15387,2,0,L|216:364,1,40,8|0,0:0|0:0,0:0:0:0:
64,312,15574,2,0,L|24:318,1,40
288,314,15762,2,0,P|252:262|200:230,1,120
100,102,16137,2,0,L|61:114,1,40,8|0,0:0|0:0,0:0:0:0:
177,125,16324,2,0,L|187:175,1,40
257,72,16512,6,0,P|337:80|362:115,1,120
375,183,16887,2,0,L|414:185,1,40
308,214,17074,2,0,L|286:247,1,40
219,228,17262,2,0,P|134:197|87:195,1,120
45,139,17637,2,0,L|31:78,1,40,8|0,0:0|0:0,0:0:0:0:
92,23,17824,2,0,L|99:62,1,40
167,91,18012,6,0,P|229:93|280:51,1,120
332,68,18387,1,8,0:0:0:0:
363,61,18480,1,0,0:0:0:0:
393,69,18574,1,0,0:0:0:0:
417,91,18668,1,0,0:0:0:0:
435,119,18762,2,0,L|368:242,1,120
296,267,19137,2,0,L|234:282,1,40,8|0,0:0|0:0,0:0:0:0:
210,205,19324,2,0,L|148:220,1,40
72,329,19512,6,0,P|42:320|5:239,1,120
30,95,19887,2,0,L|38:55,1,40
64,199,20074,2,0,L|70:159,1,40
134,267,20262,2,0,P|177:283|197:322,2,80
136,92,20824,2,0,L|149:140,1,40
146,130,21012,5,0,0:0:0:0:
333,172,21387,1,8,0:0:0:0:
425,147,21574,1,0,0:0:0:0:
459,57,21762,5,0,0:0:0:0:
424,264,22137,1,8,0:0:0:0:
369,352,22324,1,0,0:0:0:0:
332,171,22512,5,0,0:0:0:0:
306,202,22606,1,0,0:0:0:0:
281,233,22699,1,0,0:0:0:0:
123,170,22887,1,0,0:0:0:0:
148,139,22980,1,0,0:0:0:0:
174,108,23074,1,0,0:0:0:0:
217,294,23262,6,0,L|191:325,1,40
17,183,23449,2,0,L|44:154,1,40
199,208,23637,2,0,L|173:239,1,40
28,300,23824,2,0,L|55:271,1,40
174,108,24012,6,0,L|143:46,3,40
296,48,24387,2,0,L|320:4,3,40
404,128,24762,1,0,0:0:0:0:
364,136,24855,1,0,0:0:0:0:
325,144,24949,1,0,0:0:0:0:
286,153,25043,1,0,0:0:0:0:
247,161,25137,5,0,0:0:0:0:
306,173,25230,1,0,0:0:0:0:
365,184,25324,1,0,0:0:0:0:
424,196,25418,1,0,0:0:0:0:
483,207,25512,5,2,0:0:0:0:
504,80,25793,1,2,0:0:0:0:
404,4,26074,1,2,0:0:0:0:
392,136,26356,2,0,L|348:156,3,40,2|2|2|2,0:0|0:0|0:0|0:0,0:0:0:0:
192,144,26824,1,2,0:0:0:0:
48,12,27012,5,2,0:0:0:0:
164,40,27293,1,2,0:0:0:0:
72,120,27574,1,2,0:0:0:0:
204,56,27856,2,0,L|240:40,3,40,2|2|2|2,0:0|0:0|0:0|0:0,0:0:0:0:
328,100,28324,1,2,0:0:0:0:
304,240,28512,5,2,0:0:0:0:
189,286,28793,1,2,0:0:0:0:
84,232,29074,1,2,0:0:0:0:
37,171,29356,1,2,0:0:0:0:
68,196,29449,1,2,0:0:0:0:
84,232,29543,1,2,0:0:0:0:
82,271,29637,1,2,0:0:0:0:
6,327,29824,1,2,0:0:0:0:
160,221,30012,5,2,0:0:0:0:
317,130,30293,1,2,0:0:0:0:
416,300,30574,1,2,0:0:0:0:
416,300,30856,2,0,L|364:232,1,80,2|0,0:0|0:0,0:0:0:0:
496,260,31137,2,0,L|496:212,1,40,2|0,0:0|0:0,0:0:0:0:
424,188,31324,1,2,0:0:0:0:
480,132,31512,6,0,P|424:108|376:128,1,80
344,148,31793,2,0,P|332:96|348:64,1,80
360,232,32074,2,0,P|308:224|272:192,1,80
264,136,32356,2,0,P|224:164|212:208,1,80
60,276,32637,1,0,0:0:0:0:
260,316,32824,1,0,0:0:0:0:
196,268,33012,6,0,P|180:304|184:344,1,80
128,244,33293,2,0,P|96:208|36:208,1,80
0,184,33574,2,0,P|41:137|68:132,1,80
124,136,33856,2,0,P|128:88|124:40,1,80
196,188,34137,1,0,0:0:0:0:
232,80,34324,1,0,0:0:0:0:
320,44,34512,6,0,L|424:24,1,80
360,112,34793,2,0,L|464:92,1,80
354,192,35074,2,0,L|276:208,1,80
394,260,35355,2,0,L|316:276,1,80
264,352,35637,1,0,0:0:0:0:
124,164,35824,1,0,0:0:0:0:
192,228,36012,6,0,P|154:257|105:257,1,80
42,200,36293,2,0,P|35:153|60:110,1,80
144,76,36574,2,0,P|188:93|212:136,1,80
305,141,36856,2,0,P|347:117|363:80,1,80
491,39,37137,1,0,0:0:0:0:
459,286,37324,1,0,0:0:0:0:
456,246,37417,1,0,0:0:0:0:
452,205,37512,6,0,P|394:200|343:230,2,120,4|0|0,0:0|0:0|0:0,0:0:0:0:
503,118,38449,1,0,0:0:0:0:
496,80,38542,1,0,0:0:0:0:
491,39,38636,1,0,0:0:0:0:
416,128,38824,1,0,0:0:0:0:
306,142,39012,6,0,P|312:76|306:40,1,80,8|0,0:0|0:0,0:0:0:0:
221,99,39293,2,0,P|215:151|225:189,1,80
138,252,39574,2,0,P|178:259|218:256,1,80
360,317,39856,2,0,P|321:321|282:314,1,80
210,357,40137,1,0,0:0:0:0:
337,233,40324,1,0,0:0:0:0:
306,142,40512,6,0,P|332:90|402:55,2,120,4|0|0,0:0|0:0|0:0,0:0:0:0:
108,184,41356,1,0,0:0:0:0:
135,155,41450,1,0,0:0:0:0:
172,140,41544,1,0,0:0:0:0:
212,142,41637,1,0,0:0:0:0:
16,107,41824,1,0,0:0:0:0:
212,142,42012,6,0,P|263:104|279:78,1,80,8|0,0:0|0:0,0:0:0:0:
108,184,42293,2,0,P|50:209|27:230,1,80
186,232,42574,2,0,P|199:278|228:314,1,80
144,96,42856,2,0,P|131:50|102:14,1,80
104,224,43137,1,0,0:0:0:0:
296,112,43324,1,0,0:0:0:0:
248,316,43512,6,0,P|320:328|348:312,1,80,4|0,0:0|0:0,0:0:0:0:
356,272,43793,2,0,P|404:240|436:228,1,80
484,208,44074,2,0,P|484:152|468:116,1,80
424,40,44356,2,0,P|412:80|408:128,1,80
237,146,44637,1,0,0:0:0:0:
133,222,44824,1,0,0:0:0:0:
98,201,44918,1,0,0:0:0:0:
63,180,45012,6,0,P|23:165|-32:168,1,80,8|0,0:0|0:0,0:0:0:0:
130,306,45293,2,0,P|170:315|220:298,1,80
161,141,45574,2,0,P|134:81|103:56,1,80
38,263,45856,2,0,P|36:315|61:352,1,80
225,227,46137,1,0,0:0:0:0:
358,175,46324,1,0,0:0:0:0:
397,166,46418,1,0,0:0:0:0:
436,159,46512,6,0,L|528:135,1,80,4|0,0:0|0:0,0:0:0:0:
460,64,46793,2,0,L|384:86,1,80
299,97,47074,2,0,P|276:142|274:186,1,80
241,37,47356,2,0,P|190:45|139:71,1,80
74,98,47637,2,0,L|49:47,2,40
431,199,48012,5,6,0:0:0:0:
81,199,48293,1,2,0:0:0:0:
256,332,48574,1,2,0:0:0:0:
255,112,48856,1,2,0:0:0:0:
255,332,49137,1,4,0:0:0:0:
255,225,49324,1,4,0:0:0:0:
155,274,49512,5,0,0:0:0:0:
81,199,49699,1,0,0:0:0:0:
81,199,49793,1,0,0:0:0:0:
153,124,49981,1,0,0:0:0:0:
153,124,50074,1,0,0:0:0:0:
227,50,50262,2,0,L|203:14,1,40
312,49,50449,2,0,L|288:10,1,40
366,142,50637,2,0,L|390:184,1,40
446,134,50824,2,0,L|470:176,1,40
461,237,51012,5,0,0:0:0:0:
384,307,51199,1,0,0:0:0:0:
384,307,51293,1,0,0:0:0:0:
285,271,51481,1,0,0:0:0:0:
285,271,51574,1,0,0:0:0:0:
192,318,51762,2,0,L|161:355,1,40
117,236,51949,2,0,L|143:206,1,40
232,213,52137,2,0,L|201:250,1,40
78,342,52324,2,0,L|103:311,1,40
182,126,52512,5,4,0:0:0:0:
98,64,52699,1,0,0:0:0:0:
90,44,52793,1,0,0:0:0:0:
256,48,52981,1,0,0:0:0:0:
265,27,53074,1,0,0:0:0:0:
366,106,53262,2,0,L|415:91,1,40
437,166,53449,2,0,L|399:178,1,40
432,250,53637,2,0,L|481:235,1,40
499,310,53824,2,0,L|461:322,1,40
351,362,54012,5,0,0:0:0:0:
247,366,54199,1,0,0:0:0:0:
219,348,54293,1,0,0:0:0:0:
84,336,54481,1,0,0:0:0:0:
114,350,54574,1,0,0:0:0:0:
72,216,54762,1,0,0:0:0:0:
78,176,54855,1,0,0:0:0:0:
102,145,54949,1,0,0:0:0:0:
138,128,55043,1,0,0:0:0:0:
178,131,55137,1,0,0:0:0:0:
212,151,55230,1,0,0:0:0:0:
232,185,55324,1,0,0:0:0:0:
200,20,55512,5,4,0:0:0:0:
279,107,55699,1,0,0:0:0:0:
310,99,55793,1,0,0:0:0:0:
398,184,55981,1,0,0:0:0:0:
361,191,56074,1,0,0:0:0:0:
284,276,56262,2,0,L|254:306,1,40
353,306,56449,2,0,L|353:356,1,40
417,269,56637,2,0,L|449:297,1,40
487,201,56824,1,0,0:0:0:0:
490,169,56917,1,0,0:0:0:0:
479,139,57011,5,4,0:0:0:0:
423,51,57199,1,0,0:0:0:0:
417,75,57293,1,0,0:0:0:0:
315,49,57481,1,0,0:0:0:0:
325,12,57574,1,0,0:0:0:0:
192,50,57762,2,0,L|172:95,1,40
114,50,57949,2,0,L|94:95,1,40
34,50,58137,2,0,L|14:95,1,40
43,220,58324,1,0,0:0:0:0:
78,204,58417,1,0,0:0:0:0:
110,191,58512,5,4,0:0:0:0:
221,218,58699,1,0,0:0:0:0:
247,236,58793,1,0,0:0:0:0:
332,180,58981,1,0,0:0:0:0:
358,163,59074,1,0,0:0:0:0:
391,289,59262,5,4,0:0:0:0:
332,180,59449,1,0,0:0:0:0:
309,159,59543,1,0,0:0:0:0:
247,236,59731,1,0,0:0:0:0:
268,259,59824,1,0,0:0:0:0:
191,362,60012,5,0,0:0:0:0:
243,39,60293,1,0,0:0:0:0:
68,277,60574,1,0,0:0:0:0:
490,218,60856,1,0,0:0:0:0:
103,111,61137,1,0,0:0:0:0:
383,111,61324,2,0,L|384:140,2,20
440,176,61512,6,0,P|400:204|364:196,1,80
248,204,61887,2,0,L|240:244,1,40,8|0,0:0|0:0,0:0:0:0:
145,216,62074,2,0,L|131:167,1,40
103,111,62262,2,0,B|157:79|157:79|220:82,1,120
292,68,62637,2,0,L|338:49,1,40,8|0,0:0|0:0,0:0:0:0:
383,111,62824,2,0,L|427:93,1,40
451,176,63012,6,0,P|451:262|409:283,1,120
341,309,63387,2,0,L|304:352,1,40,8|0,0:0|0:0,0:0:0:0:
246,336,63574,2,0,L|192:368,1,40
138,345,63762,2,0,B|88:328|88:328|4:352,1,120
1,278,64137,2,0,L|61:258,1,40,8|0,0:0|0:0,0:0:0:0:
137,192,64324,2,0,L|99:204,1,40
210,242,64512,6,0,P|220:162|194:124,1,120
101,76,64887,2,0,L|124:111,1,40,8|0,0:0|0:0,0:0:0:0:
231,52,65074,2,0,L|208:14,1,40
290,107,65262,2,0,P|366:131|408:112,1,120
475,35,65637,2,0,L|449:70,1,40,8|0,0:0|0:0,0:0:0:0:
451,187,65824,2,0,L|456:235,1,40
312,308,66012,6,0,L|439:295,1,120
156,296,66387,2,0,L|160:344,1,40
240,364,66574,2,0,L|236:312,1,40
100,216,66762,2,0,P|168:212|208:176,1,120
228,156,67137,1,8,0:0:0:0:
243,127,67231,1,0,0:0:0:0:
305,124,67324,1,0,0:0:0:0:
321,95,67418,1,0,0:0:0:0:
336,66,67512,6,0,L|396:46,1,40,4|0,0:0|0:0,0:0:0:0:
455,221,67699,2,0,L|416:232,1,40
446,115,67887,2,0,L|506:95,1,40,8|0,0:0|0:0,0:0:0:0:
320,230,68074,2,0,L|281:241,1,40
424,122,68262,2,0,L|488:118,1,40
288,215,68449,2,0,L|236:218,1,40
390,268,68637,2,0,L|423:302,1,40,8|0,0:0|0:0,0:0:0:0:
376,180,68824,1,0,0:0:0:0:
376,180,68918,1,0,0:0:0:0:
328,304,69012,6,0,L|314:345,1,40
200,364,69199,2,0,L|212:326,1,40
200,196,69387,2,0,L|151:195,1,40,8|0,0:0|0:0,0:0:0:0:
71,269,69574,2,0,L|126:273,1,40
222,176,69762,2,0,L|174:165,1,40,8|0,0:0|0:0,0:0:0:0:
42,288,69949,2,0,L|95:302,1,40
238,148,70137,2,0,L|194:124,1,40,8|0,0:0|0:0,0:0:0:0:
0,264,70324,1,0,0:0:0:0:
0,262,70417,1,0,0:0:0:0:
0,222,70511,5,0,0:0:0:0:
0,183,70605,1,0,0:0:0:0:
16,147,70699,1,0,0:0:0:0:
41,116,70792,1,0,0:0:0:0:
74,93,70886,1,0,0:0:0:0:
111,79,70980,1,0,0:0:0:0:
151,75,71074,1,0,0:0:0:0:
192,84,71168,1,0,0:0:0:0:
228,100,71262,2,0,L|236:28,3,40
272,104,71637,5,0,0:0:0:0:
328,121,71730,1,0,0:0:0:0:
387,110,71824,1,0,0:0:0:0:
434,74,71918,1,0,0:0:0:0:
459,20,72012,5,0,0:0:0:0:
77,283,72293,1,0,0:0:0:0:
435,283,72574,1,0,0:0:0:0:
254,365,72856,1,0,0:0:0:0:
138,148,73137,1,4,0:0:0:0:
374,148,73324,1,4,0:0:0:0:
356,275,73512,6,0,L|436:284,1,80
192,297,73793,1,0,0:0:0:0:
192,297,73887,2,0,L|132:339,1,40,8|0,0:0|0:0,0:0:0:0:
257,207,74074,2,0,L|245:116,1,80
363,68,74356,2,0,L|374:148,1,80,0|8,0:0|0:0,0:0:0:0:
374,148,74637,1,0,0:0:0:0:
140,113,74824,6,0,L|196:96,1,40
140,113,75012,2,0,L|31:144,1,80
74,226,75293,1,0,0:0:0:0:
74,226,75387,2,0,L|132:211,1,40,8|0,0:0|0:0,0:0:0:0:
191,263,75574,2,0,L|189:352,1,80
291,335,75856,2,0,P|329:327|369:332,1,80,0|8,0:0|0:0,0:0:0:0:
369,332,76137,1,0,0:0:0:0:
395,226,76324,5,0,0:0:0:0:
420,214,76418,1,0,0:0:0:0:
446,203,76512,2,0,P|457:154|419:103,1,80
352,66,76793,1,0,0:0:0:0:
352,66,76887,2,0,L|415:53,1,40,8|0,0:0|0:0,0:0:0:0:
260,62,77074,2,0,L|173:52,1,80
41,99,77356,2,0,L|120:113,1,80,0|8,0:0|0:0,0:0:0:0:
144,112,77637,1,0,0:0:0:0:
25,228,77824,6,0,L|28:160,1,40
25,228,78012,2,0,P|63:267|105:270,1,80
192,360,78293,1,0,0:0:0:0:
192,360,78387,2,0,L|136:320,1,40,8|0,0:0|0:0,0:0:0:0:
252,300,78574,2,0,L|328:352,1,80
400,292,78856,2,0,P|428:240|408:200,1,80,0|8,0:0|0:0,0:0:0:0:
408,200,79137,1,0,0:0:0:0:
477,143,79324,2,0,L|503:129,2,20
442,76,79512,6,0,P|409:27|376:17,1,80
330,122,79793,1,0,0:0:0:0:
329,121,79887,2,0,L|363:100,1,40,8|0,0:0|0:0,0:0:0:0:
281,56,80074,2,0,L|201:99,1,80
244,206,80356,2,0,L|282:277,1,80
292,296,80637,1,0,0:0:0:0:
131,187,80824,5,0,0:0:0:0:
131,187,80917,1,0,0:0:0:0:
173,247,81011,2,0,P|138:265|100:257,1,80
30,278,81293,1,0,0:0:0:0:
30,278,81387,2,0,L|42:338,1,40,8|0,0:0|0:0,0:0:0:0:
49,204,81574,2,0,L|24:115,1,80
42,46,81856,2,0,P|80:57|105:88,1,80,0|8,0:0|0:0,0:0:0:0:
125,177,82137,1,0,0:0:0:0:
192,30,82324,1,0,0:0:0:0:
212,108,82512,5,4,0:0:0:0:
346,118,82793,1,0,0:0:0:0:
346,118,82887,2,0,L|443:106,1,80,8|0,0:0|0:0,0:0:0:0:
125,177,83262,5,4,0:0:0:0:
287,187,83543,1,0,0:0:0:0:
287,187,83637,2,0,P|354:209|390:192,1,80,8|0,0:0|0:0,0:0:0:0:
372,325,84012,5,4,0:0:0:0:
410,315,84105,1,0,0:0:0:0:
441,290,84199,1,0,0:0:0:0:
296,345,84387,5,12,0:0:0:0:
336,342,84480,1,0,0:0:0:0:
371,325,84574,1,0,0:0:0:0:
218,344,84762,5,4,0:0:0:0:
257,351,84855,1,0,0:0:0:0:
296,345,84949,5,0,0:0:0:0:
283,307,85042,1,0,0:0:0:0:
254,280,85136,1,12,0:0:0:0:
216,270,85230,1,0,0:0:0:0:
177,279,85324,1,0,0:0:0:0:
148,305,85417,1,0,0:0:0:0:
134,343,85512,6,0,P|96:280|112:224,1,95.9999970703126
277,142,85793,1,0,0:0:0:0:
277,142,85887,2,0,L|360:128,1,47.9999985351563,8|0,0:0|0:0,0:0:0:0:
174,71,86074,2,0,L|56:96,1,95.9999970703126
185,182,86356,2,0,P|231:229|296:224,1,95.9999970703126
365,188,86637,2,0,P|373:121|344:80,1,95.9999970703126,8|0,0:0|0:0,0:0:0:0:
262,29,86918,1,0,0:0:0:0:
262,29,87012,6,0,L|376:0,1,95.9999970703126
466,148,87293,1,0,0:0:0:0:
466,148,87387,2,0,L|448:88,1,47.9999985351563,8|0,0:0|0:0,0:0:0:0:
435,248,87574,2,0,P|397:275|350:277,1,95.9999970703126
186,182,87856,2,0,P|259:167|288:120,1,95.9999970703126
95,202,88137,2,0,L|56:256,1,47.9999985351563,8|0,0:0|0:0,0:0:0:0:
238,350,88324,5,0,0:0:0:0:
238,350,88418,1,0,0:0:0:0:
168,315,88512,2,0,P|197:278|244:270,1,95.9999970703126
385,303,88793,2,0,L|368:232,2,47.9999985351563,8|0|0,0:0|0:0|0:0,0:0:0:0:
440,168,89074,2,0,L|472:280,1,95.9999970703126
512,116,89356,2,0,P|464:76|400:88,1,95.9999970703126
288,115,89637,2,0,L|323:155,1,47.9999985351563,8|0,0:0|0:0,0:0:0:0:
352,72,89824,1,0,0:0:0:0:
284,40,90012,6,0,P|224:72|224:128,1,95.9999970703126
132,204,90293,1,0,0:0:0:0:
132,204,90387,2,0,L|104:144,1,47.9999985351563,8|0,0:0|0:0,0:0:0:0:
60,256,90574,2,0,P|120:296|180:276,1,95.9999970703126
432,297,90856,2,0,L|320:272,1,95.9999970703126
262,336,91137,2,0,L|244:292,1,47.9999985351563,8|0,0:0|0:0,0:0:0:0:
249,244,91324,1,0,0:0:0:0:
259,196,91418,1,0,0:0:0:0:
272,152,91512,6,0,P|340:128|400:152,1,95.9999970703126
444,128,91793,1,0,0:0:0:0:
444,128,91887,2,0,L|456:56,1,47.9999985351563,8|0,0:0|0:0,0:0:0:0:
168,72,92074,2,0,P|136:128|124:200,1,95.9999970703126
244,112,92356,2,0,B|256:80|264:48|264:48|328:32,1,95.9999970703126
384,64,92637,1,8,0:0:0:0:
469,229,92824,6,0,L|469:277,1,47.9999985351563
333,234,93012,2,0,P|361:197|408:192,1,95.9999970703126
196,312,93293,1,0,0:0:0:0:
196,312,93387,2,0,L|260:280,1,47.9999985351563,8|0,0:0|0:0,0:0:0:0:
91,153,93574,2,0,P|58:119|12:114,1,95.9999970703126
176,224,93856,2,0,P|228:176|208:120,1,95.9999970703126
160,112,94137,1,8,0:0:0:0:
320,68,94324,1,0,0:0:0:0:
160,112,94512,6,0,L|48:48,1,95.9999970703126,4|0,0:0|0:0,0:0:0:0:
272,136,94887,1,8,0:0:0:0:
176,224,95074,1,0,0:0:0:0:
160,112,95262,6,0,L|48:48,1,95.9999970703126,4|0,0:0|0:0,0:0:0:0:
320,68,95637,1,8,0:0:0:0:
143,274,95824,1,0,0:0:0:0:
320,68,96012,5,4,0:0:0:0:
358,84,96105,1,0,0:0:0:0:
391,110,96199,1,0,0:0:0:0:
415,144,96293,1,0,0:0:0:0:
430,183,96387,5,4,0:0:0:0:
433,225,96480,1,0,0:0:0:0:
424,266,96574,1,0,0:0:0:0:
405,303,96668,1,0,0:0:0:0:
376,333,96762,5,4,0:0:0:0:
340,355,96855,1,0,0:0:0:0:
300,365,96949,1,0,0:0:0:0:
258,365,97043,1,0,0:0:0:0:
205,364,97137,5,0,0:0:0:0:
144,351,97230,1,0,0:0:0:0:
93,316,97324,1,0,0:0:0:0:
59,264,97418,1,0,0:0:0:0:
48,203,97512,5,4,0:0:0:0:
140,76,97887,1,0,0:0:0:0:
147,98,97980,1,0,0:0:0:0:
154,121,98074,1,0,0:0:0:0:
161,144,98168,1,0,0:0:0:0:
168,168,98262,2,0,L|130:182,3,40
248,180,98637,5,0,0:0:0:0:
270,187,98730,1,0,0:0:0:0:
294,188,98824,1,0,0:0:0:0:
318,183,98918,1,0,0:0:0:0:
340,176,99012,5,0,0:0:0:0:
356,140,99105,1,0,0:0:0:0:
338,106,99199,1,0,0:0:0:0:
300,98,99293,1,0,0:0:0:0:
272,128,99387,5,0,0:0:0:0:
259,165,99480,1,0,0:0:0:0:
267,204,99574,1,0,0:0:0:0:
292,235,99668,1,0,0:0:0:0:
329,249,99762,5,0,0:0:0:0:
368,245,99855,1,0,0:0:0:0:
400,222,99949,1,0,0:0:0:0:
416,184,100043,1,0,0:0:0:0:
422,144,100137,5,0,0:0:0:0:
418,104,100230,1,0,0:0:0:0:
399,69,100324,1,0,0:0:0:0:
367,45,100418,1,0,0:0:0:0:
330,31,100512,2,0,P|234:28|196:46,1,120
165,42,100887,5,0,0:0:0:0:
149,63,100980,1,0,0:0:0:0:
133,85,101074,1,0,0:0:0:0:
118,106,101168,1,0,0:0:0:0:
54,155,101262,2,0,L|9:173,3,40
127,191,101637,2,0,L|142:234,3,40
143,287,102012,5,0,0:0:0:0:
182,286,102105,1,0,0:0:0:0:
219,302,102199,1,0,0:0:0:0:
245,331,102293,1,0,0:0:0:0:
258,369,102387,5,0,0:0:0:0:
282,367,102480,1,0,0:0:0:0:
306,365,102574,1,0,0:0:0:0:
330,363,102668,1,0,0:0:0:0:
354,361,102762,1,0,0:0:0:0:
378,359,102855,1,0,0:0:0:0:
403,359,102949,1,0,0:0:0:0:
433,366,103042,1,0,0:0:0:0:
465,360,103136,5,0,0:0:0:0:
491,342,103230,1,0,0:0:0:0:
507,315,103324,1,0,0:0:0:0:
511,284,103417,1,0,0:0:0:0:
502,253,103512,2,0,L|467:199,3,40
406,200,103887,5,0,0:0:0:0:
387,164,103980,1,0,0:0:0:0:
369,129,104074,1,0,0:0:0:0:
350,93,104168,1,0,0:0:0:0:
331,58,104262,1,0,0:0:0:0:
299,82,104355,1,0,0:0:0:0:
262,95,104449,1,0,0:0:0:0:
222,94,104543,1,0,0:0:0:0:
144,76,104637,6,0,L|128:24,1,40
72,132,104824,2,0,L|88:188,1,40
52,52,105012,2,0,L|-8:40,1,40
160,156,105199,2,0,L|208:172,1,40
164,188,105387,5,0,0:0:0:0:
149,224,105480,1,0,0:0:0:0:
119,249,105574,1,0,0:0:0:0:
80,256,105668,1,0,0:0:0:0:
43,242,105762,1,0,0:0:0:0:
52,281,105855,1,0,0:0:0:0:
62,319,105949,1,0,0:0:0:0:
71,358,106043,1,0,0:0:0:0:
216,312,106137,6,0,L|172:312,1,40
320,284,106324,2,0,L|352:252,1,40
288,364,106512,1,6,0:0:0:0:
256,241,106699,1,0,0:0:0:0:
252,225,106792,1,0,0:0:0:0:
248,210,106886,1,0,0:0:0:0:
244,194,106980,1,0,0:0:0:0:
240,179,107074,1,0,0:0:0:0:
288,364,107262,5,6,0:0:0:0:
236,164,107449,1,0,0:0:0:0:
232,148,107542,1,0,0:0:0:0:
228,133,107636,1,0,0:0:0:0:
224,117,107730,1,0,0:0:0:0:
220,102,107824,1,0,0:0:0:0:
288,364,108012,6,0,L|416:336,1,120,6|0,0:0|0:0,0:0:0:0:
146,220,108387,2,0,L|16:244,1,120,6|0,0:0|0:0,0:0:0:0:
424,158,108762,2,0,P|416:129|396:108,3,60.0000022888184,6|0|0|0,0:0|0:0|0:0|0:0,0:0:0:0:
360,88,109137,1,2,0:0:0:0:
320,99,109230,1,2,0:0:0:0:
295,132,109324,1,2,0:0:0:0:
300,176,109418,1,2,0:0:0:0:
320,212,109512,6,0,P|376:256|460:268,1,120.000004577637,6|0,0:0|0:0,0:0:0:0:
136,212,109793,1,0,0:0:0:0:
136,212,109887,2,0,L|108:140,1,60.0000022888184,8|0,0:0|0:0,0:0:0:0:
212,260,110074,2,0,P|160:304|104:296,1,120.000004577637
228,72,110356,2,0,P|268:20|348:12,1,120.000004577637
484,84,110637,2,0,L|520:152,1,60.0000022888184,8|0,0:0|0:0,0:0:0:0:
432,276,110824,2,0,L|404:223,1,60.0000022888184
144,104,111012,6,0,P|84:64|20:72,1,120.000004577637
312,312,111293,1,0,0:0:0:0:
312,312,111387,2,0,L|344:376,1,60.0000022888184,8|0,0:0|0:0,0:0:0:0:
384,152,111574,2,0,P|380:84|328:28,1,120.000004577637
212,260,111856,2,0,P|216:324|272:376,1,120.000004577637
347,223,112137,2,0,L|288:216,1,60.0000022888184,8|0,0:0|0:0,0:0:0:0:
57,234,112324,2,0,L|116:248,1,60.0000022888184
432,288,112512,6,0,P|492:272|508:204,1,120.000004577637
292,32,112793,1,0,0:0:0:0:
292,32,112887,2,0,L|324:116,1,60.0000022888184,8|0,0:0|0:0,0:0:0:0:
128,120,113074,2,0,P|60:92|40:36,1,120.000004577637
216,176,113356,2,0,P|276:224|284:280,1,120.000004577637
196,355,113637,2,0,L|132:335,1,60.0000022888184,8|0,0:0|0:0,0:0:0:0:
464,360,113824,2,0,L|524:332,1,60.0000022888184
455,101,114012,6,0,P|396:98|348:132,1,120.000004577637
60,236,114293,2,0,P|124:256|184:244,1,120.000004577637
232,88,114574,2,0,P|184:36|112:28,1,120.000004577637
80,88,114856,1,0,0:0:0:0:
96,132,114949,1,0,0:0:0:0:
196,355,115137,1,8,0:0:0:0:
376,160,115324,1,8,0:0:0:0:
380,112,115418,1,0,0:0:0:0:
388,16,115512,6,0,P|356:56|392:120,1,120.000004577637
466,237,115793,2,0,L|352:272,1,120.000004577637
168,312,116074,2,0,L|136:256,2,60.0000022888184
216,234,116356,2,0,P|230:171|205:118,1,120.000004577637
149,37,116637,2,0,L|130:107,1,60.0000022888184,8|0,0:0|0:0,0:0:0:0:
317,203,116824,2,0,L|336:133,1,60.0000022888184,8|0,0:0|0:0,0:0:0:0:
105,170,117012,6,0,P|32:190|16:242,1,120.000004577637
317,313,117293,2,0,P|390:293|406:241,1,120.000004577637
102,288,117574,2,0,L|85:351,2,60.0000022888184
210,143,117856,2,0,P|226:84|274:35,1,120.000004577637
432,46,118137,1,8,0:0:0:0:
447,84,118230,1,0,0:0:0:0:
463,123,118324,1,8,0:0:0:0:
478,162,118418,1,0,0:0:0:0:
494,201,118512,6,0,L|405:243,1,60.0000022888184
316,160,118699,2,0,L|371:135,1,60.0000022888184
459,338,118887,1,8,0:0:0:0:
417,343,118980,1,0,0:0:0:0:
376,335,119074,1,0,0:0:0:0:
341,313,119168,1,0,0:0:0:0:
308,287,119262,2,0,L|387:271,1,60.0000022888184,4|0,0:0|0:0,0:0:0:0:
235,365,119449,2,0,L|313:348,1,60.0000022888184
214,342,119637,5,8,0:0:0:0:
178,320,119730,1,0,0:0:0:0:
136,318,119824,1,0,0:0:0:0:
98,335,119918,1,0,0:0:0:0:
73,368,120012,5,4,0:0:0:0:
88,322,120105,1,0,0:0:0:0:
89,274,120199,1,0,0:0:0:0:
76,228,120293,1,0,0:0:0:0:
69,182,120387,2,0,L|25:155,3,40,4|0|0|0,0:0|0:0|0:0|0:0,0:0:0:0:
80,144,120762,5,4,0:0:0:0:
115,112,120855,1,0,0:0:0:0:
160,98,120949,1,0,0:0:0:0:
208,104,121043,1,0,0:0:0:0:
238,187,121137,5,4,0:0:0:0:
290,191,121230,1,0,0:0:0:0:
336,164,121324,1,0,0:0:0:0:
359,116,121418,1,0,0:0:0:0:
349,64,121512,5,4,0:0:0:0:
394,282,122074,2,0,L|428:294,1,30.0000011444092
178,254,122637,2,0,L|160:300,1,35.9999989013672
349,64,123199,2,0,L|377:-7,1,40,2|0,0:0|0:0,0:0:0:0:
