osu file format v14

[General]
AudioFilename: Lovely Cats.mp3
AudioLeadIn: 0
PreviewTime: 64504
Countdown: 0
SampleSet: Soft
StackLeniency: 0.7
Mode: 0
LetterboxInBreaks: 1
WidescreenStoryboard: 1

[Editor]
DistanceSpacing: 0.7
BeatDivisor: 4
GridSize: 4
TimelineZoom: 1

[Metadata]
Title:Lovely Cats
TitleUnicode:Lovely Cats
Artist:M2U
ArtistUnicode:M2U
Creator:SQUARE MUSIQ
Version:Normal
Source:SQUARE MUSIQ
Tags:우리집 아기고양이 eoehd1ek
BeatmapID:658791
BeatmapSetID:289452

[Difficulty]
HPDrainRate:3
CircleSize:3
OverallDifficulty:3
ApproachRate:2
SliderMultiplier:1.6
SliderTickRate:2

[Events]
//Background and Video events
0,0,"BG.jpg",0,0
//Break Periods
2,16704,30944
2,104704,110944
2,160204,166944
//Storyboard Layer 0 (Background)
//Storyboard Layer 1 (Fail)
//Storyboard Layer 2 (Pass)
//Storyboard Layer 3 (Foreground)
//Storyboard Sound Samples

[TimingPoints]
504,500,4,2,0,100,1,0
64504,-100,4,2,0,100,0,1
64629,-100,4,2,0,100,0,0
80504,-100,4,2,0,100,0,1
80629,-100,4,2,0,100,0,0
96504,-100,4,2,0,100,0,1
96629,-100,4,2,0,100,0,0
144504,-100,4,2,0,100,0,1
160504,-100,4,2,0,100,0,0
180504,-100,4,1,0,100,0,1
196504,-100,4,1,0,100,0,1
212754,-100,4,2,0,100,0,0

[Colours]
Combo1 : 255,128,255
Combo2 : 255,255,128
Combo3 : 128,128,128
Combo4 : 255,128,0

[HitObjects]
96,192,504,5,4,0:0:0:0:
208,192,1004,1,8,0:0:0:0:
208,80,1504,2,0,P|288:64|368:80,1,160,0|8,0:0|0:0,0:0:0:0:
447,159,2504,2,0,P|415:271|351:303,1,160,0|8,0:0|0:0,0:0:0:0:
271,292,3504,1,0,0:0:0:0:
159,292,4004,2,0,L|47:292,2,80,8|0|0,0:0|0:0|0:0,0:0:0:0:
238,212,5004,6,0,L|238:132,2,80,8|0|0,0:0|0:0|0:0,0:0:0:0:
317,291,6004,2,0,L|429:291,1,80,8|0,0:0|0:0,0:0:0:0:
453,291,6504,1,0,0:0:0:0:
453,179,7004,2,0,L|357:179,1,80,8|0,0:0|0:0,0:0:0:0:
333,139,7504,2,0,P|256:161|160:124,2,160,0|8|4,0:0|0:0|0:0,0:0:0:0:
333,251,9004,5,8,0:0:0:0:
221,251,9504,2,0,L|45:251,2,160,0|8|0,0:0|0:0|0:0,0:0:0:0:
221,139,11004,1,8,0:0:0:0:
333,139,11504,1,0,0:0:0:0:
423,183,12004,1,8,0:0:0:0:
423,295,12504,6,0,P|347:278|247:295,1,160,0|8,0:0|0:0,0:0:0:0:
266,176,13504,2,0,P|190:193|90:176,1,160,0|8,0:0|0:0,0:0:0:0:
178,95,14504,2,0,P|258:79|354:111,3,160,0|8|0|8,0:0|0:0|0:0|0:0,0:0:0:0:
256,176,16504,1,6,0:0:0:0:
256,176,32504,5,4,0:0:0:0:
144,176,33004,2,0,P|64:160|-16:176,1,160,8|0,0:0|0:0,0:0:0:0:
64,255,34004,2,0,P|144:287|240:287,1,160,8|0,0:0|0:0,0:0:0:0:
297,211,35004,1,8,0:0:0:0:
377,290,35504,2,0,P|416:224|432:128,1,160,0|8,0:0|0:0,0:0:0:0:
321,143,36504,6,0,L|161:143,1,160,0|8,0:0|0:0,0:0:0:0:
82,222,37504,2,0,P|112:304|208:320,1,160,0|8,0:0|0:0,0:0:0:0:
257,247,38504,1,0,0:0:0:0:
257,247,39004,1,8,0:0:0:0:
257,247,39504,2,0,L|145:247,2,80,0|0|8,0:0|0:0|0:0,0:0:0:0:
256,128,40504,5,4,0:0:0:0:
335,207,41004,2,0,L|447:207,2,80,8|0|0,0:0|0:0|0:0,0:0:0:0:
255,286,42004,2,0,L|143:286,2,80,8|0|0,0:0|0:0|0:0,0:0:0:0:
256,176,43004,2,0,P|208:128|112:144,1,160,8|0,0:0|0:0,0:0:0:0:
121,248,44004,1,8,0:0:0:0:
200,327,44504,6,0,L|392:327,1,160,0|8,0:0|0:0,0:0:0:0:
472,327,45504,2,0,P|448:240|472:167,1,160,0|8,0:0|0:0,0:0:0:0:
387,95,46504,1,0,0:0:0:0:
307,15,47004,1,8,0:0:0:0:
227,94,47504,1,4,0:0:0:0:
306,173,48004,1,12,0:0:0:0:
326,283,48504,6,0,P|237:274|176:348,1,160,4|2,0:0|0:0,0:0:0:0:
86,282,49504,2,0,P|16:288|16:208,1,160,0|2,0:0|0:0,0:0:0:0:
88,135,50504,2,0,L|168:135,1,80
224,136,51004,1,2,0:0:0:0:
224,23,51504,2,0,L|320:23,2,80,0|0|2,0:0|0:0|0:0,0:0:0:0:
172,120,52504,6,0,P|169:202|240:224,1,160,0|2,0:0|0:0,0:0:0:0:
224,336,53504,2,0,L|128:336,2,80,0|0|2,0:0|0:0|0:0,0:0:0:0:
336,336,54504,2,4,P|400:256|384:224,2,120,2|2|2,0:0|0:0|0:0,0:0:0:0:
324,280,55504,2,0,B|324:216|324:216|292:225|292:225|292:144,1,160,6|2,0:0|0:0,0:0:0:0:
224,81,56504,6,0,P|128:81|64:113,1,160,0|8,0:0|0:0,0:0:0:0:
71,219,57504,2,0,P|155:259|215:331,1,160,0|8,0:0|0:0,0:0:0:0:
306,271,58504,2,0,P|293:192|306:111,1,160,0|8,0:0|0:0,0:0:0:0:
389,194,59504,2,0,P|396:105|389:34,1,160,0|8,0:0|0:0,0:0:0:0:
277,34,60504,5,0,0:0:0:0:
237,73,60754,1,0,0:0:0:0:
197,33,61004,1,8,0:0:0:0:
117,112,61504,2,0,B|69:48|69:48|5:128,1,160,0|8,0:0|0:0,0:0:0:0:
19,222,62504,2,0,L|19:318,1,80
72,320,63004,1,8,0:0:0:0:
184,316,63504,2,0,P|186:247|202:215,2,80,0|0|12,0:0|0:0|0:0,0:0:0:0:
296,316,64504,6,0,P|296:252|376:220,1,160,4|8,0:0|0:0,0:0:0:0:
404,328,65504,2,0,P|468:280|468:184,1,160,0|8,0:0|0:0,0:0:0:0:
400,120,66504,2,0,L|288:120,1,80
276,152,67004,2,0,L|164:152,1,80,8|0,0:0|0:0,0:0:0:0:
193,209,67504,2,0,L|113:209,2,80,0|0|8,0:0|0:0|0:0,0:0:0:0:
272,288,68504,6,0,B|249:305|249:305|176:304,1,80
197,248,69004,1,8,0:0:0:0:
85,248,69504,2,0,L|21:184,1,80
88,176,70004,1,8,0:0:0:0:
84,56,70504,1,0,0:0:0:0:
163,135,71004,5,0,0:0:0:0:
208,176,71254,1,0,0:0:0:0:
267,200,71504,2,0,B|315:149|356:252|401:146,1,160,2|10,0:0|0:0,0:0:0:0:
398,94,72254,1,0,0:0:0:0:
398,94,72504,1,4,0:0:0:0:
286,94,73004,6,0,P|189:76|136:11,1,160,8|0,0:0|0:0,0:0:0:0:
68,113,74004,2,0,L|68:289,1,160,8|0,0:0|0:0,0:0:0:0:
164,336,75004,2,0,L|276:336,1,80,8|0,0:0|0:0,0:0:0:0:
283,296,75504,2,0,P|316:226|283:136,1,160,0|8,0:0|0:0,0:0:0:0:
374,228,76504,6,0,B|454:228|454:228|454:116,1,160,0|8,0:0|0:0,0:0:0:0:
374,68,77504,2,0,L|198:68,1,160,0|8,0:0|0:0,0:0:0:0:
214,180,78504,2,0,L|214:356,3,160,0|8|0|8,0:0|0:0|0:0|0:0,0:0:0:0:
102,340,80504,5,4,0:0:0:0:
22,260,81004,2,0,P|43:183|92:120,1,160,8|0,0:0|0:0,0:0:0:0:
171,199,82004,2,0,L|171:119,1,80,8|0,0:0|0:0,0:0:0:0:
171,63,82504,2,0,P|267:15|347:31,1,160,0|8,0:0|0:0,0:0:0:0:
396,98,83504,2,0,L|396:194,2,80,0|0|8,0:0|0:0|0:0,0:0:0:0:
316,177,84504,6,0,P|220:209|140:209,1,160,0|8,0:0|0:0,0:0:0:0:
161,99,85504,2,0,P|257:131|337:131,1,160,0|8,0:0|0:0,0:0:0:0:
394,212,86504,2,2,B|298:180|298:180|186:212|186:212|74:180,1,320
87,71,88004,1,6,0:0:0:0:
199,71,88504,6,0,P|279:87|375:39,1,160,0|8,0:0|0:0,0:0:0:0:
429,139,89504,2,0,P|445:219|397:315,1,160,0|8,0:0|0:0,0:0:0:0:
323,251,90504,2,0,P|307:171|355:75,1,160,0|8,0:0|0:0,0:0:0:0:
237,59,91504,2,0,P|163:32|86:48,1,160,0|8,0:0|0:0,0:0:0:0:
85,127,92504,6,0,P|59:202|75:279,1,160,0|8,0:0|0:0,0:0:0:0:
156,200,93504,2,0,P|160:272|228:344,1,160,0|8,0:0|0:0,0:0:0:0:
213,238,94504,2,6,B|325:206|325:174|325:190|397:189,1,160
302,93,95504,2,6,B|190:61|190:29|190:45|118:44,1,160
152,155,96504,5,6,0:0:0:0:
152,267,97004,1,10,0:0:0:0:
248,210,97504,1,0,0:0:0:0:
336,280,98004,1,0,0:0:0:0:
384,266,98254,2,0,P|480:218|480:90,1,240,0|8,0:0|0:0,0:0:0:0:
372,96,99504,6,0,L|276:96,1,80
252,56,100004,1,8,0:0:0:0:
144,92,100504,1,0,0:0:0:0:
64,168,101004,2,0,L|128:264,1,80,8|0,0:0|0:0,0:0:0:0:
147,274,101504,1,0,0:0:0:0:
259,274,102004,2,0,P|307:242|307:210,1,80,8|0,0:0|0:0,0:0:0:0:
256,192,102504,12,0,104504,0:0:0:0:
256,192,112504,5,4,0:0:0:0:
256,304,113004,2,0,L|144:304,2,80,8|0|0,0:0|0:0|0:0,0:0:0:0:
368,304,114004,2,0,P|432:224|416:144,1,160,8|0,0:0|0:0,0:0:0:0:
428,59,115004,2,0,L|316:59,1,80,8|0,0:0|0:0,0:0:0:0:
308,98,115504,1,0,0:0:0:0:
228,177,116004,1,8,0:0:0:0:
148,256,116504,6,0,P|68:256|100:320,1,160,0|8,0:0|0:0,0:0:0:0:
192,311,117504,2,0,L|368:311,1,160,0|8,0:0|0:0,0:0:0:0:
412,216,118504,1,0,0:0:0:0:
384,108,119004,1,8,0:0:0:0:
285,128,119504,1,0,0:0:0:0:
205,206,120004,2,0,P|166:175|144:223,1,80,8|0,0:0|0:0,0:0:0:0:
107,148,120504,5,4,0:0:0:0:
186,68,121004,2,0,L|362:68,1,160,8|0,0:0|0:0,0:0:0:0:
425,147,122004,2,0,P|393:227|313:259,1,160,8|0,0:0|0:0,0:0:0:0:
217,258,123004,1,8,0:0:0:0:
121,297,123504,2,0,L|41:297,2,80,0|0|8,0:0|0:0|0:0,0:0:0:0:
121,185,124504,6,0,P|158:114|233:89,1,160,0|8,0:0|0:0,0:0:0:0:
309,168,125504,2,0,P|346:238|421:264,1,160,0|8,0:0|0:0,0:0:0:0:
418,152,126504,1,0,0:0:0:0:
338,72,127004,1,8,0:0:0:0:
258,151,127504,1,4,0:0:0:0:
258,263,128004,1,4,0:0:0:0:
146,263,128504,6,0,P|50:199|50:167,1,160,4|8,0:0|0:0,0:0:0:0:
129,87,129504,2,0,P|193:80|289:112,1,160,0|8,0:0|0:0,0:0:0:0:
362,187,130504,1,0,0:0:0:0:
312,88,131004,1,0,0:0:0:0:
240,176,131504,1,0,0:0:0:0:
136,140,132004,1,8,0:0:0:0:
32,184,132504,6,2,P|64:296|192:312,1,240
230,320,133504,2,2,B|310:320|310:320|390:288|390:288|470:288,1,240
424,248,134504,2,0,P|424:136|312:104,1,240,2|0,0:0|0:0,0:0:0:0:
277,62,135504,5,4,0:0:0:0:
197,141,136004,1,6,0:0:0:0:
117,61,136504,2,0,P|37:100|53:173,1,160,4|8,0:0|0:0,0:0:0:0:
114,233,137504,2,0,B|178:281|178:281|242:233,1,160,0|8,0:0|0:0,0:0:0:0:
242,120,138504,2,2,P|338:88|450:168,2,240
242,232,140504,5,0,0:0:0:0:
242,232,140754,1,0,0:0:0:0:
242,232,141004,1,8,0:0:0:0:
274,124,141504,1,0,0:0:0:0:
274,124,141754,1,0,0:0:0:0:
274,124,142004,1,8,0:0:0:0:
256,192,142504,12,4,144004,0:0:0:0:
288,132,144504,5,4,0:0:0:0:
384,192,145004,1,8,0:0:0:0:
384,304,145504,2,0,P|320:304|240:240,1,160,0|8,0:0|0:0,0:0:0:0:
132,248,146504,2,0,L|20:248,2,80,0|0|8,0:0|0:0|0:0,0:0:0:0:
132,136,147504,2,0,P|212:168|276:136,1,160,0|8,0:0|0:0,0:0:0:0:
353,58,148504,6,2,B|400:128|400:128|353:170|353:170|401:266,1,240
392,305,149504,2,0,P|312:321|216:305,1,160,2|8,0:0|0:0,0:0:0:0:
144,256,150504,1,0,0:0:0:0:
64,176,151004,1,8,0:0:0:0:
143,96,151504,1,0,0:0:0:0:
222,175,152004,1,8,0:0:0:0:
222,287,152504,6,0,P|304:324|382:319,1,160,4|8,0:0|0:0,0:0:0:0:
451,242,153504,2,0,L|451:146,2,80,0|0|8,0:0|0:0|0:0,0:0:0:0:
339,242,154504,2,2,B|305:261|271:277|243:242|243:242|209:197|177:213|113:245,1,240
112,184,155504,1,0,0:0:0:0:
180,104,156004,1,2,0:0:0:0:
294,48,156504,6,0,P|404:92|448:92,1,160,2|8,0:0|0:0,0:0:0:0:
458,207,157504,1,0,0:0:0:0:
378,286,158004,1,8,0:0:0:0:
266,286,158504,2,0,L|106:286,3,160,0|8|0|8,0:0|0:0|0:0|0:0,0:0:0:0:
128,64,168504,5,4,0:0:0:0:
128,176,169004,2,0,P|176:272|224:288,1,160,8|0,0:0|0:0,0:0:0:0:
332,287,170004,1,8,0:0:0:0:
428,228,170504,2,0,P|466:153|456:69,1,160
352,104,171504,1,0,0:0:0:0:
296,200,172004,1,8,0:0:0:0:
252,304,172504,6,2,L|156:304,2,80,2|2|10,0:0|0:0|0:0,0:0:0:0:
260,192,173504,2,2,L|340:192,2,80,2|2|10,0:0|0:0|0:0,0:0:0:0:
164,248,174504,2,6,P|112:232|188:112,1,240
220,92,175504,2,0,L|400:156,1,160,2|8,0:0|0:0,0:0:0:0:
436,248,176504,6,2,L|436:360,2,80,2|2|10,0:0|0:0|0:0,0:0:0:0:
336,196,177504,2,2,L|240:196,2,80,2|2|10,0:0|0:0|0:0,0:0:0:0:
252,124,178504,6,0,P|220:60|124:44,1,160,4|8,0:0|0:0,0:0:0:0:
140,152,179504,1,4,0:0:0:0:
100,191,179754,1,12,0:0:0:0:
138,229,180004,1,12,0:0:0:0:
217,308,180504,6,0,P|288:320|393:308,1,160,0|8,0:0|0:0,0:0:0:0:
453,232,181504,2,0,P|480:160|454:73,1,160,0|8,0:0|0:0,0:0:0:0:
380,161,182504,6,0,B|316:209|316:209|252:161,1,160,0|8,0:0|0:0,0:0:0:0:
140,161,183504,1,0,0:0:0:0:
60,240,184004,1,8,0:0:0:0:
96,284,184254,1,0,0:0:0:0:
139,319,184504,6,0,P|216:337|320:304,1,160,0|8,0:0|0:0,0:0:0:0:
372,240,185504,2,0,L|448:160,2,80,0|0|8,0:0|0:0|0:0,0:0:0:0:
259,240,186504,2,0,L|147:240,1,80
139,200,187004,1,0,0:0:0:0:
178,80,187504,2,0,L|274:80,2,80,0|0|8,0:0|0:0|0:0,0:0:0:0:
257,159,188504,6,0,P|337:175|417:159,1,160,4|8,0:0|0:0,0:0:0:0:
413,272,189504,2,0,P|333:288|253:272,1,160,0|8,0:0|0:0,0:0:0:0:
144,273,190504,2,2,P|48:241|128:209,1,240,0|0,0:0|0:0,0:0:0:0:
176,204,191504,2,2,P|272:172|256:144,1,160,0|0,0:0|0:0,0:0:0:0:
188,80,192504,5,4,0:0:0:0:
267,0,193004,2,0,B|331:48|331:48|427:48,1,160,8|0,0:0|0:0,0:0:0:0:
490,127,194004,2,0,B|490:239|490:239|442:287,1,160,8|0,0:0|0:0,0:0:0:0:
376,352,195004,1,8,0:0:0:0:
296,272,195504,1,0,0:0:0:0:
216,351,196004,1,8,0:0:0:0:
136,271,196504,6,0,P|124:193|136:95,1,160,4|8,0:0|0:0,0:0:0:0:
210,191,197504,2,0,P|269:156|208:128,1,160,0|8,0:0|0:0,0:0:0:0:
292,45,198504,1,0,0:0:0:0:
371,124,199004,1,8,0:0:0:0:
450,44,199504,2,0,L|450:140,2,80,0|0|8,0:0|0:0|0:0,0:0:0:0:
370,123,200504,5,0,0:0:0:0:
449,202,201004,2,0,L|449:298,2,80,8|0|0,0:0|0:0|0:0,0:0:0:0:
337,202,202004,1,8,0:0:0:0:
225,202,202504,2,0,P|145:170|126:90,2,160,0|8|0,0:0|0:0|0:0,0:0:0:0:
225,313,204004,1,8,0:0:0:0:
337,313,204504,6,0,P|401:313|449:233,1,160,4|8,0:0|0:0,0:0:0:0:
369,158,205504,2,0,L|369:78,2,80,0|0|8,0:0|0:0|0:0,0:0:0:0:
257,158,206504,2,0,B|145:158|145:158|107:197,1,160,0|8,0:0|0:0,0:0:0:0:
112,304,207504,2,0,L|272:304,1,160,0|8,0:0|0:0,0:0:0:0:
350,224,208504,6,0,L|350:128,2,80,0|0|8,0:0|0:0|0:0,0:0:0:0:
270,144,209504,2,0,L|176:144,2,80,0|0|8,0:0|0:0|0:0,0:0:0:0:
256,192,210504,12,4,212504,0:0:0:0:
