osu file format v12

[General]
AudioFilename: Gypsy Tronic.mp3
AudioLeadIn: 0
PreviewTime: 62694
Countdown: 0
SampleSet: Normal
StackLeniency: 0.7
Mode: 0
LetterboxInBreaks: 0

[Editor]
DistanceSpacing: 1.1
BeatDivisor: 4
GridSize: 4

[Metadata]
Title:Gypsy Tronic
TitleUnicode:Gypsy Tronic
Artist:M2U
ArtistUnicode:M2U
Creator:LKs
Version:Hard
Source:O2jam
Tags:Muya
BeatmapID:209954
BeatmapSetID:61590

[Difficulty]
HPDrainRate:6
CircleSize:4
OverallDifficulty:6
ApproachRate:7
SliderMultiplier:1.5
SliderTickRate:1

[Events]
//Background and Video events
0,0,"bg.jpg",0,0
//Break Periods
2,21365,23865
//Storyboard Layer 0 (Background)
//Storyboard Layer 1 (Fail)
//Storyboard Layer 2 (Pass)
//Storyboard Layer 3 (Foreground)
//Storyboard Sound Samples
//Background Colour Transformations
3,100,163,162,255

[TimingPoints]
5805,480,4,1,0,60,1,0
20685,-100,4,2,0,60,0,0
21165,-100,4,1,0,60,0,0
55725,-100,4,1,0,60,0,1
55965,-100,4,1,0,60,0,0
101925,-100,4,2,0,60,0,0
105405,-100,4,1,0,60,0,0
109485,-100,4,2,0,60,0,0
113085,-100,4,1,0,60,0,0
132525,-100,4,1,0,60,0,1
132765,-100,4,1,0,60,0,0
147405,-100,4,1,0,60,0,1
147645,-100,4,1,0,60,0,0

[Colours]
Combo1 : 255,150,100
Combo2 : 242,74,171
Combo3 : 98,255,255

[HitObjects]
48,16,5805,2,0,B|32:48|32:48|40:88,1,75,4|0,0:0|0:0,0:0:0:0:
56,168,6285,2,0,B|48:248,1,75,8|0,0:0|0:0,0:0:0:0:
56,256,6645,1,0,0:0:0:0:
16,328,6885,2,0,B|48:336|48:336|88:328|88:328|128:336,1,112.5,0|8,0:0|0:0,0:0:0:0:
208,352,7485,1,0,0:0:0:0:
288,368,7725,6,0,B|304:336|304:336|296:296,1,75
272,216,8205,1,8,0:0:0:0:
272,216,8325,2,0,B|280:136,1,75
240,72,8805,2,0,B|272:56|272:56|312:64,1,75
320,72,9165,2,0,B|400:64,1,75,8|0,0:0|0:0,0:0:0:0:
464,16,9645,6,0,B|480:48|480:48|472:88,1,75
432,160,10125,2,0,B|440:240,1,75,8|0,0:0|0:0,0:0:0:0:
448,248,10485,1,0,0:0:0:0:
488,320,10725,2,0,B|456:344|456:344|384:336,1,112.5,0|8,0:0|0:0,0:0:0:0:
304,360,11325,1,0,0:0:0:0:
232,320,11565,5,0,0:0:0:0:
208,240,11805,1,0,0:0:0:0:
248,168,12045,1,8,0:0:0:0:
248,168,12165,1,0,0:0:0:0:
312,250,12405,1,0,0:0:0:0:
232,320,12645,2,0,B|200:336|200:336|160:328|160:328|128:344,1,112.5,0|8,0:0|0:0,0:0:0:0:
104,336,13125,1,0,0:0:0:0:
80,328,13245,1,0,0:0:0:0:
0,305,13485,6,0,B|-24:233|-24:233|0:161,1,150,4|8,0:0|0:0,0:0:0:0:
0,162,14205,1,0,0:0:0:0:
136,32,14685,1,0,0:0:0:0:
136,32,14925,2,0,B|224:24,1,75,8|0,0:0|0:0,0:0:0:0:
248,96,15405,6,0,B|160:104,1,75
173,102,15885,1,8,0:0:0:0:
112,160,16125,2,0,B|88:232|88:232|112:304,1,150
184,344,16845,1,8,0:0:0:0:
256,304,17085,1,0,0:0:0:0:
328,344,17325,6,0,B|400:360|400:360|464:320,1,150,0|8,0:0|0:0,0:0:0:0:
504,248,18045,1,0,0:0:0:0:
464,88,18525,2,0,L|400:128,2,75,0|8|0,0:0|0:0|0:0,0:0:0:0:
484,168,19245,6,0,L|420:208,1,75
340,188,19725,1,8,0:0:0:0:
244,48,20085,2,0,L|258:3,2,37.5,0|8|0,0:0|0:0|0:0,0:0:0:0:
168,80,20565,1,0,0:0:0:0:
144,88,20685,2,0,L|140:100,12,12.5,2|2|2|2|2|2|2|2|2|2|2|2|4,0:0|0:0|0:0|0:0|0:0|0:0|0:0|0:0|0:0|0:0|0:0|0:0|0:0,0:0:0:0:
40,328,24765,5,0,0:0:0:0:
40,328,25005,2,0,B|24:304|24:304|32:256,1,75,4|0,0:0|0:0,0:0:0:0:
112,240,25485,2,0,L|104:285,3,37.5,8|0|0|0,0:0|0:0|0:0|0:0,0:0:0:0:
96,224,25965,2,0,B|72:192|72:192|80:120,1,112.5
96,104,26445,1,8,0:0:0:0:
168,64,26685,1,0,0:0:0:0:
168,144,26925,5,0,0:0:0:0:
88,64,27165,1,0,0:0:0:0:
197,34,27405,2,0,B|224:64|224:64|296:64,1,112.5,8|0,0:0|0:0,0:0:0:0:
312,48,27885,2,0,B|339:78|339:78|411:78|411:78|443:110,1,150,0|8,0:0|0:0,0:0:0:0:
480,176,28605,5,0,0:0:0:0:
472,200,28725,1,0,0:0:0:0:
464,224,28845,2,0,L|384:240,2,75,0|0|8,0:0|0:0|0:0,0:0:0:0:
360,352,29685,1,0,0:0:0:0:
360,352,29805,2,0,L|320:360,3,37.5
304,344,30285,2,0,B|272:360|272:360|232:352,1,75,8|0,0:0|0:0,0:0:0:0:
156,324,30765,6,0,B|172:288|172:288|164:252,1,75
13,235,31245,2,0,B|-3:271|-3:271|5:307,1,75,8|0,0:0|0:0,0:0:0:0:
76,356,31725,2,0,L|92:206,1,150,0|8,0:0|0:0,0:0:0:0:
64,56,32445,1,0,0:0:0:0:
48,136,32685,6,0,B|99:125|99:125|131:94|131:94|183:84,1,150,0|8,0:0|0:0,0:0:0:0:
184,168,33405,1,0,0:0:0:0:
184,168,33525,1,0,0:0:0:0:
184,168,33645,2,0,B|235:157|235:157|267:126|267:126|319:116,1,150,0|8,0:0|0:0,0:0:0:0:
352,40,34365,1,0,0:0:0:0:
432,56,34605,6,0,B|439:92|439:92|432:128,1,75
320,192,35085,2,0,B|312:155|312:155|320:119,1,75,8|0,0:0|0:0,0:0:0:0:
400,208,35565,2,0,B|384:256|384:256|400:304|400:304|384:352,1,150,0|8,0:0|0:0,0:0:0:0:
304,384,36285,5,0,0:0:0:0:
280,376,36405,1,0,0:0:0:0:
256,368,36525,2,0,L|240:288,2,75,0|0|8,0:0|0:0|0:0,0:0:0:0:
176,224,37365,1,0,0:0:0:0:
176,224,37485,2,0,L|160:168,3,37.5
160,168,37965,2,0,L|176:112,3,37.5,8|0|0|0,0:0|0:0|0:0|0:0,0:0:0:0:
176,112,38445,5,0,0:0:0:0:
88,24,38805,1,0,0:0:0:0:
88,24,38925,2,0,L|72:80,3,37.5,8|0|0|0,0:0|0:0|0:0|0:0,0:0:0:0:
72,80,39405,2,0,B|64:120|64:120|72:160,1,75
16,216,39885,2,0,L|32:272,3,37.5,8|0|0|0,0:0|0:0|0:0|0:0,0:0:0:0:
32,272,40365,5,4,0:0:0:0:
112,296,40605,1,0,0:0:0:0:
192,272,40845,1,8,0:0:0:0:
256,328,41085,2,0,L|248:368,2,37.5
336,304,41565,1,0,0:0:0:0:
416,328,41805,1,8,0:0:0:0:
480,128,42285,5,0,0:0:0:0:
400,152,42525,1,0,0:0:0:0:
320,128,42765,1,8,0:0:0:0:
256,184,43005,2,0,L|264:224,2,37.5
176,160,43485,1,0,0:0:0:0:
96,184,43725,1,8,0:0:0:0:
32,128,43965,1,0,0:0:0:0:
56,48,44205,6,0,B|92:36|92:36|128:48,1,75
204,76,44685,1,8,0:0:0:0:
272,28,44925,1,0,0:0:0:0:
292,40,45045,1,0,0:0:0:0:
312,52,45165,2,0,B|348:64|348:64|384:52,2,75,0|0|8,0:0|0:0|0:0,0:0:0:0:
256,272,46125,6,0,L|248:232,4,37.5,0|0|0|0|8,0:0|0:0|0:0|0:0|0:0,0:0:0:0:
336,348,46845,1,0,0:0:0:0:
365,238,47085,1,0,0:0:0:0:
288,320,47325,1,0,0:0:0:0:
397,346,47565,1,8,0:0:0:0:
456,192,48045,5,4,0:0:0:0:
397,38,48525,1,8,0:0:0:0:
115,38,49485,1,8,0:0:0:0:
397,346,50445,5,8,0:0:0:0:
115,346,51405,1,8,0:0:0:0:
56,192,51885,5,0,0:0:0:0:
115,38,52365,1,8,0:0:0:0:
397,38,53325,1,8,0:0:0:0:
256,128,53805,5,0,0:0:0:0:
256,208,54045,1,0,0:0:0:0:
256,232,54165,1,0,0:0:0:0:
256,256,54285,1,8,0:0:0:0:
216,328,54525,1,0,0:0:0:0:
296,328,54765,1,0,0:0:0:0:
256,128,55245,1,10,0:0:0:0:
488,376,55725,6,0,B|464:352|464:352|496:256,1,112.5,4|0,0:0|0:0,0:0:0:0:
496,256,56205,2,0,L|488:192,4,37.5,8|0|0|0|0,0:0|0:0|0:0|0:0|0:0,0:0:0:0:
424,104,57045,1,0,0:0:0:0:
424,104,57165,2,0,L|432:40,4,37.5,8|0|0|0|0,0:0|0:0|0:0|0:0|0:0,0:0:0:0:
368,168,57885,5,0,0:0:0:0:
296,128,58125,2,0,B|264:104|264:104|192:120,1,112.5,8|0,0:0|0:0,0:0:0:0:
176,104,58605,2,0,B|144:80|144:80|72:96|72:96|40:72,1,150,0|8,0:0|0:0,0:0:0:0:
16,152,59325,5,0,0:0:0:0:
16,152,59445,1,0,0:0:0:0:
16,152,59565,2,0,L|8:232,1,75
72,320,60045,2,0,B|104:296|104:296|112:216,1,112.5,8|0,0:0|0:0,0:0:0:0:
104,200,60525,2,0,L|107:160,4,37.5,0|0|0|0|8,0:0|0:0|0:0|0:0|0:0,0:0:0:0:
184,224,61245,5,0,0:0:0:0:
184,224,61365,1,0,0:0:0:0:
184,224,61485,1,0,0:0:0:0:
176,320,61725,1,0,0:0:0:0:
264,248,61965,1,8,0:0:0:0:
272,360,62205,1,0,0:0:0:0:
272,360,62325,1,0,0:0:0:0:
272,360,62445,2,0,L|352:384,1,75
343,381,62805,1,0,0:0:0:0:
343,381,62925,2,0,L|423:357,1,75,8|0,0:0|0:0,0:0:0:0:
472,296,63405,6,0,B|496:264|496:264|480:192,1,112.5,4|0,0:0|0:0,0:0:0:0:
464,176,63885,2,0,L|472:120,3,37.5,8|0|0|0,0:0|0:0|0:0|0:0,0:0:0:0:
456,120,64365,2,0,B|424:144|424:144|360:112|360:112|328:136,1,150,0|8,0:0|0:0,0:0:0:0:
256,96,65085,5,0,0:0:0:0:
256,96,65205,1,0,0:0:0:0:
256,96,65325,2,0,B|240:120|240:120|248:176,1,75
176,224,65805,2,0,L|160:117,1,75,8|0,0:0|0:0,0:0:0:0:
263,246,66285,2,0,B|223:310|223:310|143:310,1,150,0|8,0:0|0:0,0:0:0:0:
75,271,67005,5,0,0:0:0:0:
75,271,67125,1,0,0:0:0:0:
75,271,67245,2,0,B|43:263|43:263|3:279,2,75,0|0|8,0:0|0:0|0:0,0:0:0:0:
144,224,67965,1,0,0:0:0:0:
148,204,68085,1,0,0:0:0:0:
152,184,68205,2,0,L|176:152,4,37.5,0|0|0|0|8,0:0|0:0|0:0|0:0|0:0,0:0:0:0:
72,160,68925,6,0,L|48:128,2,37.5
112,88,69405,1,0,0:0:0:0:
132,84,69525,1,0,0:0:0:0:
152,80,69645,2,0,L|192:88,3,37.5,8|0|0|0,0:0|0:0|0:0|0:0,0:0:0:0:
208,72,70125,2,0,B|248:64|248:64|296:72,1,75
360,40,70605,1,8,0:0:0:0:
448,352,71085,6,0,L|456:256,1,75,4|0,0:0|0:0,0:0:0:0:
368,320,71565,2,0,L|376:224,1,75,8|0,0:0|0:0,0:0:0:0:
280,336,72045,2,0,L|288:240,1,75
192,352,72525,2,0,L|200:256,1,75,8|0,0:0|0:0,0:0:0:0:
224,200,73005,6,0,L|228:152,3,37.5
216,144,73485,2,0,L|220:96,3,37.5,8|0|0|0,0:0|0:0|0:0|0:0,0:0:0:0:
232,88,73965,1,0,0:0:0:0:
116,20,74205,1,0,0:0:0:0:
148,96,74445,1,8,0:0:0:0:
14,83,74685,1,0,0:0:0:0:
75,138,74925,6,0,L|51:226,1,75
203,292,75405,2,0,L|223:220,1,75,8|0,0:0|0:0,0:0:0:0:
149,179,75885,2,0,L|125:267,1,75
277,333,76365,2,0,L|297:261,1,75,8|0,0:0|0:0,0:0:0:0:
272,184,76845,6,0,L|262:147,3,37.5
244,136,77325,2,0,L|253:99,3,37.5,8|0|0|0,0:0|0:0|0:0|0:0,0:0:0:0:
244,80,77805,1,0,0:0:0:0:
372,124,78045,1,0,0:0:0:0:
468,28,78285,2,0,L|472:76,3,37.5,8|0|0|0,0:0|0:0|0:0|0:0,0:0:0:0:
472,88,78765,6,0,B|448:136|448:136|472:232,1,150,0|8,0:0|0:0,0:0:0:0:
392,256,79485,1,0,0:0:0:0:
392,256,79725,2,0,L|368:160,1,75
320,120,80205,1,8,0:0:0:0:
256,64,80445,6,0,L|216:64,2,37.5
184,160,80925,2,0,L|149:140,2,37.5,0|0|8,0:0|0:0|0:0,0:0:0:0:
78,216,81405,2,0,L|55:183,2,37.5
62,296,81885,1,0,0:0:0:0:
142,272,82125,1,8,0:0:0:0:
126,352,82365,1,0,0:0:0:0:
206,328,82605,6,0,B|240:316|240:316|280:328,1,75
296,340,82965,2,0,B|330:352|330:352|370:340,1,75,0|0,0:0|0:0,0:0:0:0:
386,328,83325,1,0,0:0:0:0:
466,347,83565,1,0,0:0:0:0:
466,347,83685,2,0,L|458:267,1,75
466,251,84045,2,0,L|458:171,1,75,8|0,0:0|0:0,0:0:0:0:
410,107,84525,5,0,0:0:0:0:
410,107,84645,1,0,0:0:0:0:
410,107,84765,2,0,L|418:67,2,37.5,0|0|8,0:0|0:0|0:0,0:0:0:0:
378,187,85245,1,0,0:0:0:0:
378,187,85485,1,0,0:0:0:0:
378,187,85965,1,10,0:0:0:0:
212,24,86445,6,0,B|176:36|176:36|140:24,1,75,4|0,0:0|0:0,0:0:0:0:
24,96,86925,2,0,B|60:84|60:84|96:96,1,75,8|0,0:0|0:0,0:0:0:0:
172,124,87405,2,0,L|156:236,1,112.5
156,236,88125,5,0,0:0:0:0:
172,252,88245,1,0,0:0:0:0:
188,268,88365,2,0,L|192:312,3,37.5
207,321,88845,2,0,L|211:365,3,37.5,8|0|0|0,0:0|0:0|0:0|0:0,0:0:0:0:
226,374,89325,2,0,L|306:358,1,75
280,240,89805,2,0,L|360:224,1,75,8|0,0:0|0:0,0:0:0:0:
334,106,90285,6,0,L|492:74,1,150,0|8,0:0|0:0,0:0:0:0:
480,160,91005,2,0,L|488:208,2,37.5
408,200,91485,2,0,L|416:248,2,37.5,0|0|8,0:0|0:0|0:0,0:0:0:0:
336,240,91965,2,0,L|344:288,1,37.5
392,344,92325,6,0,B|360:360|360:360|304:360,1,75
304,344,92685,2,0,L|264:344,3,37.5,8|0|0|0,0:0|0:0|0:0|0:0,0:0:0:0:
248,360,93165,2,0,L|208:360,3,37.5
192,344,93645,2,0,L|152:344,1,37.5
80,380,94005,5,0,0:0:0:0:
80,380,94125,2,0,B|56:340|56:340|80:236,1,150,4|8,0:0|0:0,0:0:0:0:
24,96,94965,1,0,0:0:0:0:
88,152,95205,1,0,0:0:0:0:
168,128,95445,1,0,0:0:0:0:
168,128,95565,2,0,L|248:128,1,75,8|0,0:0|0:0,0:0:0:0:
296,64,96045,6,0,L|336:56,3,37.5
352,40,96525,2,0,L|376:128,1,75,8|0,0:0|0:0,0:0:0:0:
456,120,97005,2,0,L|432:32,1,75
288,104,97485,2,0,L|324:235,1,112.5,8|0,0:0|0:0,0:0:0:0:
400,224,98085,6,0,L|432:192,2,37.5
400,224,98445,2,0,B|416:280|416:280|400:336,1,112.5,8|0,0:0|0:0,0:0:0:0:
320,320,99045,2,0,L|296:352,2,37.5
320,320,99405,2,0,B|304:264|304:264|320:208,1,112.5,8|0,0:0|0:0,0:0:0:0:
328,192,99885,6,0,L|328:168,5,25
328,152,100365,2,0,L|328:128,5,25,8|0|0|0|0|0,0:0|0:0|0:0|0:0|0:0|0:0,0:0:0:0:
336,112,100845,2,0,L|296:104,3,37.5
280,88,101325,2,0,L|240:80,3,37.5,8|0|0|0,0:0|0:0|0:0|0:0,0:0:0:0:
224,64,101805,6,0,L|72:64,1,150,4|8,0:0|0:0,0:0:0:0:
0,192,102765,2,0,L|152:192,1,150,0|8,0:0|0:0,0:0:0:0:
224,320,103725,6,0,L|72:320,2,150,0|8|0,0:0|0:0|0:0,0:0:0:0:
296,360,104925,1,8,0:0:0:0:
296,360,105165,1,8,0:0:0:0:
376,336,105405,5,0,0:0:0:0:
376,336,105525,1,0,0:0:0:0:
376,336,105645,2,0,L|384:256,1,75
264,264,106125,2,0,L|276:144,1,112.5,8|0,0:0|0:0,0:0:0:0:
272,128,106605,2,0,L|276:88,3,37.5
268,68,107085,2,0,L|356:44,1,75,8|0,0:0|0:0,0:0:0:0:
416,16,107565,5,0,0:0:0:0:
472,80,107805,1,0,0:0:0:0:
408,128,108045,2,0,B|384:152|384:152|384:200,1,75,8|0,0:0|0:0,0:0:0:0:
488,256,108525,2,0,B|512:232|512:232|512:184,1,75
408,272,109005,1,8,0:0:0:0:
448,344,109245,1,0,0:0:0:0:
368,360,109485,6,0,L|216:360,1,150,0|8,0:0|0:0,0:0:0:0:
48,264,110445,2,0,B|24:192|24:192|48:120,1,150,0|8,0:0|0:0,0:0:0:0:
216,24,111405,6,0,L|366:24,2,150,0|8|0,0:0|0:0|0:0,0:0:0:0:
136,48,112605,1,8,0:0:0:0:
136,48,112845,1,8,0:0:0:0:
56,72,113085,5,0,0:0:0:0:
56,72,113205,1,0,0:0:0:0:
56,72,113325,2,0,B|40:112|40:112|48:152,1,75
176,184,113805,2,0,B|192:144|192:144|184:104,1,75,8|0,0:0|0:0,0:0:0:0:
96,208,114285,6,0,L|88:248,3,37.5
72,264,114765,2,0,L|80:304,3,37.5,8|0|0|0,0:0|0:0|0:0|0:0,0:0:0:0:
64,320,115245,6,0,B|104:360|104:360|200:360,1,150,0|8,0:0|0:0,0:0:0:0:
272,320,115965,1,0,0:0:0:0:
344,280,116205,2,0,L|424:280,1,75
496,304,116685,1,8,0:0:0:0:
480,112,117165,5,4,0:0:0:0:
400,88,117405,1,0,0:0:0:0:
320,112,117645,1,8,0:0:0:0:
256,56,117885,2,0,L|264:16,2,37.5
176,80,118365,1,0,0:0:0:0:
96,56,118605,1,8,0:0:0:0:
32,256,119085,5,0,0:0:0:0:
112,232,119325,1,0,0:0:0:0:
192,256,119565,1,8,0:0:0:0:
256,200,119805,2,0,L|248:160,2,37.5
336,224,120285,1,0,0:0:0:0:
416,200,120525,1,8,0:0:0:0:
480,256,120765,1,0,0:0:0:0:
456,336,121005,6,0,B|420:348|420:348|384:336,1,75
308,308,121485,1,8,0:0:0:0:
240,356,121725,1,0,0:0:0:0:
220,344,121845,1,0,0:0:0:0:
200,332,121965,2,0,B|164:320|164:320|128:332,2,75,0|0|8,0:0|0:0|0:0,0:0:0:0:
256,176,122925,6,0,L|256:136,3,37.5
256,116,123405,1,8,0:0:0:0:
176,36,123645,1,0,0:0:0:0:
147,146,123885,1,0,0:0:0:0:
224,64,124125,1,0,0:0:0:0:
115,38,124365,2,0,L|56:24,3,37.5,8|0|0|0,0:0|0:0|0:0|0:0,0:0:0:0:
56,24,124845,5,0,0:0:0:0:
16,96,125085,1,0,0:0:0:0:
88,136,125325,1,8,0:0:0:0:
48,208,125565,2,0,L|8:208,2,37.5
120,248,126045,1,0,0:0:0:0:
80,320,126285,1,8,0:0:0:0:
256,384,126765,5,0,0:0:0:0:
296,312,127005,2,0,L|336:312,2,37.5,0|0|8,0:0|0:0|0:0,0:0:0:0:
216,288,127485,2,0,L|176:288,2,37.5
256,216,127965,1,0,0:0:0:0:
256,136,128205,1,8,0:0:0:0:
256,56,128445,1,0,0:0:0:0:
328,16,128685,5,0,0:0:0:0:
400,56,128925,1,0,0:0:0:0:
360,128,129165,1,8,0:0:0:0:
432,168,129405,2,0,L|480:168,2,37.5
392,240,129885,1,0,0:0:0:0:
464,280,130125,1,8,0:0:0:0:
256,384,130605,5,0,0:0:0:0:
256,304,130845,1,0,0:0:0:0:
256,280,130965,1,0,0:0:0:0:
256,256,131085,1,8,0:0:0:0:
256,176,131325,1,0,0:0:0:0:
256,96,131565,2,0,L|256:8,2,75,0|0|10,0:0|0:0|0:0,0:0:0:0:
16,24,132525,6,0,L|96:32,1,75,4|0,0:0|0:0,0:0:0:0:
184,104,133005,2,0,L|104:112,1,75,8|0,0:0|0:0,0:0:0:0:
16,192,133485,2,0,L|96:200,1,75
184,272,133965,2,0,L|104:280,1,75,8|0,0:0|0:0,0:0:0:0:
24,368,134445,6,0,L|24:288,1,75,0|0,0:0|0:0,0:0:0:0:
128,384,134925,2,0,L|128:304,1,75,8|0,0:0|0:0,0:0:0:0:
232,368,135405,2,0,L|232:288,1,75
336,352,135885,2,0,L|336:272,1,75,8|0,0:0|0:0,0:0:0:0:
440,293,136365,6,0,L|440:368,1,75
336,200,136845,2,0,L|336:275,1,75,8|0,0:0|0:0,0:0:0:0:
440,128,137325,2,0,L|440:203,1,75
336,40,137805,2,0,L|336:115,1,75,8|0,0:0|0:0,0:0:0:0:
336,200,138285,6,0,L|256:208,1,75
192,304,138765,2,0,L|272:296,1,75,8|0,0:0|0:0,0:0:0:0:
176,200,139245,2,0,L|96:208,1,75
56,280,139725,1,8,0:0:0:0:
0,48,140205,6,0,B|24:64|24:64|72:64,1,75,4|0,0:0|0:0,0:0:0:0:
144,24,140685,1,8,0:0:0:0:
208,80,140925,1,0,0:0:0:0:
208,80,141045,1,0,0:0:0:0:
208,80,141165,2,0,L|216:160,1,75
280,208,141645,1,8,0:0:0:0:
240,280,141885,6,0,L|192:288,2,37.5
336,352,142365,2,0,L|307:391,2,37.5,0|0|8,0:0|0:0|0:0,0:0:0:0:
454,335,142845,2,0,L|462:383,2,37.5
400,272,143325,1,0,0:0:0:0:
472,232,143565,1,8,0:0:0:0:
418,169,143805,1,0,0:0:0:0:
490,129,144045,5,0,0:0:0:0:
436,66,144285,2,0,L|436:26,1,37.5
330,84,144645,2,0,L|330:44,1,37.5
224,102,145005,2,0,L|224:62,1,37.5
118,120,145365,2,0,L|118:80,1,37.5,0|8,0:0|0:0,0:0:0:0:
12,138,145725,6,0,L|12:98,6,37.5,0|0|0|0|0|0|8,0:0|0:0|0:0|0:0|0:0|0:0|0:0,0:0:0:0:
74,192,146685,1,0,0:0:0:0:
88,336,146925,1,0,0:0:0:0:
40,268,147165,1,0,0:0:0:0:
122,260,147405,1,6,0:0:0:0:
