osu file format v12

[General]
AudioFilename: Gypsy Tronic.mp3
AudioLeadIn: 0
PreviewTime: 55725
Countdown: 0
SampleSet: Normal
StackLeniency: 0.7
Mode: 1
LetterboxInBreaks: 0
WidescreenStoryboard: 1

[Editor]
Bookmarks: 5805,25005,40365,55725,71085,86445,101805,117165,132525,147405
DistanceSpacing: 1.2
BeatDivisor: 4
GridSize: 8

[Metadata]
Title:Gypsy Tronic
TitleUnicode:Gypsy Tronic
Artist:M2U
ArtistUnicode:M2U
Creator:Gomo Pslvarh
Version:lepidon! - Oni
Source:O2Jam
Tags:ANALOG S.I.D-SOUND Lucy HAZARD jieusieu HelloSCV Ra-s lepidopodus Sonnyc
BeatmapID:279410
BeatmapSetID:100445

[Difficulty]
HPDrainRate:6
CircleSize:4
OverallDifficulty:6
ApproachRate:7
SliderMultiplier:1.4
SliderTickRate:1

[Events]
//Background and Video events
0,0,"BG.jpg",0,0
//Break Periods
//Storyboard Layer 0 (Background)
//Storyboard Layer 1 (Fail)
//Storyboard Layer 2 (Pass)
//Storyboard Layer 3 (Foreground)
//Storyboard Sound Samples
//Background Colour Transformations
3,100,163,162,255

[TimingPoints]
5805,480,4,1,0,90,1,0
55725,-100,4,1,0,90,0,1
71085,-100,4,1,0,90,0,0
132525,-100,4,1,0,90,0,1
149805,-100,4,1,0,90,0,0

[HitObjects]
168,280,5805,1,0,0:0:0:0:
264,272,6045,1,0,0:0:0:0:
352,304,6285,1,0,0:0:0:0:
368,160,6645,1,0,0:0:0:0:
360,256,6885,1,0,0:0:0:0:
224,296,7244,1,0,0:0:0:0:
368,160,7725,1,8,0:0:0:0:
368,160,7965,1,8,0:0:0:0:
368,160,8205,1,8,0:0:0:0:
368,160,8565,1,8,0:0:0:0:
368,160,8805,1,8,0:0:0:0:
368,160,9165,1,8,0:0:0:0:
168,280,9645,1,0,0:0:0:0:
264,272,9885,1,0,0:0:0:0:
352,304,10125,1,0,0:0:0:0:
368,160,10485,1,0,0:0:0:0:
360,256,10725,1,0,0:0:0:0:
224,296,11084,1,0,0:0:0:0:
368,160,11565,1,8,0:0:0:0:
368,160,11805,1,8,0:0:0:0:
368,160,12045,1,8,0:0:0:0:
368,160,12405,1,8,0:0:0:0:
368,160,12645,1,8,0:0:0:0:
368,160,13005,1,8,0:0:0:0:
320,344,13485,5,0,0:0:0:0:
360,208,13845,1,0,0:0:0:0:
408,208,13965,1,8,0:0:0:0:
408,208,14445,1,0,0:0:0:0:
456,192,14565,1,8,0:0:0:0:
504,192,14685,1,0,0:0:0:0:
456,104,14925,1,8,0:0:0:0:
400,184,15165,1,0,0:0:0:0:
304,200,15405,1,0,0:0:0:0:
392,312,15765,1,0,0:0:0:0:
424,280,15885,1,8,0:0:0:0:
432,184,16365,1,0,0:0:0:0:
480,176,16485,1,8,0:0:0:0:
448,216,16605,1,0,0:0:0:0:
368,168,16845,1,8,0:0:0:0:
368,168,17085,1,8,0:0:0:0:
320,344,17325,1,0,0:0:0:0:
360,208,17685,1,0,0:0:0:0:
408,208,17805,1,8,0:0:0:0:
472,280,18045,1,0,0:0:0:0:
408,208,18285,1,0,0:0:0:0:
456,192,18405,1,8,0:0:0:0:
504,192,18525,1,0,0:0:0:0:
456,104,18765,1,8,0:0:0:0:
400,184,19005,1,0,0:0:0:0:
304,200,19245,1,0,0:0:0:0:
400,184,19605,1,0,0:0:0:0:
440,160,19725,1,8,0:0:0:0:
384,240,19965,1,0,0:0:0:0:
424,216,20085,1,0,0:0:0:0:
384,240,20205,1,0,0:0:0:0:
424,216,20325,1,8,0:0:0:0:
472,224,20445,1,0,0:0:0:0:
256,192,20685,12,0,20925,0:0:0:0:
288,128,21165,5,0,0:0:0:0:
368,128,21405,1,8,0:0:0:0:
448,160,21645,1,0,0:0:0:0:
488,176,21765,1,8,0:0:0:0:
376,240,22125,1,8,0:0:0:0:
232,328,22605,1,8,0:0:0:0:
304,288,22845,1,0,0:0:0:0:
384,264,23085,1,0,0:0:0:0:
320,216,23325,1,8,0:0:0:0:
392,176,23565,1,0,0:0:0:0:
360,152,23685,1,8,0:0:0:0:
440,168,23925,1,0,0:0:0:0:
400,152,24045,1,8,0:0:0:0:
400,152,24165,1,8,0:0:0:0:
368,176,24285,1,0,0:0:0:0:
376,216,24405,1,0,0:0:0:0:
448,160,24525,1,8,0:0:0:0:
488,184,24645,1,8,0:0:0:0:
480,224,24765,1,0,0:0:0:0:
416,176,25005,5,0,0:0:0:0:
248,184,25485,1,0,0:0:0:0:
288,168,25605,1,8,0:0:0:0:
368,176,25725,1,0,0:0:0:0:
368,176,25845,1,0,0:0:0:0:
408,152,25965,1,8,0:0:0:0:
488,152,26205,1,0,0:0:0:0:
448,160,26325,1,8,0:0:0:0:
416,192,26445,1,0,0:0:0:0:
400,232,26565,1,0,0:0:0:0:
416,192,26685,1,0,0:0:0:0:
400,152,26805,1,8,0:0:0:0:
424,184,26925,1,0,0:0:0:0:
416,264,27165,1,8,0:0:0:0:
408,344,27405,1,0,0:0:0:0:
336,192,27765,1,8,0:0:0:0:
296,200,27885,1,0,0:0:0:0:
456,176,28605,1,8,0:0:0:0:
416,200,28725,1,0,0:0:0:0:
416,200,28845,1,8,0:0:0:0:
432,280,29085,1,8,0:0:0:0:
408,200,29325,1,0,0:0:0:0:
288,176,29685,1,0,0:0:0:0:
328,176,29805,1,8,0:0:0:0:
368,176,29925,1,8,0:0:0:0:
408,176,30045,1,0,0:0:0:0:
376,152,30165,1,8,0:0:0:0:
368,192,30285,1,0,0:0:0:0:
480,136,30645,1,8,0:0:0:0:
464,176,30765,1,0,0:0:0:0:
392,224,31005,1,0,0:0:0:0:
392,224,31245,1,8,0:0:0:0:
392,224,31485,1,8,0:0:0:0:
400,184,31605,1,0,0:0:0:0:
360,176,31725,1,8,0:0:0:0:
336,96,31965,1,8,0:0:0:0:
368,128,32085,1,8,0:0:0:0:
400,160,32205,1,0,0:0:0:0:
472,208,32445,1,8,0:0:0:0:
416,176,32685,5,0,0:0:0:0:
248,184,33165,1,0,0:0:0:0:
288,168,33285,1,8,0:0:0:0:
368,176,33405,1,0,0:0:0:0:
368,176,33525,1,0,0:0:0:0:
408,152,33645,1,8,0:0:0:0:
488,152,33885,1,0,0:0:0:0:
448,160,34005,1,8,0:0:0:0:
416,192,34125,1,0,0:0:0:0:
400,232,34245,1,0,0:0:0:0:
416,192,34365,1,0,0:0:0:0:
400,152,34485,1,8,0:0:0:0:
424,184,34605,1,0,0:0:0:0:
416,264,34845,1,8,0:0:0:0:
408,344,35085,1,0,0:0:0:0:
336,192,35445,1,8,0:0:0:0:
296,200,35565,1,0,0:0:0:0:
456,176,36285,1,8,0:0:0:0:
416,200,36405,1,0,0:0:0:0:
416,200,36525,1,8,0:0:0:0:
432,280,36765,1,8,0:0:0:0:
408,200,37005,1,0,0:0:0:0:
288,176,37365,1,0,0:0:0:0:
328,176,37485,1,8,0:0:0:0:
352,144,37605,1,8,0:0:0:0:
392,152,37725,1,0,0:0:0:0:
368,184,37845,1,0,0:0:0:0:
384,144,37965,1,8,0:0:0:0:
424,160,38085,1,0,0:0:0:0:
464,160,38205,1,8,0:0:0:0:
464,160,38325,1,8,0:0:0:0:
472,200,38445,1,0,0:0:0:0:
448,240,38805,1,0,0:0:0:0:
408,256,38925,1,8,0:0:0:0:
432,288,39045,1,8,0:0:0:0:
408,256,39165,1,0,0:0:0:0:
376,232,39285,1,0,0:0:0:0:
416,224,39405,1,8,0:0:0:0:
336,208,39645,1,0,0:0:0:0:
432,144,39885,1,8,0:0:0:0:
424,272,40005,1,8,0:0:0:0:
464,264,40125,1,8,0:0:0:0:
424,272,40245,1,8,0:0:0:0:
408,232,40365,5,0,0:0:0:0:
328,216,40605,1,0,0:0:0:0:
408,192,40845,1,12,0:0:0:0:
488,168,41085,1,0,0:0:0:0:
432,144,41205,1,8,0:0:0:0:
440,184,41325,1,0,0:0:0:0:
496,248,41565,1,0,0:0:0:0:
416,224,41805,1,12,0:0:0:0:
464,152,42045,1,0,0:0:0:0:
424,168,42165,1,8,0:0:0:0:
440,208,42285,1,0,0:0:0:0:
400,280,42525,1,0,0:0:0:0:
400,280,42645,1,0,0:0:0:0:
416,224,42765,1,8,0:0:0:0:
352,272,43005,1,8,0:0:0:0:
416,224,43125,1,8,0:0:0:0:
408,264,43245,1,0,0:0:0:0:
472,320,43485,1,0,0:0:0:0:
440,296,43605,1,0,0:0:0:0:
416,264,43725,1,8,0:0:0:0:
352,216,43965,1,8,0:0:0:0:
272,208,44205,1,0,0:0:0:0:
272,208,44445,1,0,0:0:0:0:
272,208,44685,1,12,0:0:0:0:
344,160,44925,1,0,0:0:0:0:
384,160,45045,1,8,0:0:0:0:
368,200,45165,1,0,0:0:0:0:
368,200,45405,1,0,0:0:0:0:
408,128,45645,1,12,0:0:0:0:
360,200,45885,1,0,0:0:0:0:
344,240,46005,1,0,0:0:0:0:
328,200,46125,1,8,0:0:0:0:
384,160,46245,1,8,0:0:0:0:
408,192,46365,1,0,0:0:0:0:
424,232,46485,1,0,0:0:0:0:
408,192,46605,1,8,0:0:0:0:
288,168,46845,1,0,0:0:0:0:
360,208,47085,1,8,0:0:0:0:
360,200,47325,1,8,0:0:0:0:
424,232,47565,1,12,0:0:0:0:
280,312,48045,5,0,0:0:0:0:
200,296,48285,1,0,0:0:0:0:
280,272,48525,1,8,0:0:0:0:
360,248,48765,1,0,0:0:0:0:
304,224,48885,1,8,0:0:0:0:
312,264,49005,1,0,0:0:0:0:
368,328,49245,1,0,0:0:0:0:
288,304,49485,1,8,0:0:0:0:
336,232,49725,1,0,0:0:0:0:
296,248,49845,1,8,0:0:0:0:
312,288,49965,1,0,0:0:0:0:
272,360,50205,1,0,0:0:0:0:
272,360,50325,1,0,0:0:0:0:
288,304,50445,1,8,0:0:0:0:
224,352,50685,1,0,0:0:0:0:
288,304,50805,1,8,0:0:0:0:
280,344,50925,1,0,0:0:0:0:
288,264,51165,1,0,0:0:0:0:
320,232,51285,1,8,0:0:0:0:
360,232,51405,1,8,0:0:0:0:
480,264,51645,1,8,0:0:0:0:
408,216,51885,1,0,0:0:0:0:
336,168,52125,1,0,0:0:0:0:
416,160,52365,1,8,0:0:0:0:
496,160,52605,1,0,0:0:0:0:
456,168,52725,1,8,0:0:0:0:
416,168,52845,1,0,0:0:0:0:
416,168,53085,1,0,0:0:0:0:
336,192,53325,1,8,0:0:0:0:
416,224,53565,1,0,0:0:0:0:
416,224,53685,1,8,0:0:0:0:
376,208,53805,1,0,0:0:0:0:
336,192,53925,1,0,0:0:0:0:
352,232,54045,1,0,0:0:0:0:
344,192,54165,1,8,0:0:0:0:
352,232,54285,1,8,0:0:0:0:
432,248,54525,1,8,0:0:0:0:
424,168,54765,1,0,0:0:0:0:
264,232,55245,1,12,0:0:0:0:
144,112,55725,5,4,0:0:0:0:
264,144,56205,1,0,0:0:0:0:
304,144,56325,1,8,0:0:0:0:
320,184,56445,1,0,0:0:0:0:
360,184,56565,1,0,0:0:0:0:
360,184,56685,1,8,0:0:0:0:
320,184,56925,1,0,0:0:0:0:
360,176,57045,1,8,0:0:0:0:
400,192,57165,1,0,0:0:0:0:
440,200,57285,1,0,0:0:0:0:
440,200,57405,1,0,0:0:0:0:
480,184,57525,1,8,0:0:0:0:
512,160,57645,1,0,0:0:0:0:
456,224,57885,1,8,0:0:0:0:
376,208,58125,1,0,0:0:0:0:
440,200,58485,1,8,0:0:0:0:
408,224,58605,1,0,0:0:0:0:
376,208,58725,1,0,0:0:0:0:
376,208,58845,1,8,0:0:0:0:
456,176,59085,1,0,0:0:0:0:
424,256,59325,1,0,0:0:0:0:
424,256,59445,1,0,0:0:0:0:
384,240,59565,1,8,0:0:0:0:
424,256,59805,1,8,0:0:0:0:
360,312,60045,1,0,0:0:0:0:
448,224,60405,1,0,0:0:0:0:
480,192,60525,1,8,0:0:0:0:
440,192,60645,1,8,0:0:0:0:
480,200,60765,1,0,0:0:0:0:
440,200,60885,1,8,0:0:0:0:
408,232,61005,1,0,0:0:0:0:
456,168,61245,1,8,0:0:0:0:
496,160,61365,1,8,0:0:0:0:
408,232,61485,1,0,0:0:0:0:
440,312,61725,1,0,0:0:0:0:
424,232,61965,1,8,0:0:0:0:
440,200,62205,1,0,0:0:0:0:
424,240,62325,1,0,0:0:0:0:
456,168,62445,1,8,0:0:0:0:
440,200,62685,1,8,0:0:0:0:
408,232,62805,1,0,0:0:0:0:
368,224,62925,1,8,0:0:0:0:
424,232,63165,1,0,0:0:0:0:
144,112,63405,5,4,0:0:0:0:
264,144,63885,1,0,0:0:0:0:
304,144,64005,1,8,0:0:0:0:
320,184,64125,1,0,0:0:0:0:
360,184,64245,1,0,0:0:0:0:
360,184,64365,1,8,0:0:0:0:
320,184,64605,1,0,0:0:0:0:
360,176,64725,1,8,0:0:0:0:
400,192,64845,1,0,0:0:0:0:
440,200,64965,1,0,0:0:0:0:
440,200,65085,1,0,0:0:0:0:
480,184,65205,1,8,0:0:0:0:
512,160,65325,1,0,0:0:0:0:
456,224,65565,1,8,0:0:0:0:
376,208,65805,1,0,0:0:0:0:
440,200,66165,1,8,0:0:0:0:
408,224,66285,1,0,0:0:0:0:
376,208,66405,1,0,0:0:0:0:
376,208,66525,1,8,0:0:0:0:
456,176,66765,1,0,0:0:0:0:
424,256,67005,1,0,0:0:0:0:
424,256,67125,1,0,0:0:0:0:
384,240,67245,1,8,0:0:0:0:
424,256,67485,1,8,0:0:0:0:
360,312,67725,1,0,0:0:0:0:
288,264,67965,1,0,0:0:0:0:
320,232,68085,1,8,0:0:0:0:
360,216,68205,1,8,0:0:0:0:
400,208,68325,1,8,0:0:0:0:
424,256,68445,1,0,0:0:0:0:
416,296,68565,1,0,0:0:0:0:
424,256,68685,1,8,0:0:0:0:
464,184,68925,1,0,0:0:0:0:
424,184,69045,1,8,0:0:0:0:
384,184,69165,1,8,0:0:0:0:
304,160,69405,1,0,0:0:0:0:
344,168,69525,1,0,0:0:0:0:
304,184,69645,1,0,0:0:0:0:
384,184,69765,1,8,0:0:0:0:
384,184,69885,1,8,0:0:0:0:
368,224,70005,1,0,0:0:0:0:
408,200,70125,1,8,0:0:0:0:
384,184,70365,1,0,0:0:0:0:
344,168,70605,1,12,0:0:0:0:
472,56,71085,5,8,0:0:0:0:
456,96,71205,1,0,0:0:0:0:
440,136,71325,1,0,0:0:0:0:
432,176,71445,1,8,0:0:0:0:
368,224,71565,1,0,0:0:0:0:
408,224,71685,1,8,0:0:0:0:
368,224,71805,1,8,0:0:0:0:
432,272,71925,1,0,0:0:0:0:
472,248,72045,1,8,0:0:0:0:
408,224,72165,1,0,0:0:0:0:
448,232,72285,1,0,0:0:0:0:
440,192,72405,1,8,0:0:0:0:
400,200,72525,1,0,0:0:0:0:
440,216,72645,1,8,0:0:0:0:
440,216,72765,1,8,0:0:0:0:
408,224,72885,1,0,0:0:0:0:
472,248,73005,1,8,0:0:0:0:
408,224,73125,1,0,0:0:0:0:
448,232,73245,1,0,0:0:0:0:
440,192,73365,1,8,0:0:0:0:
400,200,73485,1,0,0:0:0:0:
440,216,73605,1,8,0:0:0:0:
440,216,73725,1,8,0:0:0:0:
408,224,73845,1,0,0:0:0:0:
392,184,73965,1,8,0:0:0:0:
472,192,74205,1,0,0:0:0:0:
472,192,74445,1,0,0:0:0:0:
392,192,74685,1,8,0:0:0:0:
432,120,74925,1,8,0:0:0:0:
440,216,75045,1,0,0:0:0:0:
472,240,75165,1,0,0:0:0:0:
440,208,75285,1,8,0:0:0:0:
416,176,75405,1,0,0:0:0:0:
456,176,75525,1,8,0:0:0:0:
496,176,75645,1,8,0:0:0:0:
472,208,75765,1,0,0:0:0:0:
440,176,75885,1,8,0:0:0:0:
424,216,76005,1,0,0:0:0:0:
424,256,76125,1,0,0:0:0:0:
424,216,76245,1,8,0:0:0:0:
424,216,76365,1,8,0:0:0:0:
472,208,76485,1,8,0:0:0:0:
456,176,76605,1,0,0:0:0:0:
464,136,76725,1,8,0:0:0:0:
440,168,76845,1,8,0:0:0:0:
424,208,76965,1,0,0:0:0:0:
448,240,77085,1,8,0:0:0:0:
416,208,77205,1,8,0:0:0:0:
400,248,77325,1,0,0:0:0:0:
400,248,77445,1,8,0:0:0:0:
448,240,77565,1,0,0:0:0:0:
424,280,77685,1,0,0:0:0:0:
472,208,77805,1,8,0:0:0:0:
392,216,78045,1,0,0:0:0:0:
416,208,78285,1,12,0:0:0:0:
336,192,78525,1,0,0:0:0:0:
296,184,78645,1,0,0:0:0:0:
320,152,78765,5,8,0:0:0:0:
480,192,79245,1,0,0:0:0:0:
424,128,79485,1,8,0:0:0:0:
440,152,79565,1,8,0:0:0:0:
440,152,79645,1,8,0:0:0:0:
416,160,79725,1,8,0:0:0:0:
264,224,80205,1,0,0:0:0:0:
344,256,80445,1,0,0:0:0:0:
384,248,80565,1,0,0:0:0:0:
376,208,80685,1,8,0:0:0:0:
376,208,80925,1,8,0:0:0:0:
416,200,81045,1,0,0:0:0:0:
448,176,81165,1,0,0:0:0:0:
368,168,81405,1,0,0:0:0:0:
328,160,81525,1,0,0:0:0:0:
288,168,81645,1,8,0:0:0:0:
360,208,81885,1,0,0:0:0:0:
360,208,81965,1,0,0:0:0:0:
360,208,82045,1,0,0:0:0:0:
376,208,82125,1,8,0:0:0:0:
376,208,82365,1,0,0:0:0:0:
424,136,82605,1,8,0:0:0:0:
432,216,82845,1,8,0:0:0:0:
472,232,82965,1,0,0:0:0:0:
464,152,83205,1,8,0:0:0:0:
472,232,83325,1,0,0:0:0:0:
464,152,83565,1,8,0:0:0:0:
488,184,83685,1,0,0:0:0:0:
464,104,83925,1,8,0:0:0:0:
448,144,84045,1,0,0:0:0:0:
496,160,84285,1,8,0:0:0:0:
456,176,84405,1,0,0:0:0:0:
488,184,84525,1,8,0:0:0:0:
448,208,84645,1,0,0:0:0:0:
448,208,84765,1,0,0:0:0:0:
456,176,84885,1,8,0:0:0:0:
416,168,85005,1,8,0:0:0:0:
456,240,85245,1,0,0:0:0:0:
392,296,85485,1,0,0:0:0:0:
400,128,85965,1,12,0:0:0:0:
320,152,86205,1,0,0:0:0:0:
248,192,86445,5,8,0:0:0:0:
328,208,86685,1,8,0:0:0:0:
360,184,86805,1,8,0:0:0:0:
344,224,86925,1,0,0:0:0:0:
344,224,87045,1,0,0:0:0:0:
344,224,87165,1,0,0:0:0:0:
376,248,87285,1,8,0:0:0:0:
376,248,87405,1,8,0:0:0:0:
256,224,87765,1,0,0:0:0:0:
376,184,88125,1,8,0:0:0:0:
400,224,88245,1,8,0:0:0:0:
440,208,88365,1,0,0:0:0:0:
400,200,88485,1,0,0:0:0:0:
400,200,88605,1,0,0:0:0:0:
360,184,88725,1,8,0:0:0:0:
440,208,88845,1,0,0:0:0:0:
400,200,88965,1,0,0:0:0:0:
368,232,89085,1,8,0:0:0:0:
368,232,89205,1,8,0:0:0:0:
336,208,89325,1,0,0:0:0:0:
280,144,89565,1,0,0:0:0:0:
296,184,89685,1,8,0:0:0:0:
312,224,89805,1,0,0:0:0:0:
272,224,89925,1,0,0:0:0:0:
312,232,90045,1,8,0:0:0:0:
352,248,90165,1,8,0:0:0:0:
392,264,90285,1,0,0:0:0:0:
312,272,90525,1,0,0:0:0:0:
352,200,90765,1,0,0:0:0:0:
312,216,90885,1,8,0:0:0:0:
392,184,91125,1,8,0:0:0:0:
312,272,91245,1,0,0:0:0:0:
376,216,91485,1,0,0:0:0:0:
376,216,91605,1,0,0:0:0:0:
344,184,91725,1,8,0:0:0:0:
392,112,91965,1,0,0:0:0:0:
376,216,92085,1,8,0:0:0:0:
392,256,92205,1,8,0:0:0:0:
416,288,92325,1,0,0:0:0:0:
392,184,92445,1,8,0:0:0:0:
432,200,92565,1,0,0:0:0:0:
392,192,92685,1,8,0:0:0:0:
416,160,92805,1,8,0:0:0:0:
456,184,92925,1,8,0:0:0:0:
416,200,93045,1,0,0:0:0:0:
392,232,93165,1,0,0:0:0:0:
416,200,93285,1,8,0:0:0:0:
432,200,93405,1,8,0:0:0:0:
392,208,93525,1,0,0:0:0:0:
456,184,93645,1,8,0:0:0:0:
456,184,93765,1,8,0:0:0:0:
416,288,93885,1,0,0:0:0:0:
416,288,94005,1,0,0:0:0:0:
416,248,94125,5,8,0:0:0:0:
400,168,94365,1,0,0:0:0:0:
400,88,94605,1,8,0:0:0:0:
424,128,94725,1,0,0:0:0:0:
512,216,94965,1,8,0:0:0:0:
472,216,95085,1,0,0:0:0:0:
480,176,95205,1,8,0:0:0:0:
440,176,95325,1,8,0:0:0:0:
416,208,95445,1,0,0:0:0:0:
424,248,95565,1,0,0:0:0:0:
368,312,95805,1,0,0:0:0:0:
432,232,96045,1,8,0:0:0:0:
392,224,96165,1,0,0:0:0:0:
368,184,96285,1,0,0:0:0:0:
392,216,96405,1,0,0:0:0:0:
400,176,96525,1,8,0:0:0:0:
400,176,96645,1,8,0:0:0:0:
400,216,96765,1,0,0:0:0:0:
408,256,96885,1,0,0:0:0:0:
416,296,97005,1,8,0:0:0:0:
416,296,97125,1,0,0:0:0:0:
432,232,97245,1,0,0:0:0:0:
392,232,97365,1,8,0:0:0:0:
352,224,97485,1,0,0:0:0:0:
384,200,97605,1,8,0:0:0:0:
376,160,97725,1,0,0:0:0:0:
368,184,97845,1,8,0:0:0:0:
432,232,98085,1,8,0:0:0:0:
472,224,98205,1,8,0:0:0:0:
440,248,98325,1,0,0:0:0:0:
440,288,98445,1,0,0:0:0:0:
416,296,98685,1,0,0:0:0:0:
424,256,98805,1,8,0:0:0:0:
440,248,99045,1,8,0:0:0:0:
400,256,99165,1,0,0:0:0:0:
360,272,99285,1,0,0:0:0:0:
336,240,99405,1,0,0:0:0:0:
280,176,99645,1,0,0:0:0:0:
312,144,99765,1,0,0:0:0:0:
352,152,99885,1,8,0:0:0:0:
376,168,99965,1,8,0:0:0:0:
400,184,100045,1,8,0:0:0:0:
400,184,100125,1,0,0:0:0:0:
328,224,100365,1,8,0:0:0:0:
352,208,100445,1,8,0:0:0:0:
352,208,100525,1,8,0:0:0:0:
352,208,100605,1,0,0:0:0:0:
400,144,100845,1,8,0:0:0:0:
368,168,100965,1,0,0:0:0:0:
352,152,101085,1,8,0:0:0:0:
400,144,101205,1,8,0:0:0:0:
424,184,101325,1,0,0:0:0:0:
424,264,101565,1,0,0:0:0:0:
344,288,101805,5,8,0:0:0:0:
472,176,102285,1,8,0:0:0:0:
432,176,102405,1,8,0:0:0:0:
472,184,102525,1,8,0:0:0:0:
456,224,102645,1,8,0:0:0:0:
424,184,102765,1,8,0:0:0:0:
408,224,103125,1,8,0:0:0:0:
408,224,103245,1,8,0:0:0:0:
424,264,103365,1,8,0:0:0:0:
336,256,103485,1,8,0:0:0:0:
376,224,103605,1,8,0:0:0:0:
376,224,103725,1,8,0:0:0:0:
304,176,103965,1,8,0:0:0:0:
336,256,104205,1,8,0:0:0:0:
432,176,104565,1,8,0:0:0:0:
400,200,104685,1,8,0:0:0:0:
144,200,105405,1,0,0:0:0:0:
184,200,105525,1,0,0:0:0:0:
224,200,105645,1,8,0:0:0:0:
304,176,105885,1,8,0:0:0:0:
360,240,106125,1,0,0:0:0:0:
432,152,106485,1,0,0:0:0:0:
432,152,106605,1,8,0:0:0:0:
432,152,106725,1,8,0:0:0:0:
392,136,106845,1,0,0:0:0:0:
424,160,106965,1,8,0:0:0:0:
384,184,107085,1,0,0:0:0:0:
360,240,107445,1,0,0:0:0:0:
368,296,107565,1,0,0:0:0:0:
392,216,107805,1,0,0:0:0:0:
472,184,108045,1,8,0:0:0:0:
392,192,108285,1,8,0:0:0:0:
432,192,108405,1,8,0:0:0:0:
392,216,108525,1,0,0:0:0:0:
432,192,108765,1,8,0:0:0:0:
400,216,108885,1,0,0:0:0:0:
360,240,109005,1,0,0:0:0:0:
440,264,109245,1,8,0:0:0:0:
344,288,109485,5,8,0:0:0:0:
472,176,109965,1,8,0:0:0:0:
432,176,110085,1,8,0:0:0:0:
472,184,110205,1,8,0:0:0:0:
456,224,110325,1,8,0:0:0:0:
424,184,110445,1,8,0:0:0:0:
408,224,110805,1,8,0:0:0:0:
408,224,110925,1,8,0:0:0:0:
424,264,111045,1,8,0:0:0:0:
336,256,111165,1,8,0:0:0:0:
376,224,111285,1,8,0:0:0:0:
376,224,111405,1,8,0:0:0:0:
304,176,111645,1,8,0:0:0:0:
336,256,111885,1,8,0:0:0:0:
432,176,112245,1,8,0:0:0:0:
400,200,112365,1,8,0:0:0:0:
144,200,113085,1,0,0:0:0:0:
184,200,113205,1,0,0:0:0:0:
224,200,113325,1,8,0:0:0:0:
304,176,113565,1,8,0:0:0:0:
360,240,113805,1,0,0:0:0:0:
432,152,114165,1,0,0:0:0:0:
432,152,114285,1,8,0:0:0:0:
432,152,114405,1,8,0:0:0:0:
392,136,114525,1,0,0:0:0:0:
424,160,114645,1,8,0:0:0:0:
392,136,114765,1,8,0:0:0:0:
408,176,114885,1,0,0:0:0:0:
408,176,115005,1,8,0:0:0:0:
408,176,115125,1,8,0:0:0:0:
416,216,115245,1,0,0:0:0:0:
424,296,115605,1,0,0:0:0:0:
400,264,115725,1,8,0:0:0:0:
376,232,115845,1,8,0:0:0:0:
416,232,115965,1,0,0:0:0:0:
416,232,116085,1,0,0:0:0:0:
384,200,116205,1,8,0:0:0:0:
368,120,116445,1,8,0:0:0:0:
448,152,116685,1,0,0:0:0:0:
408,152,116805,1,0,0:0:0:0:
408,192,116925,1,8,0:0:0:0:
408,152,117045,1,8,0:0:0:0:
424,112,117165,5,0,0:0:0:0:
344,144,117405,1,0,0:0:0:0:
344,224,117645,1,12,0:0:0:0:
408,192,117885,1,0,0:0:0:0:
448,176,118005,1,8,0:0:0:0:
344,224,118125,1,0,0:0:0:0:
416,264,118365,1,0,0:0:0:0:
400,184,118605,1,12,0:0:0:0:
400,184,118845,1,0,0:0:0:0:
440,176,118965,1,8,0:0:0:0:
440,216,119085,1,0,0:0:0:0:
392,288,119325,1,0,0:0:0:0:
392,248,119445,1,8,0:0:0:0:
424,224,119565,1,8,0:0:0:0:
376,152,119805,1,0,0:0:0:0:
416,160,119925,1,8,0:0:0:0:
448,192,120045,1,0,0:0:0:0:
400,184,120285,1,0,0:0:0:0:
432,216,120405,1,0,0:0:0:0:
400,184,120525,1,8,0:0:0:0:
360,256,120765,1,8,0:0:0:0:
312,192,121005,5,0,0:0:0:0:
288,112,121245,1,0,0:0:0:0:
368,128,121485,1,12,0:0:0:0:
288,144,121725,1,0,0:0:0:0:
312,192,121845,1,8,0:0:0:0:
272,216,121965,1,0,0:0:0:0:
352,240,122205,1,0,0:0:0:0:
368,160,122445,1,12,0:0:0:0:
392,240,122685,1,0,0:0:0:0:
392,240,122805,1,0,0:0:0:0:
368,160,122925,1,8,0:0:0:0:
408,176,123045,1,8,0:0:0:0:
368,160,123165,1,0,0:0:0:0:
408,176,123285,1,8,0:0:0:0:
408,216,123405,1,0,0:0:0:0:
392,240,123645,1,8,0:0:0:0:
408,176,123885,1,0,0:0:0:0:
368,248,124125,1,0,0:0:0:0:
328,176,124365,1,0,0:0:0:0:
344,136,124485,1,0,0:0:0:0:
408,216,124605,1,8,0:0:0:0:
408,216,124725,1,8,0:0:0:0:
440,184,124845,5,0,0:0:0:0:
360,176,125085,1,0,0:0:0:0:
360,176,125205,1,0,0:0:0:0:
320,160,125325,1,8,0:0:0:0:
360,176,125565,1,0,0:0:0:0:
440,184,125685,1,8,0:0:0:0:
480,200,125805,1,0,0:0:0:0:
440,272,126045,1,0,0:0:0:0:
448,312,126165,1,0,0:0:0:0:
440,272,126285,1,8,0:0:0:0:
440,184,126525,1,0,0:0:0:0:
320,160,126645,1,8,0:0:0:0:
352,192,126765,1,0,0:0:0:0:
432,216,127005,1,0,0:0:0:0:
352,224,127245,1,8,0:0:0:0:
432,216,127365,1,8,0:0:0:0:
352,224,127485,1,0,0:0:0:0:
440,184,127605,1,8,0:0:0:0:
400,208,127725,1,0,0:0:0:0:
376,128,127965,1,0,0:0:0:0:
408,152,128085,1,0,0:0:0:0:
432,216,128205,1,8,0:0:0:0:
360,264,128445,1,8,0:0:0:0:
440,184,128685,5,0,0:0:0:0:
360,176,128925,1,0,0:0:0:0:
360,176,129045,1,0,0:0:0:0:
320,160,129165,1,8,0:0:0:0:
360,176,129405,1,0,0:0:0:0:
440,184,129525,1,8,0:0:0:0:
480,200,129645,1,0,0:0:0:0:
440,272,129885,1,0,0:0:0:0:
448,312,130005,1,0,0:0:0:0:
440,272,130125,1,8,0:0:0:0:
440,184,130365,1,0,0:0:0:0:
320,160,130485,1,0,0:0:0:0:
352,192,130605,1,8,0:0:0:0:
312,192,130725,1,0,0:0:0:0:
272,184,130845,1,8,0:0:0:0:
312,184,130965,1,8,0:0:0:0:
312,224,131085,1,0,0:0:0:0:
392,192,131325,1,8,0:0:0:0:
352,120,131565,1,0,0:0:0:0:
312,224,132045,1,12,0:0:0:0:
472,168,132525,5,8,0:0:0:0:
472,168,132645,1,8,0:0:0:0:
456,208,132765,1,0,0:0:0:0:
416,208,132885,1,8,0:0:0:0:
416,208,133005,1,8,0:0:0:0:
416,208,133125,1,0,0:0:0:0:
376,216,133245,1,8,0:0:0:0:
376,216,133365,1,0,0:0:0:0:
400,184,133485,1,8,0:0:0:0:
432,160,133605,1,8,0:0:0:0:
464,184,133725,1,0,0:0:0:0:
456,208,133845,1,8,0:0:0:0:
440,168,133965,1,8,0:0:0:0:
400,184,134085,1,0,0:0:0:0:
360,192,134205,1,8,0:0:0:0:
416,208,134325,1,0,0:0:0:0:
384,176,134445,1,8,0:0:0:0:
376,136,134565,1,8,0:0:0:0:
400,184,134685,1,0,0:0:0:0:
400,184,134805,1,0,0:0:0:0:
424,152,134925,1,8,0:0:0:0:
432,160,135045,1,8,0:0:0:0:
432,160,135165,1,8,0:0:0:0:
416,200,135285,1,0,0:0:0:0:
440,168,135405,1,8,0:0:0:0:
440,168,135525,1,0,0:0:0:0:
480,184,135645,1,0,0:0:0:0:
440,176,135765,1,8,0:0:0:0:
424,216,135885,1,8,0:0:0:0:
392,240,136005,1,8,0:0:0:0:
424,216,136125,1,0,0:0:0:0:
424,216,136245,1,8,0:0:0:0:
472,168,136365,5,8,0:0:0:0:
472,168,136485,1,8,0:0:0:0:
456,208,136605,1,0,0:0:0:0:
416,208,136725,1,8,0:0:0:0:
416,208,136845,1,8,0:0:0:0:
416,208,136965,1,0,0:0:0:0:
376,216,137085,1,8,0:0:0:0:
376,216,137205,1,0,0:0:0:0:
400,184,137325,1,8,0:0:0:0:
432,160,137445,1,8,0:0:0:0:
464,184,137565,1,0,0:0:0:0:
456,208,137685,1,8,0:0:0:0:
440,168,137805,1,8,0:0:0:0:
400,184,137925,1,0,0:0:0:0:
360,192,138045,1,0,0:0:0:0:
416,208,138165,1,8,0:0:0:0:
376,208,138285,1,0,0:0:0:0:
336,200,138405,1,0,0:0:0:0:
296,192,138525,1,0,0:0:0:0:
256,176,138645,1,8,0:0:0:0:
288,208,138765,1,8,0:0:0:0:
320,240,138885,1,8,0:0:0:0:
360,232,139005,1,0,0:0:0:0:
320,256,139125,1,0,0:0:0:0:
352,224,139245,1,8,0:0:0:0:
416,176,139485,1,0,0:0:0:0:
336,152,139725,1,12,0:0:0:0:
376,224,139965,1,0,0:0:0:0:
368,200,140045,1,0,0:0:0:0:
368,200,140125,1,0,0:0:0:0:
376,176,140205,5,8,0:0:0:0:
368,200,140445,1,8,0:0:0:0:
416,176,140685,1,0,0:0:0:0:
480,232,140925,1,8,0:0:0:0:
456,216,141005,1,8,0:0:0:0:
456,216,141085,1,8,0:0:0:0:
376,224,141165,1,0,0:0:0:0:
448,176,141405,1,8,0:0:0:0:
376,216,141645,1,0,0:0:0:0:
432,280,141885,1,0,0:0:0:0:
408,248,142005,1,0,0:0:0:0:
440,216,142125,1,8,0:0:0:0:
416,176,142245,1,0,0:0:0:0:
416,176,142365,1,8,0:0:0:0:
448,176,142485,1,0,0:0:0:0:
424,208,142605,1,0,0:0:0:0:
408,248,142725,1,0,0:0:0:0:
424,208,142845,1,8,0:0:0:0:
432,248,142965,1,8,0:0:0:0:
392,232,143085,1,8,0:0:0:0:
424,208,143205,1,0,0:0:0:0:
448,176,143325,1,0,0:0:0:0:
416,176,143445,1,8,0:0:0:0:
424,216,143565,1,8,0:0:0:0:
408,248,143805,1,8,0:0:0:0:
392,232,143925,1,0,0:0:0:0:
424,208,144045,1,8,0:0:0:0:
344,232,144285,1,8,0:0:0:0:
384,240,144405,1,0,0:0:0:0:
384,200,144525,1,0,0:0:0:0:
368,160,144645,1,8,0:0:0:0:
336,192,144765,1,0,0:0:0:0:
344,232,144885,1,0,0:0:0:0:
368,200,145005,1,8,0:0:0:0:
408,184,145125,1,0,0:0:0:0:
408,184,145245,1,0,0:0:0:0:
384,152,145365,1,8,0:0:0:0:
344,160,145485,1,0,0:0:0:0:
424,176,145725,1,8,0:0:0:0:
392,208,145845,1,0,0:0:0:0:
416,176,145965,1,8,0:0:0:0:
376,176,146085,1,0,0:0:0:0:
368,160,146205,1,0,0:0:0:0:
376,176,146325,1,8,0:0:0:0:
384,216,146445,1,8,0:0:0:0:
304,224,146685,1,8,0:0:0:0:
336,256,146805,1,0,0:0:0:0:
368,288,146925,1,0,0:0:0:0:
376,176,147165,1,8,0:0:0:0:
448,216,147405,5,12,0:0:0:0:
