osu file format v12

[General]
AudioFilename: Gypsy Tronic.mp3
AudioLeadIn: 0
PreviewTime: 55725
Countdown: 0
SampleSet: Normal
StackLeniency: 0.7
Mode: 1
LetterboxInBreaks: 0
WidescreenStoryboard: 1

[Editor]
Bookmarks: 5805,25005,40365,55725,71085,86445,101805,117165,132525,147405
DistanceSpacing: 1.2
BeatDivisor: 4
GridSize: 8

[Metadata]
Title:Gypsy Tronic
TitleUnicode:Gypsy Tronic
Artist:M2U
ArtistUnicode:M2U
Creator:Gomo Pslvarh
Version:lepidon! - Muzukashii
Source:O2Jam
Tags:ANALOG S.I.D-SOUND Lucy HAZARD jieusieu HelloSCV Ra-s lepidopodus Sonnyc
BeatmapID:332289
BeatmapSetID:100445

[Difficulty]
HPDrainRate:5
CircleSize:4
OverallDifficulty:5
ApproachRate:5
SliderMultiplier:1.4
SliderTickRate:1

[Events]
//Background and Video events
0,0,"BG.jpg",0,0
//Break Periods
//Storyboard Layer 0 (Background)
//Storyboard Layer 1 (Fail)
//Storyboard Layer 2 (Pass)
//Storyboard Layer 3 (Foreground)
//Storyboard Sound Samples
//Background Colour Transformations
3,100,163,162,255

[TimingPoints]
5805,480,4,1,0,90,1,0
55725,-100,4,1,0,90,0,1
71085,-100,4,1,0,90,0,0
132525,-100,4,1,0,90,0,1
149805,-100,4,1,0,90,0,0

[HitObjects]
184,184,5805,1,0,0:0:0:0:
264,192,6045,1,0,0:0:0:0:
328,272,6285,1,0,0:0:0:0:
456,296,6645,1,0,0:0:0:0:
256,360,7245,1,0,0:0:0:0:
352,224,7725,1,8,0:0:0:0:
400,160,7965,1,8,0:0:0:0:
352,224,8205,1,8,0:0:0:0:
432,120,8565,1,8,0:0:0:0:
296,280,9165,1,8,0:0:0:0:
408,152,9645,1,0,0:0:0:0:
352,208,9885,1,0,0:0:0:0:
408,152,10125,1,0,0:0:0:0:
320,240,10485,1,0,0:0:0:0:
472,88,11085,1,0,0:0:0:0:
312,136,11565,1,8,0:0:0:0:
232,144,11805,1,8,0:0:0:0:
312,136,12045,1,8,0:0:0:0:
184,152,12405,1,8,0:0:0:0:
392,128,13005,1,8,0:0:0:0:
288,264,13485,5,0,0:0:0:0:
344,200,13725,1,0,0:0:0:0:
288,264,13965,1,0,0:0:0:0:
368,168,14325,1,0,0:0:0:0:
288,264,14565,1,0,0:0:0:0:
344,200,14925,1,0,0:0:0:0:
360,224,15405,1,8,0:0:0:0:
360,224,15645,1,8,0:0:0:0:
360,224,15885,1,8,0:0:0:0:
360,224,16245,1,8,0:0:0:0:
408,152,16485,1,8,0:0:0:0:
280,144,16845,1,8,0:0:0:0:
288,264,17325,1,0,0:0:0:0:
344,200,17565,1,0,0:0:0:0:
288,264,17805,1,0,0:0:0:0:
368,168,18165,1,0,0:0:0:0:
288,264,18405,1,0,0:0:0:0:
344,200,18765,1,0,0:0:0:0:
208,104,19245,1,8,0:0:0:0:
144,48,19485,1,8,0:0:0:0:
208,104,19725,1,8,0:0:0:0:
240,136,19845,1,8,0:0:0:0:
296,200,20085,1,8,0:0:0:0:
328,232,20205,1,8,0:0:0:0:
488,288,20685,1,8,0:0:0:0:
448,272,20805,1,8,0:0:0:0:
408,264,20925,1,8,0:0:0:0:
408,224,21045,1,8,0:0:0:0:
424,184,21165,5,0,0:0:0:0:
424,184,21405,1,8,0:0:0:0:
408,312,21765,1,8,0:0:0:0:
304,240,22125,1,8,0:0:0:0:
416,296,22605,1,8,0:0:0:0:
392,128,23085,1,0,0:0:0:0:
392,208,23325,1,8,0:0:0:0:
384,336,23685,1,8,0:0:0:0:
384,208,24045,1,8,0:0:0:0:
432,48,24525,1,12,0:0:0:0:
280,120,25005,5,0,0:0:0:0:
320,192,25485,1,0,0:0:0:0:
344,232,25605,1,0,0:0:0:0:
360,272,25725,1,0,0:0:0:0:
280,248,25965,1,0,0:0:0:0:
400,208,26325,1,0,0:0:0:0:
448,248,26445,1,0,0:0:0:0:
416,168,26685,1,0,0:0:0:0:
368,240,26925,1,0,0:0:0:0:
392,160,27165,1,8,0:0:0:0:
472,192,27405,1,0,0:0:0:0:
440,72,27765,1,8,0:0:0:0:
416,168,27885,1,0,0:0:0:0:
304,288,28365,1,8,0:0:0:0:
328,208,28605,1,0,0:0:0:0:
328,208,28725,1,0,0:0:0:0:
328,208,28845,1,0,0:0:0:0:
392,152,29085,1,8,0:0:0:0:
416,232,29325,1,0,0:0:0:0:
400,360,29685,1,0,0:0:0:0:
408,320,29805,1,0,0:0:0:0:
416,240,30045,1,8,0:0:0:0:
392,152,30285,1,0,0:0:0:0:
344,216,30645,1,0,0:0:0:0:
344,216,30765,1,0,0:0:0:0:
344,216,31005,1,0,0:0:0:0:
408,160,31245,1,8,0:0:0:0:
328,176,31485,1,0,0:0:0:0:
392,152,31725,1,8,0:0:0:0:
400,232,31965,1,0,0:0:0:0:
400,232,32085,1,0,0:0:0:0:
400,232,32205,1,0,0:0:0:0:
408,160,32445,1,8,0:0:0:0:
280,120,32685,5,0,0:0:0:0:
320,192,33165,1,0,0:0:0:0:
344,232,33285,1,0,0:0:0:0:
360,272,33405,1,0,0:0:0:0:
280,248,33645,1,0,0:0:0:0:
400,208,34005,1,0,0:0:0:0:
448,248,34125,1,0,0:0:0:0:
416,168,34365,1,0,0:0:0:0:
368,240,34605,1,0,0:0:0:0:
392,160,34845,1,8,0:0:0:0:
472,192,35085,1,0,0:0:0:0:
440,72,35445,1,8,0:0:0:0:
416,168,35565,1,0,0:0:0:0:
304,288,36045,1,8,0:0:0:0:
328,208,36285,1,0,0:0:0:0:
328,208,36405,1,0,0:0:0:0:
328,208,36525,1,0,0:0:0:0:
360,128,36765,1,8,0:0:0:0:
360,128,37005,1,0,0:0:0:0:
400,248,37365,1,0,0:0:0:0:
416,288,37485,1,0,0:0:0:0:
368,224,37725,1,8,0:0:0:0:
368,224,37965,1,8,0:0:0:0:
336,192,38085,1,8,0:0:0:0:
304,160,38205,1,8,0:0:0:0:
352,232,38445,1,0,0:0:0:0:
352,232,38805,1,0,0:0:0:0:
352,232,38925,1,0,0:0:0:0:
352,232,39045,1,0,0:0:0:0:
352,232,39165,1,0,0:0:0:0:
376,152,39405,1,0,0:0:0:0:
456,160,39645,1,0,0:0:0:0:
376,152,39885,1,4,0:0:0:0:
208,128,40365,5,0,0:0:0:0:
208,128,40605,1,0,0:0:0:0:
256,200,40845,1,12,0:0:0:0:
376,240,41205,1,0,0:0:0:0:
376,240,41325,1,0,0:0:0:0:
376,240,41565,1,0,0:0:0:0:
376,240,41805,1,12,0:0:0:0:
384,272,42285,1,0,0:0:0:0:
384,272,42525,1,0,0:0:0:0:
384,272,42765,1,12,0:0:0:0:
448,216,43005,1,0,0:0:0:0:
416,240,43125,1,0,0:0:0:0:
392,272,43245,1,0,0:0:0:0:
456,328,43485,1,0,0:0:0:0:
392,272,43725,1,8,0:0:0:0:
456,328,43965,1,8,0:0:0:0:
408,264,44205,1,0,0:0:0:0:
360,200,44445,1,0,0:0:0:0:
360,200,44685,1,12,0:0:0:0:
360,200,45045,1,0,0:0:0:0:
360,200,45165,1,0,0:0:0:0:
360,200,45405,1,0,0:0:0:0:
296,144,45645,1,12,0:0:0:0:
376,296,46125,1,0,0:0:0:0:
376,296,46245,1,0,0:0:0:0:
376,296,46365,1,0,0:0:0:0:
376,296,46485,1,0,0:0:0:0:
376,296,46605,1,0,0:0:0:0:
456,272,46845,1,8,0:0:0:0:
376,256,47085,1,0,0:0:0:0:
376,256,47325,1,0,0:0:0:0:
376,256,47565,1,12,0:0:0:0:
448,104,48045,5,0,0:0:0:0:
424,184,48285,1,0,0:0:0:0:
416,224,48405,1,0,0:0:0:0:
408,264,48525,1,8,0:0:0:0:
408,264,49005,1,0,0:0:0:0:
408,264,49245,1,0,0:0:0:0:
408,264,49365,1,0,0:0:0:0:
408,264,49485,1,8,0:0:0:0:
408,264,49965,1,0,0:0:0:0:
408,264,50205,1,0,0:0:0:0:
384,304,50325,1,0,0:0:0:0:
408,272,50445,1,8,0:0:0:0:
448,344,50685,1,0,0:0:0:0:
408,272,50925,1,0,0:0:0:0:
328,288,51165,1,8,0:0:0:0:
368,280,51285,1,8,0:0:0:0:
368,280,51405,1,8,0:0:0:0:
368,280,51645,1,8,0:0:0:0:
408,208,51885,1,0,0:0:0:0:
408,208,52125,1,0,0:0:0:0:
408,208,52245,1,0,0:0:0:0:
408,208,52365,1,8,0:0:0:0:
400,376,52845,1,0,0:0:0:0:
400,296,53085,1,0,0:0:0:0:
408,256,53205,1,0,0:0:0:0:
408,256,53325,1,8,0:0:0:0:
400,312,53805,1,8,0:0:0:0:
400,312,53925,1,8,0:0:0:0:
400,312,54045,1,8,0:0:0:0:
400,312,54165,1,8,0:0:0:0:
400,312,54285,1,8,0:0:0:0:
480,304,54525,1,0,0:0:0:0:
400,312,54765,1,8,0:0:0:0:
432,144,55245,1,12,0:0:0:0:
280,120,55725,5,4,0:0:0:0:
320,192,56205,1,0,0:0:0:0:
344,232,56325,1,0,0:0:0:0:
360,272,56445,1,0,0:0:0:0:
280,248,56685,1,0,0:0:0:0:
400,208,57045,1,0,0:0:0:0:
448,248,57165,1,0,0:0:0:0:
416,168,57405,1,0,0:0:0:0:
368,240,57645,1,0,0:0:0:0:
392,160,57885,1,8,0:0:0:0:
472,192,58125,1,0,0:0:0:0:
440,72,58485,1,8,0:0:0:0:
416,168,58605,1,0,0:0:0:0:
304,288,59085,1,8,0:0:0:0:
328,208,59325,1,0,0:0:0:0:
328,208,59445,1,0,0:0:0:0:
328,208,59565,1,0,0:0:0:0:
392,152,59805,1,8,0:0:0:0:
416,232,60045,1,0,0:0:0:0:
400,360,60405,1,0,0:0:0:0:
408,320,60525,1,0,0:0:0:0:
416,240,60765,1,8,0:0:0:0:
392,152,61005,1,0,0:0:0:0:
312,168,61245,1,0,0:0:0:0:
344,216,61365,1,0,0:0:0:0:
344,216,61485,1,0,0:0:0:0:
344,216,61725,1,0,0:0:0:0:
408,160,61965,1,8,0:0:0:0:
328,176,62205,1,0,0:0:0:0:
392,152,62445,1,8,0:0:0:0:
400,232,62685,1,8,0:0:0:0:
400,232,62805,1,8,0:0:0:0:
400,232,62925,1,8,0:0:0:0:
408,160,63165,1,0,0:0:0:0:
280,120,63405,5,4,0:0:0:0:
320,192,63885,1,0,0:0:0:0:
344,232,64005,1,0,0:0:0:0:
360,272,64125,1,0,0:0:0:0:
280,248,64365,1,0,0:0:0:0:
400,208,64725,1,0,0:0:0:0:
448,248,64845,1,0,0:0:0:0:
416,168,65085,1,0,0:0:0:0:
368,240,65325,1,0,0:0:0:0:
392,160,65565,1,8,0:0:0:0:
472,192,65805,1,0,0:0:0:0:
440,72,66165,1,8,0:0:0:0:
416,168,66285,1,0,0:0:0:0:
304,288,66765,1,8,0:0:0:0:
328,208,67005,1,0,0:0:0:0:
328,208,67125,1,0,0:0:0:0:
328,208,67245,1,0,0:0:0:0:
360,128,67485,1,8,0:0:0:0:
360,128,67725,1,0,0:0:0:0:
280,160,67965,1,8,0:0:0:0:
400,248,68085,1,8,0:0:0:0:
416,288,68205,1,8,0:0:0:0:
368,224,68445,1,0,0:0:0:0:
368,224,68685,1,8,0:0:0:0:
304,160,68925,1,8,0:0:0:0:
352,232,69165,1,0,0:0:0:0:
272,232,69405,1,0,0:0:0:0:
352,232,69525,1,0,0:0:0:0:
352,232,69645,1,0,0:0:0:0:
352,232,69765,1,0,0:0:0:0:
352,232,69885,1,0,0:0:0:0:
376,152,70125,1,0,0:0:0:0:
456,160,70365,1,0,0:0:0:0:
376,152,70605,1,4,0:0:0:0:
208,136,71085,5,0,0:0:0:0:
208,136,71325,1,0,0:0:0:0:
208,136,71445,1,0,0:0:0:0:
208,136,71565,1,0,0:0:0:0:
272,192,71805,1,8,0:0:0:0:
336,240,72045,1,0,0:0:0:0:
272,192,72285,1,0,0:0:0:0:
304,216,72405,1,0,0:0:0:0:
336,240,72525,1,0,0:0:0:0:
304,216,72765,1,8,0:0:0:0:
384,248,73005,1,0,0:0:0:0:
384,248,73245,1,0,0:0:0:0:
384,248,73365,1,0,0:0:0:0:
384,248,73485,1,0,0:0:0:0:
384,248,73725,1,8,0:0:0:0:
416,168,73965,1,4,0:0:0:0:
416,168,74205,1,0,0:0:0:0:
416,168,74445,1,0,0:0:0:0:
416,168,74685,1,8,0:0:0:0:
352,224,74925,1,0,0:0:0:0:
416,168,75165,1,0,0:0:0:0:
384,192,75285,1,0,0:0:0:0:
360,224,75405,1,0,0:0:0:0:
408,152,75645,1,8,0:0:0:0:
360,224,75885,1,0,0:0:0:0:
408,152,76125,1,0,0:0:0:0:
384,184,76245,1,0,0:0:0:0:
360,224,76365,1,0,0:0:0:0:
408,152,76605,1,0,0:0:0:0:
328,152,76845,1,8,0:0:0:0:
288,152,76965,1,8,0:0:0:0:
248,152,77085,1,8,0:0:0:0:
248,152,77205,1,8,0:0:0:0:
248,152,77325,1,8,0:0:0:0:
248,152,77565,1,0,0:0:0:0:
304,208,77805,1,8,0:0:0:0:
368,264,78045,1,8,0:0:0:0:
424,328,78285,1,12,0:0:0:0:
360,176,78765,5,8,0:0:0:0:
368,344,79245,1,0,0:0:0:0:
384,264,79485,1,8,0:0:0:0:
384,224,79605,1,8,0:0:0:0:
384,224,79725,1,0,0:0:0:0:
384,264,80205,1,0,0:0:0:0:
384,288,80445,1,0,0:0:0:0:
384,288,80565,1,0,0:0:0:0:
400,248,80685,1,0,0:0:0:0:
400,248,80925,1,8,0:0:0:0:
400,248,81045,1,8,0:0:0:0:
400,248,81165,1,8,0:0:0:0:
400,248,81405,1,8,0:0:0:0:
440,320,81645,1,0,0:0:0:0:
384,256,81885,1,0,0:0:0:0:
384,256,82125,1,8,0:0:0:0:
384,256,82365,1,8,0:0:0:0:
352,176,82605,1,0,0:0:0:0:
384,256,82845,1,8,0:0:0:0:
368,216,82965,1,8,0:0:0:0:
368,216,83205,1,8,0:0:0:0:
368,216,83325,1,8,0:0:0:0:
408,288,83565,1,8,0:0:0:0:
408,288,83685,1,8,0:0:0:0:
408,288,83925,1,8,0:0:0:0:
408,288,84045,1,8,0:0:0:0:
424,208,84525,1,8,0:0:0:0:
416,248,84645,1,8,0:0:0:0:
416,248,84765,1,8,0:0:0:0:
416,248,84885,1,8,0:0:0:0:
416,248,85005,1,8,0:0:0:0:
416,248,85245,1,0,0:0:0:0:
368,176,85485,1,4,0:0:0:0:
272,40,85965,1,12,0:0:0:0:
192,192,86445,5,0,0:0:0:0:
272,208,86685,1,8,0:0:0:0:
392,232,87045,1,8,0:0:0:0:
432,240,87405,1,8,0:0:0:0:
432,240,87765,1,8,0:0:0:0:
344,328,88125,1,8,0:0:0:0:
400,264,88365,1,0,0:0:0:0:
320,296,88605,1,8,0:0:0:0:
440,248,88965,1,8,0:0:0:0:
320,296,89325,1,8,0:0:0:0:
440,248,89685,1,8,0:0:0:0:
320,296,90045,1,8,0:0:0:0:
368,224,90285,1,0,0:0:0:0:
296,328,90525,1,8,0:0:0:0:
368,224,90885,1,8,0:0:0:0:
256,176,91245,1,8,0:0:0:0:
144,112,91605,1,8,0:0:0:0:
256,176,91965,1,8,0:0:0:0:
336,184,92205,1,8,0:0:0:0:
376,304,92565,1,8,0:0:0:0:
360,264,92685,1,8,0:0:0:0:
360,136,93045,1,8,0:0:0:0:
360,136,93165,1,8,0:0:0:0:
416,200,93405,1,8,0:0:0:0:
488,240,93645,1,4,0:0:0:0:
328,296,94125,5,8,0:0:0:0:
248,264,94365,1,8,0:0:0:0:
328,296,94605,1,8,0:0:0:0:
288,280,94725,1,8,0:0:0:0:
408,312,95085,1,8,0:0:0:0:
312,232,95445,1,8,0:0:0:0:
408,312,95805,1,8,0:0:0:0:
432,232,96045,1,8,0:0:0:0:
408,312,96165,1,8,0:0:0:0:
408,312,96285,1,8,0:0:0:0:
432,280,96405,1,8,0:0:0:0:
352,248,96645,1,8,0:0:0:0:
480,256,97005,1,8,0:0:0:0:
352,248,97365,1,8,0:0:0:0:
480,256,97725,1,8,0:0:0:0:
400,224,97965,1,8,0:0:0:0:
336,168,98205,1,8,0:0:0:0:
400,224,98445,1,8,0:0:0:0:
368,200,98565,1,8,0:0:0:0:
440,304,98925,1,8,0:0:0:0:
376,192,99285,1,8,0:0:0:0:
440,304,99645,1,8,0:0:0:0:
376,248,99885,1,8,0:0:0:0:
472,328,100245,1,8,0:0:0:0:
440,304,100365,1,8,0:0:0:0:
344,216,100725,1,8,0:0:0:0:
376,248,100845,1,8,0:0:0:0:
456,104,101325,1,12,0:0:0:0:
288,128,101805,5,0,0:0:0:0:
208,136,102045,1,8,0:0:0:0:
336,240,102525,1,8,0:0:0:0:
336,240,103005,1,8,0:0:0:0:
336,240,103485,1,8,0:0:0:0:
320,160,103725,1,0,0:0:0:0:
336,240,103965,1,8,0:0:0:0:
320,160,104205,1,0,0:0:0:0:
336,240,104445,1,8,0:0:0:0:
392,304,104685,1,0,0:0:0:0:
448,360,104925,1,8,0:0:0:0:
328,240,105405,1,8,0:0:0:0:
376,168,105645,1,0,0:0:0:0:
424,104,105885,1,0,0:0:0:0:
376,176,106125,1,0,0:0:0:0:
400,296,106485,1,0,0:0:0:0:
400,296,106605,1,0,0:0:0:0:
400,296,106845,1,0,0:0:0:0:
400,296,106965,1,0,0:0:0:0:
400,296,107085,1,0,0:0:0:0:
280,176,107565,1,0,0:0:0:0:
280,176,107805,1,0,0:0:0:0:
200,144,108045,1,8,0:0:0:0:
280,176,108285,1,0,0:0:0:0:
320,192,108405,1,0,0:0:0:0:
360,208,108525,1,0,0:0:0:0:
408,280,108765,1,0,0:0:0:0:
408,280,108885,1,0,0:0:0:0:
408,280,109005,1,0,0:0:0:0:
408,280,109245,1,8,0:0:0:0:
440,200,109485,5,0,0:0:0:0:
480,128,109725,1,8,0:0:0:0:
392,272,110205,1,8,0:0:0:0:
480,128,110685,1,8,0:0:0:0:
392,272,111165,1,8,0:0:0:0:
456,224,111405,1,0,0:0:0:0:
392,272,111645,1,8,0:0:0:0:
456,224,111885,1,0,0:0:0:0:
392,272,112125,1,8,0:0:0:0:
456,224,112365,1,0,0:0:0:0:
392,272,112605,1,8,0:0:0:0:
416,256,113085,1,8,0:0:0:0:
368,184,113325,1,0,0:0:0:0:
312,120,113565,1,0,0:0:0:0:
368,184,113805,1,0,0:0:0:0:
384,312,114165,1,0,0:0:0:0:
384,312,114285,1,0,0:0:0:0:
384,312,114525,1,0,0:0:0:0:
384,312,114645,1,0,0:0:0:0:
384,312,114765,1,0,0:0:0:0:
400,232,115005,1,8,0:0:0:0:
368,312,115245,1,0,0:0:0:0:
408,328,115605,1,0,0:0:0:0:
408,328,115725,1,0,0:0:0:0:
384,296,115845,1,0,0:0:0:0:
352,264,115965,1,0,0:0:0:0:
432,248,116205,1,8,0:0:0:0:
352,272,116445,1,0,0:0:0:0:
360,192,116685,1,4,0:0:0:0:
208,128,117165,5,0,0:0:0:0:
208,128,117405,1,0,0:0:0:0:
256,200,117645,1,12,0:0:0:0:
376,240,118005,1,0,0:0:0:0:
376,240,118125,1,0,0:0:0:0:
376,240,118365,1,0,0:0:0:0:
376,240,118605,1,12,0:0:0:0:
384,272,119085,1,0,0:0:0:0:
384,272,119325,1,0,0:0:0:0:
384,272,119565,1,12,0:0:0:0:
448,216,119805,1,0,0:0:0:0:
416,240,119925,1,0,0:0:0:0:
392,272,120045,1,0,0:0:0:0:
456,328,120285,1,0,0:0:0:0:
392,272,120525,1,8,0:0:0:0:
456,328,120765,1,8,0:0:0:0:
408,264,121005,1,0,0:0:0:0:
360,200,121245,1,0,0:0:0:0:
360,200,121485,1,12,0:0:0:0:
360,200,121845,1,0,0:0:0:0:
360,200,121965,1,0,0:0:0:0:
360,200,122205,1,0,0:0:0:0:
296,144,122445,1,12,0:0:0:0:
376,296,122925,1,0,0:0:0:0:
376,296,123045,1,0,0:0:0:0:
376,296,123165,1,0,0:0:0:0:
376,296,123285,1,0,0:0:0:0:
376,296,123405,1,0,0:0:0:0:
456,272,123645,1,8,0:0:0:0:
376,256,123885,1,0,0:0:0:0:
376,256,124125,1,0,0:0:0:0:
376,256,124365,1,12,0:0:0:0:
448,104,124845,5,0,0:0:0:0:
424,184,125085,1,0,0:0:0:0:
416,224,125205,1,0,0:0:0:0:
408,264,125325,1,8,0:0:0:0:
328,240,125565,1,0,0:0:0:0:
408,264,125805,1,0,0:0:0:0:
408,264,126045,1,0,0:0:0:0:
408,264,126165,1,0,0:0:0:0:
408,264,126285,1,8,0:0:0:0:
408,264,126765,1,0,0:0:0:0:
408,264,127005,1,0,0:0:0:0:
384,304,127125,1,0,0:0:0:0:
408,272,127245,1,8,0:0:0:0:
448,344,127485,1,0,0:0:0:0:
408,272,127725,1,0,0:0:0:0:
328,288,127965,1,8,0:0:0:0:
368,280,128085,1,8,0:0:0:0:
368,280,128205,1,8,0:0:0:0:
368,280,128445,1,8,0:0:0:0:
408,208,128685,1,0,0:0:0:0:
408,208,128925,1,0,0:0:0:0:
408,208,129045,1,0,0:0:0:0:
408,208,129165,1,8,0:0:0:0:
368,280,129405,1,0,0:0:0:0:
400,376,129645,1,0,0:0:0:0:
400,296,129885,1,0,0:0:0:0:
408,256,130005,1,0,0:0:0:0:
408,256,130125,1,8,0:0:0:0:
400,312,130605,1,8,0:0:0:0:
400,312,130725,1,8,0:0:0:0:
400,312,130845,1,8,0:0:0:0:
400,312,130965,1,8,0:0:0:0:
400,312,131085,1,8,0:0:0:0:
480,304,131325,1,0,0:0:0:0:
400,312,131565,1,8,0:0:0:0:
432,144,132045,1,12,0:0:0:0:
272,200,132525,5,8,0:0:0:0:
312,184,132645,1,8,0:0:0:0:
312,184,132765,1,8,0:0:0:0:
240,224,133005,1,0,0:0:0:0:
200,240,133125,1,0,0:0:0:0:
200,240,133245,1,0,0:0:0:0:
200,240,133485,1,8,0:0:0:0:
200,240,133605,1,8,0:0:0:0:
200,240,133725,1,8,0:0:0:0:
200,240,133965,1,0,0:0:0:0:
200,240,134085,1,0,0:0:0:0:
200,240,134205,1,0,0:0:0:0:
272,192,134445,1,8,0:0:0:0:
304,168,134565,1,8,0:0:0:0:
304,168,134685,1,8,0:0:0:0:
304,168,134925,1,0,0:0:0:0:
304,168,135045,1,0,0:0:0:0:
304,168,135165,1,0,0:0:0:0:
368,224,135405,1,8,0:0:0:0:
424,288,135645,1,0,0:0:0:0:
368,224,135885,1,0,0:0:0:0:
424,288,136125,1,8,0:0:0:0:
376,216,136365,1,8,0:0:0:0:
352,176,136485,1,8,0:0:0:0:
352,176,136605,1,8,0:0:0:0:
352,176,136845,1,0,0:0:0:0:
352,176,136965,1,0,0:0:0:0:
352,176,137085,1,0,0:0:0:0:
352,176,137325,1,8,0:0:0:0:
352,176,137445,1,8,0:0:0:0:
352,176,137565,1,8,0:0:0:0:
352,176,137805,1,0,0:0:0:0:
352,176,137925,1,0,0:0:0:0:
352,176,138045,1,0,0:0:0:0:
296,240,138285,1,0,0:0:0:0:
296,240,138405,1,0,0:0:0:0:
296,240,138525,1,0,0:0:0:0:
296,240,138645,1,0,0:0:0:0:
296,240,138765,1,0,0:0:0:0:
376,256,139005,1,8,0:0:0:0:
368,176,139245,1,0,0:0:0:0:
376,216,139485,1,0,0:0:0:0:
296,184,139725,1,4,0:0:0:0:
376,216,140205,5,0,0:0:0:0:
376,216,140445,1,8,0:0:0:0:
296,184,140685,1,0,0:0:0:0:
352,240,140925,1,8,0:0:0:0:
384,272,141045,1,8,0:0:0:0:
384,272,141165,1,0,0:0:0:0:
400,192,141405,1,8,0:0:0:0:
384,272,141645,1,0,0:0:0:0:
368,104,142125,1,8,0:0:0:0:
376,184,142365,1,0,0:0:0:0:
376,224,142485,1,0,0:0:0:0:
384,264,142605,1,0,0:0:0:0:
408,296,142845,1,0,0:0:0:0:
432,328,142965,1,0,0:0:0:0:
408,296,143085,1,0,0:0:0:0:
352,240,143325,1,8,0:0:0:0:
312,224,143445,1,8,0:0:0:0:
352,240,143565,1,8,0:0:0:0:
352,240,143805,1,8,0:0:0:0:
280,288,144045,1,0,0:0:0:0:
352,240,144285,1,8,0:0:0:0:
320,264,144405,1,8,0:0:0:0:
320,264,144645,1,8,0:0:0:0:
320,264,144765,1,8,0:0:0:0:
400,280,145005,1,8,0:0:0:0:
400,280,145125,1,8,0:0:0:0:
400,280,145365,1,8,0:0:0:0:
400,280,145485,1,8,0:0:0:0:
400,240,145965,1,8,0:0:0:0:
360,224,146085,1,8,0:0:0:0:
320,216,146205,1,8,0:0:0:0:
320,216,146325,1,8,0:0:0:0:
320,216,146445,1,8,0:0:0:0:
400,280,146685,1,0,0:0:0:0:
320,248,146925,1,0,0:0:0:0:
400,280,147165,1,8,0:0:0:0:
320,248,147405,1,12,0:0:0:0:
