osu file format v12

[General]
AudioFilename: Gypsy Tronic.mp3
AudioLeadIn: 0
PreviewTime: 55725
Countdown: 0
SampleSet: Soft
StackLeniency: 0.7
Mode: 0
LetterboxInBreaks: 1
WidescreenStoryboard: 1

[Editor]
Bookmarks: 5805,25005,40365,55725,71085,86445,101805,117165,132525,147405
DistanceSpacing: 1.2
BeatDivisor: 4
GridSize: 8

[Metadata]
Title:Gypsy Tronic
TitleUnicode:Gypsy Tronic
Artist:M2U
ArtistUnicode:M2U
Creator:Gomo Pslvarh
Version:Hard
Source:O2Jam
Tags:ANALOG S.I.D-SOUND Lucy HAZARD jieusieu HelloSCV Ra-s lepidopodus Sonnyc
BeatmapID:266525
BeatmapSetID:100445

[Difficulty]
HPDrainRate:6
CircleSize:4
OverallDifficulty:6
ApproachRate:7
SliderMultiplier:1.6
SliderTickRate:1

[Events]
//Background and Video events
0,0,"BG.jpg",0,0
//Break Periods
2,21365,24105
//Storyboard Layer 0 (Background)
//Storyboard Layer 1 (Fail)
//Storyboard Layer 2 (Pass)
//Storyboard Layer 3 (Foreground)
//Storyboard Sound Samples
//Background Colour Transformations
3,100,163,162,255

[TimingPoints]
5805,480,4,2,0,54,1,0
55725,-100,4,2,0,54,0,1
71085,-100,4,2,0,61,0,0
101805,-200,4,2,0,61,0,0
102765,-133.333333333333,4,2,0,61,0,0
103725,-100,4,2,0,61,0,0
109485,-200,4,2,0,61,0,0
110445,-133.333333333333,4,2,0,61,0,0
111405,-100,4,2,0,61,0,0
132525,-100,4,2,0,60,0,1
147885,-100,4,2,0,59,0,0

[Colours]
Combo1 : 32,121,255
Combo2 : 11,255,121
Combo3 : 255,241,70
Combo4 : 0,151,34

[HitObjects]
40,40,5805,1,0,0:0:0:0:
16,136,6045,1,0,0:0:0:0:
96,192,6285,1,8,0:0:0:0:
192,168,6525,1,0,0:0:0:0:
192,168,6645,2,0,P|232:176|272:176,1,80
312,160,7005,1,0,0:0:0:0:
400,112,7245,2,0,P|405:151|397:191,1,80,8|0,0:0|0:0,0:0:0:0:
464,256,7725,6,0,P|456:304|432:336,1,80
344,352,8205,2,0,P|304:336|264:336,1,80,8|0,0:0|0:0,0:0:0:0:
224,344,8565,1,0,0:0:0:0:
128,368,8805,1,0,0:0:0:0:
128,368,8925,2,0,P|96:344|72:304,1,80,0|8,0:0|0:0,0:0:0:0:
40,224,9405,1,0,0:0:0:0:
56,128,9645,5,0,0:0:0:0:
40,224,9885,1,0,0:0:0:0:
128,192,10125,1,8,0:0:0:0:
216,152,10365,1,0,0:0:0:0:
216,152,10485,2,0,B|232:112|232:112|224:72,1,80
200,40,10845,1,0,0:0:0:0:
296,24,11085,2,0,B|336:24|336:24|376:32,1,80,8|0,0:0|0:0,0:0:0:0:
416,120,11565,6,0,B|432:160|432:160|424:200,1,80,2|0,0:0|0:0,0:0:0:0:
360,340,12045,2,0,B|344:300|344:300|352:264,1,80,8|0,0:0|0:0,0:0:0:0:
312,240,12405,1,0,0:0:0:0:
264,248,12525,1,0,0:0:0:0:
200,320,12765,1,0,0:0:0:0:
112,352,13005,6,0,L|112:312,1,40,2|0,0:0|0:0,0:0:0:0:
112,264,13245,2,0,L|112:224,1,40,2|0,0:0|0:0,0:0:0:0:
72,200,13485,1,4,0:0:0:0:
40,288,13725,1,0,0:0:0:0:
112,352,13965,1,8,0:0:0:0:
192,296,14205,1,0,0:0:0:0:
192,295,14325,2,0,P|228:280|268:279,1,80
360,304,14805,1,0,0:0:0:0:
360,304,14925,2,0,P|400:264|408:224,1,80,8|0,0:0|0:0,0:0:0:0:
458,87,15405,6,0,P|434:127|432:160,1,80
336,208,15885,2,0,L|296:224,1,40,10|0,0:0|0:0,0:0:0:0:
256,248,16125,2,0,L|208:232,1,40,2|0,0:0|0:0,0:0:0:0:
176,208,16365,2,0,P|136:200|104:160,1,80,2|0,0:0|0:0,0:0:0:0:
32,112,16845,2,0,P|58:84|98:76,1,80,10|0,0:0|0:0,0:0:0:0:
168,16,17325,5,0,0:0:0:0:
216,96,17565,1,0,0:0:0:0:
280,32,17805,1,8,0:0:0:0:
328,112,18045,1,0,0:0:0:0:
328,112,18165,2,0,P|368:112|408:128,1,80
432,160,18525,1,0,0:0:0:0:
384,248,18765,2,0,P|336:264|304:296,1,80,8|0,0:0|0:0,0:0:0:0:
248,352,19245,6,0,P|216:327|178:317,1,80
92,276,19725,2,0,P|88:232|104:176,1,80,8|0,0:0|0:0,0:0:0:0:
136,168,20085,2,0,L|152:128,1,40
128,40,20445,1,0,0:0:0:0:
224,32,20685,6,0,L|232:56,8,20,0|0|0|0|0|0|0|0|4,0:0|0:0|0:0|0:0|0:0|0:0|0:0|0:0|0:0,0:0:0:0:
472,336,25005,6,0,B|480:296|480:296|472:240,1,80,4|0,0:0|0:0,0:0:0:0:
400,192,25485,2,0,L|416:152,2,40,10|0|0,0:0|0:0|0:0,0:0:0:0:
368,224,25845,1,0,0:0:0:0:
320,240,25965,2,0,B|280:264|280:264|256:304,1,80
184,344,26445,2,0,L|144:328,1,40,10|0,0:0|0:0,0:0:0:0:
112,296,26685,2,0,L|88:264,1,40
72,216,26925,6,0,P|56:176|56:136,1,80,0|0,0:0|0:0,0:0:0:0:
96,56,27405,1,10,0:0:0:0:
192,72,27645,1,0,0:0:0:0:
224,160,27885,2,0,P|264:160|296:128,1,80
388,14,28365,2,0,P|348:14|320:40,1,80,10|0,0:0|0:0,0:0:0:0:
384,112,28845,6,0,P|424:136|440:176,1,80
496,240,29325,2,0,P|480:296|424:328,1,120,8|0,0:0|0:0,0:0:0:0:
384,336,29805,2,0,L|344:328,1,40
296,336,30045,2,0,L|256:344,1,40
208,336,30285,2,0,B|168:352|168:352|128:344,1,80,8|0,0:0|0:0,0:0:0:0:
96,256,30765,5,0,0:0:0:0:
56,168,31005,1,0,0:0:0:0:
120,96,31245,2,0,P|160:96|200:112,1,80,8|0,0:0|0:0,0:0:0:0:
216,152,31605,1,0,0:0:0:0:
224,200,31725,1,0,0:0:0:0:
288,272,31965,1,0,0:0:0:0:
352,192,32205,2,0,L|328:160,2,40,8|0|0,0:0|0:0|0:0,0:0:0:0:
440,232,32685,6,0,P|456:192|440:152,1,80,4|0,0:0|0:0,0:0:0:0:
416,80,33165,2,0,L|376:72,3,40,8|0|0|0,0:0|0:0|0:0|0:0,0:0:0:0:
336,48,33645,2,0,P|296:40|256:40,1,80
168,16,34125,2,0,L|128:32,1,40,8|0,0:0|0:0,0:0:0:0:
88,48,34365,2,0,L|80:88,1,40
104,128,34605,6,0,P|104:176|120:216,1,80
120,304,35085,1,8,0:0:0:0:
192,360,35325,1,0,0:0:0:0:
344,328,35565,2,0,P|424:336|488:280,1,160,0|8,0:0|0:0,0:0:0:0:
440,200,36285,1,0,0:0:0:0:
448,104,36525,5,0,0:0:0:0:
376,40,36765,1,0,0:0:0:0:
280,56,37005,1,8,0:0:0:0:
256,152,37245,1,0,0:0:0:0:
224,184,37365,1,0,0:0:0:0:
176,192,37485,1,0,0:0:0:0:
80,184,37725,1,0,0:0:0:0:
40,264,37965,2,0,B|64:304|64:304|96:320,1,80,8|0,0:0|0:0,0:0:0:0:
256,344,38445,6,0,B|232:304|232:304|200:288,1,80,2|0,0:0|0:0,0:0:0:0:
168,136,38925,2,0,L|152:96,1,40,8|0,0:0|0:0,0:0:0:0:
136,56,39165,2,0,L|152:16,1,40
192,0,39405,1,0,0:0:0:0:
280,32,39645,1,0,0:0:0:0:
376,0,39885,1,0,0:0:0:0:
408,40,40005,1,0,0:0:0:0:
392,88,40125,2,0,L|392:128,1,40
392,176,40365,6,0,B|400:216|400:216|392:256,1,80,4|0,0:0|0:0,0:0:0:0:
344,336,40845,1,8,0:0:0:0:
256,320,41085,2,0,L|248:360,2,40
152,336,41565,1,0,0:0:0:0:
56,344,41805,1,8,0:0:0:0:
32,176,42285,6,0,B|24:136|24:136|38:99,1,80
96,24,42765,1,8,0:0:0:0:
184,56,43005,2,0,L|192:16,2,40
280,48,43485,1,0,0:0:0:0:
360,0,43725,1,8,0:0:0:0:
368,96,43965,1,0,0:0:0:0:
464,80,44205,6,0,B|472:120|472:120|472:160,1,80
512,248,44685,1,8,0:0:0:0:
416,240,44925,2,0,L|424:280,2,40
336,192,45405,1,0,0:0:0:0:
240,176,45645,1,8,0:0:0:0:
224,352,46125,5,0,0:0:0:0:
224,352,46245,1,0,0:0:0:0:
224,352,46365,2,0,B|184:360|184:360|136:352,1,80,0|8,0:0|0:0,0:0:0:0:
48,360,46845,1,0,0:0:0:0:
0,280,47085,1,0,0:0:0:0:
64,208,47325,1,8,0:0:0:0:
152,256,47565,1,8,0:0:0:0:
368,344,48045,6,0,B|408:352|408:352|448:344,1,80,4|0,0:0|0:0,0:0:0:0:
504,272,48525,1,8,0:0:0:0:
472,184,48765,1,0,0:0:0:0:
472,184,48885,1,0,0:0:0:0:
472,184,49005,2,0,B|480:144|480:144|472:104,1,80
384,144,49485,1,8,0:0:0:0:
192,120,49965,6,0,B|152:112|152:112|104:120,1,80
40,184,50445,1,8,0:0:0:0:
104,256,50685,1,0,0:0:0:0:
104,256,50805,1,0,0:0:0:0:
104,256,50925,2,0,B|96:296|96:296|104:336,1,80
192,296,51405,1,8,0:0:0:0:
384,288,51885,6,0,P|344:288|304:272,2,80,0|0|8,0:0|0:0|0:0,0:0:0:0:
448,216,52605,1,0,0:0:0:0:
480,128,52845,2,0,P|400:128|360:192,1,160,0|8,0:0|0:0,0:0:0:0:
288,8,53805,5,0,0:0:0:0:
232,88,54045,1,0,0:0:0:0:
232,88,54165,1,0,0:0:0:0:
232,88,54285,1,8,0:0:0:0:
136,104,54525,1,0,0:0:0:0:
56,152,54765,2,0,P|128:200|200:176,1,160,0|8,0:0|0:0,0:0:0:0:
280,328,55725,5,12,0:0:0:0:
232,56,56205,2,0,L|192:48,1,40,8|0,0:0|0:0,0:0:0:0:
144,56,56445,2,0,L|104:64,1,40
56,56,56685,1,0,0:0:0:0:
0,136,56925,1,0,0:0:0:0:
32,224,57165,2,0,L|0:248,2,40,8|0|0,0:0|0:0|0:0,0:0:0:0:
88,160,57645,6,0,B|128:152|128:152|168:160,1,80
192,256,58125,2,0,B|256:256|256:256|304:224,1,120,8|0,0:0|0:0,0:0:0:0:
352,216,58605,2,0,B|352:256|352:256|337:293,2,80,0|0|8,0:0|0:0|0:0,0:0:0:0:
448,208,59325,1,0,0:0:0:0:
464,112,59565,5,0,0:0:0:0:
456,16,59805,1,0,0:0:0:0:
376,72,60045,2,0,B|320:56|320:56|256:64,1,120,8|0,0:0|0:0,0:0:0:0:
208,56,60525,2,0,L|168:56,1,40
128,72,60765,2,0,L|104:104,1,40
96,144,61005,2,0,P|112:192|104:240,1,80,8|0,0:0|0:0,0:0:0:0:
189,364,61485,6,0,P|173:316|176:288,1,80
226,139,61965,2,0,P|242:187|240:216,1,80,8|0,0:0|0:0,0:0:0:0:
304,288,62445,2,0,P|344:296|384:288,1,80
432,272,62805,1,8,0:0:0:0:
464,232,62925,1,8,0:0:0:0:
456,136,63165,1,8,0:0:0:0:
336,72,63405,5,4,0:0:0:0:
176,312,63885,2,0,L|136:328,1,40,8|0,0:0|0:0,0:0:0:0:
96,336,64125,2,0,L|64:312,1,40
48,272,64365,2,0,P|56:208|56:152,1,120
72,104,64845,2,0,L|112:88,3,40,8|0|8|0,0:0|0:0|0:0|0:0,0:0:0:0:
136,48,65325,6,0,B|160:40|160:40|216:48,1,80,2|0,0:0|0:0,0:0:0:0:
272,120,65805,2,0,B|336:112|336:112|384:72,1,120,8|0,0:0|0:0,0:0:0:0:
424,56,66285,2,0,B|448:96|448:96|448:144,1,80
400,265,66765,2,0,B|376:225|376:225|376:192,1,80,8|0,0:0|0:0,0:0:0:0:
280,216,67245,6,0,L|248:296,1,80,2|0,0:0|0:0,0:0:0:0:
168,256,67725,2,0,L|136:336,1,80,8|0,0:0|0:0,0:0:0:0:
96,352,68085,1,0,0:0:0:0:
48,336,68205,1,0,0:0:0:0:
24,296,68325,1,0,0:0:0:0:
32,248,68445,2,0,L|56:208,1,40
64,168,68685,2,0,L|24:96,1,80,8|0,0:0|0:0,0:0:0:0:
120,88,69165,6,0,L|200:24,1,80,2|0,0:0|0:0,0:0:0:0:
200,136,69645,2,0,L|280:72,1,80,10|0,0:0|0:0,0:0:0:0:
280,184,70125,2,0,L|360:120,1,80,2|0,0:0|0:0,0:0:0:0:
424,88,70605,1,8,0:0:0:0:
472,272,71085,6,0,B|496:304|496:304|496:344,1,80,4|0,0:0|0:0,0:0:0:0:
400,360,71565,2,0,B|368:384|368:384|328:384,1,80,8|0,0:0|0:0,0:0:0:0:
312,288,72045,2,0,B|288:256|288:256|288:216,1,80,0|0,0:0|0:0,0:0:0:0:
392,200,72525,2,0,B|424:176|424:176|464:176,1,80,8|0,0:0|0:0,0:0:0:0:
392,280,73005,5,0,0:0:0:0:
320,216,73245,1,0,0:0:0:0:
256,280,73485,1,8,0:0:0:0:
192,216,73725,1,0,0:0:0:0:
256,280,73965,2,0,L|272:360,1,80
192,216,74445,2,0,L|176:136,1,80,8|0,0:0|0:0,0:0:0:0:
40,112,74925,6,0,B|16:80|16:80|16:40,1,80
112,24,75405,2,0,B|144:0|144:0|184:0,1,80,8|0,0:0|0:0,0:0:0:0:
200,96,75885,2,0,B|224:128|224:128|224:168,1,80,0|0,0:0|0:0,0:0:0:0:
120,184,76365,2,0,B|88:208|88:208|48:208,1,80,8|0,0:0|0:0,0:0:0:0:
120,104,76845,5,0,0:0:0:0:
192,168,77085,1,0,0:0:0:0:
256,104,77325,1,8,0:0:0:0:
320,168,77565,1,0,0:0:0:0:
320,168,77805,2,0,P|328:208|320:248,1,80
312,344,78285,2,2,L|352:360,2,40
224,360,78765,6,0,B|168:376|168:376|64:360,1,160,0|8,0:0|0:0,0:0:0:0:
80,264,79485,1,0,0:0:0:0:
80,264,79605,1,0,0:0:0:0:
80,264,79725,2,0,B|56:224|56:224|56:184,1,80
0,112,80205,2,0,B|32:88|32:88|72:88,1,80,8|0,0:0|0:0,0:0:0:0:
160,56,80685,5,0,0:0:0:0:
160,56,80925,2,0,L|176:96,2,40,0|0|8,0:0|0:0|0:0,0:0:0:0:
256,32,81405,2,0,L|256:72,2,40
352,56,81885,2,0,L|336:96,2,40,0|0|8,0:0|0:0|0:0,0:0:0:0:
416,128,82365,1,0,0:0:0:0:
344,192,82605,6,0,P|344:232|368:264,1,80,2|0,0:0|0:0,0:0:0:0:
392,312,82965,2,0,P|344:320|312:352,1,80,2|0,0:0|0:0,0:0:0:0:
272,320,83325,1,0,0:0:0:0:
184,352,83565,2,0,L|136:344,3,40
96,344,84045,2,0,P|80:304|80:240,1,80,8|0,0:0|0:0,0:0:0:0:
16,192,84525,6,0,L|56:120,1,80
136,176,85005,2,0,L|176:104,1,80,8|0,0:0|0:0,0:0:0:0:
256,160,85485,2,0,L|296:88,1,80
376,144,85965,1,8,0:0:0:0:
264,304,86445,6,0,B|296:328|296:328|336:328,1,80,2|0,0:0|0:0,0:0:0:0:
384,328,86805,1,0,0:0:0:0:
424,304,86926,2,0,B|456:288|456:288|504:288,1,80,0|0,0:0|0:0,0:0:0:0:
456,200,87405,2,0,P|464:160|456:120,1,80,2|0,0:0|0:0,0:0:0:0:
296,88,87885,2,0,P|288:128|296:168,1,80,8|0,0:0|0:0,0:0:0:0:
376,224,88365,6,0,L|376:64,1,160,0|8,0:0|0:0,0:0:0:0:
304,0,89085,1,0,0:0:0:0:
216,40,89325,2,0,L|184:16,2,40
192,136,89805,2,0,L|152:120,2,40,8|0|0,0:0|0:0|0:0,0:0:0:0:
160,224,90285,6,0,P|112:208|72:224,1,80
72,368,90765,2,0,P|120:384|160:368,1,80,8|0,0:0|0:0,0:0:0:0:
112,296,91245,2,0,L|272:320,1,160,0|8,0:0|0:0,0:0:0:0:
328,240,91965,1,0,0:0:0:0:
368,328,92205,2,0,P|408:344|448:344,1,80
504,272,92685,2,0,P|464:256|424:248,1,80,8|0,0:0|0:0,0:0:0:0:
424,152,93165,2,2,L|384:80,1,80
296,40,93645,2,0,L|280:80,1,40,8|0,0:0|0:0,0:0:0:0:
256,120,93885,2,8,L|240:80,1,40
216,40,94125,6,2,P|136:56|80:120,1,160
136,192,94845,1,2,0:0:0:0:
80,272,95085,2,2,P|112:304|120:344,1,80
160,360,95445,1,2,0:0:0:0:
208,352,95566,2,2,P|244:336|283:341,1,80
360,288,96045,6,0,P|440:256|472:184,1,160,0|8,0:0|0:0,0:0:0:0:
456,96,96765,1,0,0:0:0:0:
368,48,97005,2,0,P|288:80|256:152,1,160,0|8,0:0|0:0,0:0:0:0:
256,240,97725,1,0,0:0:0:0:
255,142,97965,6,0,P|217:74|144:48,1,160,0|8,0:0|0:0,0:0:0:0:
56,96,98685,1,0,0:0:0:0:
24,185,98925,2,0,P|62:253|136:280,1,160,0|8,0:0|0:0,0:0:0:0:
224,328,99645,1,0,0:0:0:0:
256,192,99885,12,0,101325,0:0:0:0:
64,152,101805,6,0,B|48:192|48:192|64:232,1,80,2|8,0:0|0:0,0:0:0:0:
160,128,102765,6,0,B|144:192|144:192|160:248,1,120.000004577637,2|8,0:0|0:0,0:0:0:0:
256,112,103725,6,0,B|240:192|240:192|256:272,1,160,2|8,0:0|0:0,0:0:0:0:
344,96,104685,5,0,0:0:0:0:
328,192,104925,1,8,0:0:0:0:
344,288,105165,1,8,0:0:0:0:
416,224,105405,2,0,L|456:208,1,40
472,168,105645,6,0,B|480:128|480:128|464:72,1,80,2|0,0:0|0:0,0:0:0:0:
400,24,106125,2,0,B|360:8|360:8|312:8,1,80,8|0,0:0|0:0,0:0:0:0:
288,40,106485,1,0,0:0:0:0:
256,72,106605,2,0,B|216:88|216:88|168:88,1,80
16,112,107085,2,0,B|52:112|52:112|92:128,1,80,8|0,0:0|0:0,0:0:0:0:
168,192,107565,6,0,L|128:264,1,80
192,336,108045,2,0,L|232:264,1,80,8|0,0:0|0:0,0:0:0:0:
328,248,108525,2,0,L|368:264,1,40
408,280,108765,1,0,0:0:0:0:
480,176,109005,2,0,L|496:216,2,40,0|0|8,0:0|0:0|0:0,0:0:0:0:
456,48,109485,6,0,L|376:48,1,80,2|8,0:0|0:0,0:0:0:0:
456,136,110445,6,0,L|336:136,1,120.000004577637,2|8,0:0|0:0,0:0:0:0:
456,224,111405,6,0,L|296:224,1,160,2|8,0:0|0:0,0:0:0:0:
288,48,112365,5,0,0:0:0:0:
248,136,112605,1,8,0:0:0:0:
208,224,112845,1,8,0:0:0:0:
112,224,113085,2,0,L|72:240,1,40
32,264,113325,6,0,B|16:304|16:304|16:344,1,80,2|0,0:0|0:0,0:0:0:0:
112,360,113805,2,0,B|152:376|152:376|192:376,1,80,8|0,0:0|0:0,0:0:0:0:
256,304,114285,1,0,0:0:0:0:
400,360,114525,2,0,B|360:376|360:376|323:376,1,80,0|8,0:0|0:0,0:0:0:0:
280,352,114885,1,0,0:0:0:0:
256,304,115005,1,0,0:0:0:0:
160,232,115245,6,2,B|160:208|192:176|256:152|320:176|352:208|352:232,1,240,0|0,0:0|0:0,0:0:0:0:
256,224,116205,2,0,L|256:144,1,80,0|8,0:0|0:0,0:0:0:0:
256,48,116685,2,0,L|256:8,2,40,8|0|0,0:0|0:0|0:0,0:0:0:0:
168,96,117165,6,0,B|128:88|128:88|88:96,1,80,4|0,0:0|0:0,0:0:0:0:
24,160,117645,1,8,0:0:0:0:
88,232,117885,2,0,L|128:216,2,40
64,328,118365,1,0,0:0:0:0:
152,368,118605,1,8,0:0:0:0:
344,344,119085,6,0,B|384:336|384:336|416:312,1,80
504,280,119565,1,8,0:0:0:0:
464,192,119805,2,0,L|504:176,2,40
472,96,120285,1,0,0:0:0:0:
432,8,120525,1,8,0:0:0:0:
376,88,120765,1,0,0:0:0:0:
288,56,121005,6,0,B|280:96|280:96|288:134,1,80
248,224,121485,1,8,0:0:0:0:
304,304,121725,2,0,L|344:288,2,40
224,360,122205,1,0,0:0:0:0:
128,336,122445,1,8,0:0:0:0:
48,160,122925,5,0,0:0:0:0:
48,160,123045,1,0,0:0:0:0:
48,160,123165,2,0,B|40:120|40:120|48:80,1,80,0|8,0:0|0:0,0:0:0:0:
104,0,123645,1,0,0:0:0:0:
200,24,123885,1,0,0:0:0:0:
224,120,124125,1,0,0:0:0:0:
144,184,124365,1,8,0:0:0:0:
288,56,124845,6,0,B|328:48|328:48|368:48,1,80,4|0,0:0|0:0,0:0:0:0:
456,16,125325,1,8,0:0:0:0:
440,112,125565,1,0,0:0:0:0:
440,112,125685,1,0,0:0:0:0:
440,112,125805,2,0,B|448:152|448:152|440:192,1,80
376,256,126285,1,8,0:0:0:0:
208,352,126765,6,0,B|168:360|168:360|128:352,1,80
40,328,127245,1,8,0:0:0:0:
104,256,127485,1,0,0:0:0:0:
104,256,127605,1,0,0:0:0:0:
104,256,127725,2,0,B|112:216|112:216|104:176,1,80
104,80,128205,1,8,0:0:0:0:
288,32,128685,6,0,P|328:32|368:48,2,80,0|0|8,0:0|0:0|0:0,0:0:0:0:
304,120,129405,1,0,0:0:0:0:
344,208,129645,2,0,P|264:200|208:136,1,160,0|8,0:0|0:0,0:0:0:0:
136,312,130605,5,0,0:0:0:0:
104,224,130845,1,0,0:0:0:0:
104,224,130965,1,0,0:0:0:0:
104,224,131085,1,8,0:0:0:0:
160,144,131325,1,0,0:0:0:0:
96,72,131565,2,0,P|168:48|240:88,1,160,0|8,0:0|0:0,0:0:0:0:
376,272,132525,5,4,0:0:0:0:
288,304,132765,1,0,0:0:0:0:
200,336,133005,1,8,0:0:0:0:
112,368,133245,1,0,0:0:0:0:
24,336,133485,2,0,L|40:256,1,80
143,137,133965,2,0,L|128:216,1,80,8|0,0:0|0:0,0:0:0:0:
224,240,134445,6,0,B|264:216|264:216|376:200,1,160,0|8,0:0|0:0,0:0:0:0:
416,112,135165,1,0,0:0:0:0:
368,24,135405,2,0,B|328:48|328:48|216:64,1,160,0|8,0:0|0:0,0:0:0:0:
120,40,136125,1,0,0:0:0:0:
48,104,136365,6,0,L|48:184,1,80,2|0,0:0|0:0,0:0:0:0:
136,232,136845,2,0,L|136:152,1,80,8|0,0:0|0:0,0:0:0:0:
224,192,137325,2,0,L|224:272,1,80
312,320,137805,2,0,L|312:240,1,80,8|0,0:0|0:0,0:0:0:0:
408,224,138285,5,0,0:0:0:0:
488,168,138525,2,0,P|496:128|488:80,1,80,0|8,0:0|0:0,0:0:0:0:
440,8,139005,1,0,0:0:0:0:
352,40,139245,2,0,L|272:72,1,80
184,64,139725,1,8,0:0:0:0:
192,320,140205,6,0,P|152:328|112:328,1,80,4|0,0:0|0:0,0:0:0:0:
32,280,140685,1,8,0:0:0:0:
88,200,140925,1,0,0:0:0:0:
88,200,141045,1,0,0:0:0:0:
88,200,141165,2,0,P|128:192|168:192,1,80
216,104,141645,1,8,0:0:0:0:
296,48,141885,6,0,L|336:32,2,40
352,120,142365,2,0,L|392:104,2,40,0|0|8,0:0|0:0|0:0,0:0:0:0:
408,192,142845,2,0,L|448:176,2,40,0|0|0,0:0|0:0|0:0,0:0:0:0:
312,208,143325,1,0,0:0:0:0:
256,288,143565,2,0,L|256:368,1,80,8|0,0:0|0:0,0:0:0:0:
88,272,144045,6,0,P|80:232|88:192,1,80,0|2,0:0|0:0,0:0:0:0:
72,144,144405,2,0,P|96:112|136:96,1,80,0|2,0:0|0:0,0:0:0:0:
144,48,144765,2,0,P|184:48|224:64,1,80,0|2,0:0|0:0,0:0:0:0:
264,48,145125,2,0,P|296:72|312:112,1,80,0|2,0:0|0:0,0:0:0:0:
336,144,145485,1,8,0:0:0:0:
424,176,145725,1,0,0:0:0:0:
425,85,145965,6,0,L|440:48,2,40
448,176,146445,2,0,L|416:256,1,80,8|0,0:0|0:0,0:0:0:0:
464,336,146925,1,8,0:0:0:0:
368,360,147165,1,8,0:0:0:0:
288,304,147405,5,4,0:0:0:0:
