osu file format v12

[General]
AudioFilename: Gypsy Tronic.mp3
AudioLeadIn: 0
PreviewTime: 55725
Countdown: 0
SampleSet: Soft
StackLeniency: 0.7
Mode: 0
LetterboxInBreaks: 1
WidescreenStoryboard: 1

[Editor]
Bookmarks: 5805,25005,40365,55725,71085,86445,101805,117165,132525,147405
DistanceSpacing: 1
BeatDivisor: 4
GridSize: 8

[Metadata]
Title:Gypsy Tronic
TitleUnicode:Gypsy Tronic
Artist:M2U
ArtistUnicode:M2U
Creator:Gomo Pslvarh
Version:Easy
Source:O2Jam
Tags:ANALOG S.I.D-SOUND Lucy HAZARD jieusieu HelloSCV Ra-s lepidopodus Sonnyc
BeatmapID:266524
BeatmapSetID:100445

[Difficulty]
HPDrainRate:2
CircleSize:3
OverallDifficulty:2
ApproachRate:3
SliderMultiplier:1
SliderTickRate:2

[Events]
//Background and Video events
0,0,"bg.jpg",0,0
//Break Periods
2,86645,92685
//Storyboard Layer 0 (Background)
//Storyboard Layer 1 (Fail)
//Storyboard Layer 2 (Pass)
//Storyboard Layer 3 (Foreground)
//Storyboard Sound Samples
//Background Colour Transformations
3,100,163,162,255

[TimingPoints]
5805,480,4,2,0,54,1,0
55725,-100,4,2,0,54,0,1
71085,-100,4,2,0,61,0,0
132525,-100,4,2,0,60,0,1
147885,-100,4,2,0,59,0,0

[Colours]
Combo1 : 32,121,255
Combo2 : 11,255,121
Combo3 : 255,241,70
Combo4 : 0,151,34

[HitObjects]
168,104,5805,2,0,P|128:192|160:288,1,200,4|0,0:0|0:0,0:0:0:0:
353,286,7725,2,0,P|384:192|344:104,1,200
120,32,9645,6,0,B|120:104|184:104|184:104|232:72|280:104,1,200
243,286,11565,2,0,B|280:312|328:280|328:280|392:280|392:352,1,200
384,128,13485,6,0,B|328:128|328:128|248:80|248:80|192:80,1,200,4|0,0:0|0:0,0:0:0:0:
96,80,14925,1,8,0:0:0:0:
64,176,15405,6,0,B|120:176|120:176|200:224|200:224|256:224,1,200
344,272,16845,1,8,0:0:0:0:
384,184,17325,6,0,B|400:120|400:120|352:64|264:80,1,200
128,200,19245,2,0,B|112:264|112:264|160:320|248:304,1,200
328,328,20685,1,8,0:0:0:0:
352,232,21165,6,0,B|384:184|352:136|352:136|384:88|352:40,1,200
160,80,23085,2,0,P|112:62|64:78,2,100,0|8|0,0:0|0:0|0:0,0:0:0:0:
112,168,24525,1,8,0:0:0:0:
72,256,25005,6,0,P|120:336|216:328,1,200,4|0,0:0|0:0,0:0:0:0:
304,368,26445,1,8,0:0:0:0:
392,328,26925,2,0,P|432:256|432:136,1,200
408,48,28365,1,8,0:0:0:0:
320,88,28845,6,0,B|264:112|224:88|176:56|120:88,1,200
192,296,30765,2,0,B|248:272|288:296|336:328|386:298,1,200
344,200,32205,1,8,0:0:0:0:
360,104,32685,5,2,0:0:0:0:
272,56,33165,1,8,0:0:0:0:
208,128,33645,1,0,0:0:0:0:
248,216,34125,1,8,0:0:0:0:
208,304,34605,6,0,P|160:280|128:224,1,100,0|8,0:0|0:0,0:0:0:0:
40,208,35565,2,0,P|66:170|114:146,1,100,0|8,0:0|0:0,0:0:0:0:
160,56,36525,6,0,B|216:32|256:56|256:56|296:32|352:56,1,200
352,256,38445,2,0,B|296:280|256:256|256:256|216:280|160:256,1,200
64,288,39885,1,8,0:0:0:0:
40,192,40365,6,0,P|56:144|96:112,1,100,4|8,0:0|0:0,0:0:0:0:
160,40,41325,1,0,0:0:0:0:
256,64,41805,1,8,0:0:0:0:
352,40,42285,6,0,B|416:56|416:112|416:112|368:168|440:240,1,200
448,288,43725,1,8,0:0:0:0:
360,336,44205,6,0,P|312:360|256:360,1,100,0|8,0:0|0:0,0:0:0:0:
192,296,45165,2,0,P|144:320|88:320,1,100,0|8,0:0|0:0,0:0:0:0:
256,192,46125,12,4,48045,0:0:0:0:
168,252,49005,5,0,0:0:0:0:
344,252,49965,2,0,B|344:208|344:208|392:112|392:112|392:64,1,200
120,64,51885,6,0,B|120:112|120:112|168:208|168:208|168:252,1,200
256,304,53325,1,8,0:0:0:0:
344,368,53805,6,0,P|360:320|360:272,1,100,0|8,0:0|0:0,0:0:0:0:
446,321,54765,2,0,P|462:273|462:217,1,100,0|8,0:0|0:0,0:0:0:0:
456,125,55725,6,0,B|456:56|456:56|376:24|330:51,1,200,4|0,0:0|0:0,0:0:0:0:
256,128,57165,1,8,0:0:0:0:
181,59,57645,2,0,B|136:32|56:64|56:64|56:136,1,200
136,192,59085,1,8,0:0:0:0:
128,288,59565,6,0,B|176:328|216:288|216:288|256:328|312:288,1,200,2|0,0:0|0:0,0:0:0:0:
344,192,61005,1,8,0:0:0:0:
384,96,61485,2,0,B|336:56|296:96|296:96|256:56|200:96,1,200,0|0,0:0|0:0,0:0:0:0:
256,184,62925,1,8,0:0:0:0:
344,232,63405,6,0,P|408:312|328:360,1,200,4|0,0:0|0:0,0:0:0:0:
256,320,64845,1,8,0:0:0:0:
162,361,65325,2,0,P|102:294|167:231,1,200,0|0,0:0|0:0,0:0:0:0:
176,128,66765,1,8,0:0:0:0:
112,48,67245,6,0,P|256:16|400:56,1,300,2|8,0:0|0:0,0:0:0:0:
472,128,69165,1,0,0:0:0:0:
480,224,69645,1,8,0:0:0:0:
440,312,70125,1,0,0:0:0:0:
352,360,70605,1,8,0:0:0:0:
256,352,71085,6,0,L|224:248,1,100,4|8,0:0|0:0,0:0:0:0:
152,320,72045,2,0,L|120:216,1,100,0|8,0:0|0:0,0:0:0:0:
48,296,73005,2,0,L|16:192,1,100,0|8,0:0|0:0,0:0:0:0:
56,104,73965,2,0,L|42:55,2,50,0|0|8,0:0|0:0|0:0,0:0:0:0:
144,64,74925,6,0,L|176:168,1,100,4|8,0:0|0:0,0:0:0:0:
240,80,75885,2,0,L|272:184,1,100,0|8,0:0|0:0,0:0:0:0:
336,96,76845,2,0,L|368:200,1,100,0|8,0:0|0:0,0:0:0:0:
464,192,77805,2,0,L|488:136,2,50,0|0|8,0:0|0:0|0:0,0:0:0:0:
440,288,78765,6,0,P|376:352|272:344,1,200,2|0,0:0|0:0,0:0:0:0:
208,264,80205,1,8,0:0:0:0:
144,344,80685,2,0,B|72:320|72:320|48:256|104:208,1,200
104,112,82125,2,0,L|136:72,1,50,8|0,0:0|0:0,0:0:0:0:
176,40,82605,6,0,B|240:80|240:152|240:152|296:40|296:40|328:136|376:152,1,400,2|0,0:0|0:0,0:0:0:0:
464,192,85005,1,8,0:0:0:0:
384,256,85485,2,0,L|368:304,2,50,0|0|8,0:0|0:0|0:0,0:0:0:0:
288,232,86445,1,4,0:0:0:0:
64,128,94125,6,0,B|104:88|104:88|152:176|240:128,1,200,4|0,0:0|0:0,0:0:0:0:
304,80,95565,1,8,0:0:0:0:
400,64,96045,2,0,P|440:104|456:168,1,100,0|8,0:0|0:0,0:0:0:0:
400,224,97005,2,0,P|414:264|454:304,1,100,0|8,0:0|0:0,0:0:0:0:
360,344,97965,5,0,0:0:0:0:
272,296,98445,1,8,0:0:0:0:
184,336,98925,1,0,0:0:0:0:
96,288,99405,1,8,0:0:0:0:
48,200,99885,2,2,P|48:64|184:64,1,300,0|8,0:0|0:0,0:0:0:0:
128,144,101805,6,0,P|208:192|312:168,1,200,4|0,0:0|0:0,0:0:0:0:
336,72,103245,1,8,0:0:0:0:
408,144,103725,2,0,B|424:224|376:256|376:256|392:336,1,200
296,360,105165,1,8,0:0:0:0:
200,336,105645,6,0,B|136:360|136:360|64:320|80:232,1,200
168,72,107565,2,0,B|232:48|232:48|304:88|288:176,1,200,0|4,0:0|0:0,0:0:0:0:
384,192,109005,1,8,0:0:0:0:
368,288,109485,6,0,B|320:256|280:304|280:304|240:264|192:304,1,200,0|2,0:0|0:0,0:0:0:0:
144,96,111405,2,0,B|192:128|232:80|232:80|272:120|320:80,2,200
56,144,113805,5,8,0:0:0:0:
56,240,114285,1,0,0:0:0:0:
120,312,114765,1,8,0:0:0:0:
256,192,115245,12,4,116685,0:0:0:0:
416,264,117165,6,0,P|440:224|440:152,1,100,4|8,0:0|0:0,0:0:0:0:
400,80,118125,2,0,P|360:48|312:40,1,100,0|8,0:0|0:0,0:0:0:0:
320,136,119085,1,0,0:0:0:0:
224,128,119565,1,8,0:0:0:0:
168,48,120045,2,0,P|120:56|80:88,1,100,0|8,0:0|0:0,0:0:0:0:
80,192,121005,6,0,B|56:248|80:288|80:288|136:272|176:312,1,200
264,352,122445,2,0,B|288:352|288:352|320:352|360:320,2,100,8|0|8,0:0|0:0|0:0,0:0:0:0:
248,256,123885,1,0,0:0:0:0:
280,160,124365,1,0,0:0:0:0:
376,192,124845,6,0,P|400:144|384:96,1,100,4|8,0:0|0:0,0:0:0:0:
312,40,125805,2,0,B|280:40|280:40|232:64|232:64|200:64,1,100,0|8,0:0|0:0,0:0:0:0:
120,48,126765,2,0,B|120:80|120:80|144:128|144:128|144:160,1,100,0|8,0:0|0:0,0:0:0:0:
64,200,127725,2,0,B|78:229|78:261|78:261|110:277,1,100,0|8,0:0|0:0,0:0:0:0:
192,224,128685,6,0,B|224:240|224:240|224:272|240:304,1,100,4|8,0:0|0:0,0:0:0:0:
320,360,129645,2,0,B|368:360|368:360|424:344,1,100,0|8,0:0|0:0,0:0:0:0:
464,256,130605,2,0,B|488:216|488:216|480:160,1,100,0|8,0:0|0:0,0:0:0:0:
408,104,131565,2,0,L|408:48,2,50,0|0|8,0:0|0:0|0:0,0:0:0:0:
312,144,132525,6,0,P|240:88|128:96,1,200,4|0,0:0|0:0,0:0:0:0:
104,192,133965,1,8,0:0:0:0:
112,288,134445,2,0,B|144:288|144:288|184:288|216:320,1,100,0|8,0:0|0:0,0:0:0:0:
304,312,135405,2,0,B|326:288|366:288|366:288|398:288,1,100,0|8,0:0|0:0,0:0:0:0:
400,192,136365,6,0,B|368:192|368:192|328:192|296:160,1,100,0|8,0:0|0:0,0:0:0:0:
208,168,137325,2,0,B|185:191|145:191|145:191|113:191,1,100,2|8,0:0|0:0,0:0:0:0:
16,168,138285,5,0,0:0:0:0:
16,72,138765,1,8,0:0:0:0:
104,24,139245,1,0,0:0:0:0:
200,40,139725,1,8,0:0:0:0:
248,128,140205,6,0,B|280:112|288:48|288:48|336:144|336:144|344:88|384:56,1,300,4|8,0:0|0:0,0:0:0:0:
464,112,142125,2,0,P|472:168|464:224,1,100,0|8,0:0|0:0,0:0:0:0:
472,312,143085,2,0,P|424:328|384:360,1,100,0|8,0:0|0:0,0:0:0:0:
288,336,144045,6,0,B|224:360|224:360|168:344|152:248,1,200,2|0,0:0|0:0,0:0:0:0:
224,184,145485,1,8,0:0:0:0:
312,128,145965,6,0,B|297:40|241:25|241:25|177:48,1,200,0|8,0:0|0:0,0:0:0:0:
128,64,147165,2,0,L|64:64,1,50,8|4,0:0|0:0,0:0:0:0:
