osu file format v12

[General]
AudioFilename: Gypsy Tronic.mp3
AudioLeadIn: 0
PreviewTime: 55725
Countdown: 0
SampleSet: Soft
StackLeniency: 0.7
Mode: 0
LetterboxInBreaks: 1
WidescreenStoryboard: 1

[Editor]
Bookmarks: 5805,25005,40365,55725,71085,86445,96645,101805,117165,132525,147405
DistanceSpacing: 1
BeatDivisor: 8
GridSize: 4

[Metadata]
Title:Gypsy Tronic
TitleUnicode:Gypsy Tronic
Artist:M2U
ArtistUnicode:M2U
Creator:Gomo Pslvarh
Version:Collab Insane
Source:O2Jam
Tags:ANALOG S.I.D-SOUND Lucy HAZARD jieusieu HelloSCV Ra-s lepidopodus Sonnyc
BeatmapID:278262
BeatmapSetID:100445

[Difficulty]
HPDrainRate:7
CircleSize:4
OverallDifficulty:8
ApproachRate:9
SliderMultiplier:2
SliderTickRate:4

[Events]
//Background and Video events
0,0,"bg.jpg",0,0
//Break Periods
//Storyboard Layer 0 (Background)
//Storyboard Layer 1 (Fail)
//Storyboard Layer 2 (Pass)
//Storyboard Layer 3 (Foreground)
Sprite,Foreground,Centre,"SB\jieusieu.png",320,240 M,0,5805,,471,390 F,0,5805,,1 F,0,5805,24765,1,0.9588541 F,0,24765,25005,0.9588541,0
Sprite,Foreground,Centre,"SB\jieusieu.png",320,240 M,0,5805,,471,390 F,0,5805,,1 F,0,5805,6045,1,0 S,0,5805,6045,1.189935,1
Sprite,Foreground,Centre,"SB\helloscv.png",320,240 M,0,25005,,471,390 F,0,25005,,1 F,0,25005,40125,1,0.9835937 F,0,40125,40365,0.9835937,0
Sprite,Foreground,Centre,"SB\helloscv.png",320,240 M,0,25005,,471,390 F,0,25005,,1 F,0,25005,25245,1,0 S,0,25005,25245,1.165161,1
Sprite,Foreground,Centre,"SB\ra-s.png",320,240 M,0,40365,,471,390 F,0,40365,,1 F,0,40365,55485,1,0.9671874 F,0,55485,55725,0.9671874,0
Sprite,Foreground,Centre,"SB\ra-s.png",320,240 M,0,40365,,471,390 F,0,40365,40605,1,0 S,0,40365,40605,1.17342,1
Sprite,Foreground,Centre,"SB\jieusieu.png",320,240 M,0,55725,,471,390 F,0,55725,,1 F,0,55725,70845,1,0.9671874 F,0,70845,,0.9671874 F,0,70845,71085,0.9671874,0
Sprite,Foreground,Centre,"SB\jieusieu.png",320,240 M,0,55725,,471,390 F,0,55725,,1 F,0,55725,55965,1,0 S,0,55725,55965,1.189935,1
Sprite,Foreground,Centre,"SB\helloscv.png",320,240 M,0,71085,,471,390 F,0,71085,,1 F,0,71085,86205,1,0.9835937 F,0,86205,86445,0.9835937,0
Sprite,Foreground,Centre,"SB\helloscv.png",320,240 M,0,71085,,471,390 F,0,71085,,1 F,0,71085,71325,1,0 S,0,71085,71325,1.165161,1
Sprite,Foreground,Centre,"SB\ra-s.png",320,240 M,0,86445,,471,390 F,0,86445,,1 F,0,86445,101565,1,0.9671874 F,0,101565,101805,0.9671874,0
Sprite,Foreground,Centre,"SB\ra-s.png",320,240 M,0,86445,,471,390 F,0,86445,86685,1,0 S,0,86445,86685,1.17342,1
Sprite,Foreground,Centre,"SB\jieusieu.png",320,240 M,0,101805,,471,390 F,0,101805,,1 F,0,101805,116925,1,0.9671874 F,0,116925,117165,0.9671874,0
Sprite,Foreground,Centre,"SB\jieusieu.png",320,240 M,0,101805,,471,390 F,0,101805,,1 F,0,101805,102045,1,0 S,0,101805,102045,1.189935,1
Sprite,Foreground,Centre,"SB\helloscv.png",320,240 M,0,117165,,471,390 F,0,117165,,1 F,0,117165,132285,1,0.9835937 F,0,132285,132525,0.9835937,0
Sprite,Foreground,Centre,"SB\helloscv.png",320,240 M,0,117165,,471,390 F,0,117165,,1 F,0,117165,117405,1,0 S,0,117165,117405,1.165161,1
Sprite,Foreground,Centre,"SB\ra-s.png",320,240 M,0,132525,,471,390 F,0,132525,,1 F,0,132525,147405,1,0.9677082 F,0,147405,147645,0.9677082,0
Sprite,Foreground,Centre,"SB\ra-s.png",320,240 M,0,132525,,471,390 F,0,132525,132765,1,0 S,0,132525,132765,1.17342,1
//Storyboard Sound Samples
//Background Colour Transformations
3,100,163,162,255

[TimingPoints]
5805,480,4,2,1,59,1,0
13005,-76.9230769230769,4,2,1,59,0,0
13485,-100,4,2,1,59,0,0
15885,-76.9230769230769,4,2,1,59,0,0
16365,-100,4,2,1,59,0,0
19725,-76.9230769230769,4,2,1,59,0,0
20205,-76.9230769230769,4,2,1,59,0,0
20685,-100,4,2,1,59,0,0
24045,-66.6666666666667,4,2,1,65,0,0
47565,-55.5555555555556,4,2,1,65,0,0
48045,-100,4,2,1,65,0,0
50925,-66.6666666666667,4,2,1,65,0,0
51885,-100,4,2,1,65,0,0
53685,-66.6666666666667,4,2,1,65,0,0
54285,-55.5555555555556,4,2,1,65,0,0
54645,-66.6666666666667,4,2,1,65,0,0
55725,-66.6666666666667,4,2,1,75,0,1
55965,-66.6666666666667,4,2,1,75,0,0
59565,-55.5555555555556,4,3,1,75,0,0
59685,-55.5555555555556,4,2,1,75,0,0
59805,-55.5555555555556,4,3,1,75,0,0
59925,-55.5555555555556,4,2,1,75,0,0
60045,-66.6666666666667,4,3,1,75,0,0
60285,-66.6666666666667,4,2,1,75,0,0
67245,-55.5555555555556,4,3,1,75,0,0
67365,-55.5555555555556,4,2,1,75,0,0
67485,-55.5555555555556,4,3,1,75,0,0
67605,-55.5555555555556,4,2,1,75,0,0
67725,-66.6666666666667,4,3,1,75,0,0
67965,-66.6666666666667,4,2,1,75,0,0
71085,-100,4,2,1,50,0,0
86445,-66.6666666666667,4,2,1,50,0,0
101325,-53.475935828877,4,2,1,50,0,0
105645,-55.5555555555556,4,3,1,75,0,0
105765,-55.5555555555556,4,2,1,75,0,0
105885,-55.5555555555556,4,3,1,75,0,0
106005,-55.5555555555556,4,2,1,75,0,0
106125,-66.6666666666667,4,3,1,75,0,0
106365,-66.6666666666667,4,2,1,75,0,0
109485,-66.6666666666667,4,2,1,50,0,0
113325,-55.5555555555556,4,3,1,75,0,0
113445,-55.5555555555556,4,2,1,75,0,0
113565,-55.5555555555556,4,3,1,75,0,0
113685,-55.5555555555556,4,2,1,75,0,0
113805,-66.6666666666667,4,3,1,75,0,0
114045,-66.6666666666667,4,2,1,75,0,0
132525,-66.6666666666667,4,2,1,65,0,1
132765,-66.6666666666667,4,2,1,65,0,0
140685,-55.5555555555556,4,2,1,65,0,0
147405,-55.5555555555556,4,2,1,64,0,1
147645,-55.5555555555556,4,2,1,64,0,0

[Colours]
Combo1 : 32,121,255
Combo2 : 11,255,121
Combo3 : 255,241,70
Combo4 : 0,151,34

[HitObjects]
114,312,5805,6,0,L|164:320,1,50,0|0,0:0|0:0,0:0:0:0:
176,328,6045,2,0,L|164:224,1,100,0|8,0:0|0:0,0:0:0:0:
264,144,6525,1,0,0:0:0:0:
316,208,6645,2,0,P|314:239|296:272,1,50,0|0,0:0|0:0,0:0:0:0:
296,272,6885,2,0,P|340:244|388:260,1,100,0|0,0:0|0:0,0:0:0:0:
432,320,7245,1,8,0:0:0:0:
440,304,7485,6,0,L|432:200,1,100,0|0,0:0|0:0,0:0:0:0:
484,148,7845,1,0,0:0:0:0:
492,164,7965,2,0,L|484:268,1,100,0|8,0:0|0:0,0:0:0:0:
476,136,8445,1,0,0:0:0:0:
400,160,8565,2,0,P|364:152|344:132,1,50,0|0,0:0|0:0,0:0:0:0:
344,132,8805,2,0,P|360:184|340:248,1,100,0|0,0:0|0:0,0:0:0:0:
284,320,9165,1,8,0:0:0:0:
275,335,9285,2,0,P|259:283|268:240,1,100,0|0,0:0|0:0,0:0:0:0:
276,236,9585,1,0,0:0:0:0:
284,232,9645,6,0,L|348:240,1,50,0|0,0:0|0:0,0:0:0:0:
352,228,9885,2,0,P|361:185|345:133,1,100,0|8,0:0|0:0,0:0:0:0:
268,8,10365,1,0,0:0:0:0:
224,76,10485,2,0,P|240:84|292:84,1,50,0|0,0:0|0:0,0:0:0:0:
288,88,10725,2,0,P|328:64|344:-4,1,100,0|0,0:0|0:0,0:0:0:0:
360,28,11085,6,0,L|352:92,1,50,8|0,0:0|0:0,0:0:0:0:
404,140,11325,2,0,L|392:240,1,100,0|0,0:0|0:0,0:0:0:0:
256,368,12045,1,8,0:0:0:0:
120,240,12525,1,0,0:0:0:0:
120,240,12645,2,0,L|108:141,1,100,0|0,0:0|0:0,0:0:0:0:
52,93,13005,6,0,P|84:69|136:77,1,64.9999970245363,8|0,0:0|0:0,0:0:0:0:
164,189,13245,2,0,P|132:213|80:205,1,64.9999970245363,0|0,0:0|0:0,0:0:0:0:
124,77,13485,6,0,B|124:104|124:104|116:133,1,50,4|0,0:0|0:0,0:0:0:0:
108,141,13725,2,0,P|152:113|208:129,1,100,0|8,0:0|0:0,0:0:0:0:
344,129,14205,1,0,0:0:0:0:
352,141,14325,2,0,P|308:169|263:160,1,100,0|0,0:0|0:0,0:0:0:0:
300,61,14805,5,0,0:0:0:0:
292,73,14925,2,0,P|316:57|340:53,1,50,8|0,0:0|0:0,0:0:0:0:
400,97,15165,2,0,L|388:217,2,100,0|0|0,0:0|0:0|0:0,0:0:0:0:
400,212,15885,6,0,L|408:140,1,64.9999970245363,8|0,0:0|0:0,0:0:0:0:
320,204,16125,2,0,P|321:237|337:265,1,64.9999970245363,0|0,0:0|0:0,0:0:0:0:
416,296,16365,6,0,P|352:280|308:364,1,150,0|0,0:0|0:0,0:0:0:0:
304,339,16845,1,8,0:0:0:0:
232,220,17085,2,0,P|240:188|240:172,1,50,0|0,0:0|0:0,0:0:0:0:
232,164,17265,1,0,0:0:0:0:
224,156,17325,2,0,B|192:164|164:144|164:144|144:200|76:192,1,150,0|0,0:0|0:0,0:0:0:0:
152,68,17805,2,0,B|184:60|212:80|212:80|232:24|300:32,1,150,8|0,0:0|0:0,0:0:0:0:
284,108,18285,5,0,0:0:0:0:
300,104,18405,1,0,0:0:0:0:
316,100,18525,1,0,0:0:0:0:
332,96,18645,1,0,0:0:0:0:
348,92,18765,1,8,0:0:0:0:
364,88,18885,1,0,0:0:0:0:
380,84,19005,1,0,0:0:0:0:
448,136,19125,1,0,0:0:0:0:
456,125,19245,6,0,P|468:100|452:32,1,100,2|2,0:0|0:0,0:0:0:0:
380,84,19605,1,0,0:0:0:0:
308,36,19725,6,0,P|292:80|293:97,1,64.9999970245363,8|2,0:0|0:0,0:0:0:0:
353,237,19965,2,0,P|369:193|368:176,1,64.9999970245363,0|2,0:0|0:0,0:0:0:0:
360,184,20145,1,0,0:0:0:0:
352,192,20205,6,0,L|360:280,1,64.9999970245363,8|0,0:0|0:0,0:0:0:0:
264,336,20445,2,0,L|256:248,1,64.9999970245363,2|0,0:0|0:0,0:0:0:0:
368,176,20685,6,0,L|416:168,6,25,8|0|0|0|0|0|0,0:0|0:0|0:0|0:0|0:0|0:0|0:0,0:0:0:0:
284,196,21165,6,0,P|232:180|172:184,1,100,4|0,0:0|0:0,0:0:0:0:
140,56,21645,1,8,0:0:0:0:
132,44,21765,2,0,P|184:60|244:56,1,100,0|0,0:0|0:0,0:0:0:0:
304,16,22125,2,0,P|332:76|420:68,1,150,2|0,0:0|0:0,0:0:0:0:
424,68,22605,2,0,B|404:128|404:128|416:176,1,100,8|0,0:0|0:0,0:0:0:0:
416,184,23085,6,0,P|376:168|304:172,1,100,2|0,0:0|0:0,0:0:0:0:
296,296,23565,1,8,0:0:0:0:
304,308,23685,2,0,P|248:308|208:292,1,100,0|0,0:0|0:0,0:0:0:0:
204,288,23985,5,0,0:0:0:0:
200,284,24045,2,0,L|208:204,1,75.0000028610231,2|2,0:0|0:0,0:0:0:0:
160,76,24285,2,0,L|152:156,1,75.0000028610231,8|2,0:0|0:0,0:0:0:0:
227,135,24525,2,0,P|264:136|304:152,1,75.0000028610231,8|0,0:0|0:0,0:0:0:0:
132,224,24765,2,0,P|95:223|55:207,1,75.0000028610231,0|0,0:0|0:0,0:0:0:0:
0,167,25005,6,0,P|-12:216|52:284,1,150.000005722046,4|0,0:0|0:0,0:0:0:0:
124,308,25365,1,0,0:0:0:0:
200,284,25485,2,0,P|212:248|240:220,1,75.0000028610231,8|0,0:0|0:0,0:0:0:0:
384,264,25725,2,0,P|348:272|308:264,1,75.0000028610231,0|0,0:0|0:0,0:0:0:0:
348,192,25965,2,0,P|312:164|332:56,1,150.000005722046,0|0,0:0|0:0,0:0:0:0:
392,28,26325,1,0,0:0:0:0:
392,28,26385,1,0,0:0:0:0:
392,28,26445,2,0,L|408:112,1,75.0000028610231,8|0,0:0|0:0,0:0:0:0:
280,164,26685,2,0,L|280:80,1,75.0000028610231
168,88,26925,5,0,0:0:0:0:
164,104,27165,2,0,L|176:184,1,75.0000028610231,0|0,0:0|0:0,0:0:0:0:
120,240,27405,2,0,P|192:260|256:192,1,150.000005722046,8|0,0:0|0:0,0:0:0:0:
276,136,27765,1,0,0:0:0:0:
348,92,27885,2,0,P|404:96|452:180,1,150.000005722046,0|0,0:0|0:0,0:0:0:0:
448,252,28245,2,0,P|412:244|384:220,1,75.0000028610231,0|8,0:0|0:0,0:0:0:0:
236,144,28605,1,0,0:0:0:0:
160,172,28725,1,0,0:0:0:0:
112,240,28845,6,0,P|84:200|124:96,2,150.000005722046,0|0|8,0:0|0:0|0:0,0:0:0:0:
272,280,29565,1,0,0:0:0:0:
356,276,29685,1,0,0:0:0:0:
412,216,29805,2,0,L|440:140,1,75.0000028610231,0|0,0:0|0:0,0:0:0:0:
388,36,30045,2,0,L|362:106,1,75.0000028610231,0|0,0:0|0:0,0:0:0:0:
424,240,30285,2,0,L|480:88,1,150.000005722046,8|0,0:0|0:0,0:0:0:0:
296,40,30765,6,0,P|248:80|160:48,1,150.000005722046,0|0,0:0|0:0,0:0:0:0:
100,12,31125,1,0,0:0:0:0:
88,92,31245,2,0,L|108:248,1,150.000005722046,8|0,0:0|0:0,0:0:0:0:
120,324,31605,1,0,0:0:0:0:
44,288,31725,5,0,0:0:0:0:
256,352,31965,1,0,0:0:0:0:
28,208,32205,1,8,0:0:0:0:
188,96,32445,1,0,0:0:0:0:
336,224,32685,6,0,P|372:232|468:156,1,150.000005722046,0|0,0:0|0:0,0:0:0:0:
480,92,33045,1,0,0:0:0:0:
492,172,33165,2,0,L|508:260,1,75.0000028610231,8|0,0:0|0:0,0:0:0:0:
452,96,33405,2,0,L|438:22,1,75.0000028610231,0|0,0:0|0:0,0:0:0:0:
461,174,33645,2,0,L|492:348,1,150.000005722046,0|0,0:0|0:0,0:0:0:0:
408,348,34005,1,0,0:0:0:0:
408,348,34065,1,0,0:0:0:0:
408,348,34125,2,0,L|328:332,1,75.0000028610231,8|0,0:0|0:0,0:0:0:0:
248,224,34365,2,0,L|168:208,1,75.0000028610231,0|0,0:0|0:0,0:0:0:0:
92,192,34605,5,0,0:0:0:0:
262,297,34845,2,0,L|248:224,1,75.0000028610231,0|0,0:0|0:0,0:0:0:0:
312,172,35085,2,0,L|340:319,1,150.000005722046,8|0,0:0|0:0,0:0:0:0:
280,376,35445,1,0,0:0:0:0:
340,319,35565,2,0,P|400:284|480:312,2,150.000005722046,0|0|8,0:0|0:0|0:0,0:0:0:0:
272,60,36285,5,0,0:0:0:0:
192,72,36405,1,0,0:0:0:0:
156,148,36525,2,0,B|136:200|136:200|144:240|144:240|120:296,2,150.000005722046,0|0|8,0:0|0:0|0:0,0:0:0:0:
296,236,37245,1,0,0:0:0:0:
372,200,37365,1,0,0:0:0:0:
400,120,37485,6,0,L|484:132,1,75.0000028610231,0|0,0:0|0:0,0:0:0:0:
388,96,37725,2,0,L|472:108,1,75.0000028610231,0|0,0:0|0:0,0:0:0:0:
376,72,37965,5,8,0:0:0:0:
304,28,38085,1,0,0:0:0:0:
184,148,38205,1,0,0:0:0:0:
260,116,38325,1,0,0:0:0:0:
192,68,38445,6,0,L|172:232,1,150.000005722046,0|0,0:0|0:0,0:0:0:0:
312,340,38925,2,0,L|392:288,1,75.0000028610231,8|0,0:0|0:0,0:0:0:0:
256,280,39165,2,0,L|212:288,2,37.5000014305115,0|0|0,0:0|0:0|0:0,0:0:0:0:
308,216,39405,5,0,1:0:0:0:
308,216,39525,2,0,L|284:64,1,150.000005722046,0|0,1:0|0:0,0:0:0:0:
204,48,39885,2,0,B|208:88|208:88|200:124,1,75.0000028610231,8|0,1:2|1:0,0:0:0:0:
148,244,40125,2,0,B|176:220|176:220|216:216,1,75.0000028610231,0|0,1:0|1:0,0:0:0:0:
208,296,40365,6,0,P|144:328|80:288,1,150.000005722046,4|0,0:0|0:0,0:0:0:0:
24,232,40725,1,0,0:0:0:0:
76,108,40845,2,0,P|148:100|204:48,1,150.000005722046,8|0,0:0|0:0,0:0:0:0:
280,88,41205,1,0,0:0:0:0:
416,32,41325,6,0,P|419:107|428:192,1,150.000005722046,0|0,0:0|0:0,0:0:0:0:
448,264,41685,1,0,0:0:0:0:
336,328,41805,2,0,B|300:344|264:328|264:328|228:312|188:328,1,150.000005722046,8|0,0:0|0:0,0:0:0:0:
112,360,42165,1,0,0:0:0:0:
32,272,42285,6,0,P|27:238|24:192,1,75.0000028610231,0|0,0:0|0:0,0:0:0:0:
88,64,42525,2,0,P|92:104|80:136,1,75.0000028610231,0|0,0:0|0:0,0:0:0:0:
160,8,42765,2,0,B|252:-24|288:56|288:56,1,150.000005722046,8|0,0:0|0:0,0:0:0:0:
400,72,43125,6,0,P|400:112|408:160,1,75.0000028610231,0|0,0:0|0:0,0:0:0:0:
488,104,43365,1,0,0:0:0:0:
472,264,43485,2,0,L|488:176,1,75.0000028610231,0|0,0:0|0:0,0:0:0:0:
392,304,43725,2,0,P|320:304|256:344,1,150.000005722046,8|0,0:0|0:0,0:0:0:0:
184,312,44085,1,0,0:0:0:0:
56,360,44205,6,0,P|48:324|48:280,1,75.0000028610231,0|0,0:0|0:0,0:0:0:0:
112,140,44445,2,0,P|120:176|120:220,1,75.0000028610231,0|0,0:0|0:0,0:0:0:0:
68,72,44685,2,0,P|140:60|188:112,1,150.000005722046,8|0,0:0|0:0,0:0:0:0:
216,192,45045,1,0,0:0:0:0:
248,304,45165,6,0,L|416:328,1,150.000005722046,0|0,0:0|0:0,0:0:0:0:
384,240,45525,1,0,0:0:0:0:
432,120,45645,2,0,B|423:167|445:193|445:193|466:224|454:266,1,150.000005722046,8|0,0:0|0:0,0:0:0:0:
504,144,46005,1,0,0:0:0:0:
488,64,46125,6,0,P|460:44|420:40,1,75.0000028610231,0|0,0:0|0:0,0:0:0:0:
296,72,46365,2,0,P|324:92|364:96,1,75.0000028610231,0|0,0:0|0:0,0:0:0:0:
232,16,46605,2,0,P|160:8|96:48,1,150.000005722046,8|0,0:0|0:0,0:0:0:0:
64,124,46965,1,0,0:0:0:0:
32,240,47085,6,0,P|96:280|172:288,1,150.000005722046,0|8,0:0|0:0,0:0:0:0:
252,272,47445,1,0,0:0:0:0:
320,224,47565,6,0,P|416:272|316:320,1,269.999991760254,4|0,0:0|0:0,0:0:0:0:
248,352,48045,5,0,0:0:0:0:
176,288,48285,1,0,0:0:0:0:
80,280,48525,2,0,L|64:168,1,100,8|0,0:0|0:0,0:0:0:0:
56,132,48885,1,0,0:0:0:0:
48,84,49005,5,0,0:0:0:0:
144,52,49245,1,0,0:0:0:0:
224,112,49485,2,0,P|272:112|312:80,1,100,8|0,0:0|0:0,0:0:0:0:
336,32,49845,1,0,0:0:0:0:
408,80,49965,6,0,P|413:130|416:192,1,100,0|0,0:0|0:0,0:0:0:0:
424,280,50445,2,0,P|376:288|336:320,1,100,8|0,0:0|0:0,0:0:0:0:
312,360,50805,1,0,0:0:0:0:
208,320,50925,6,0,P|148:360|72:344,1,150.000005722046,0|0,0:0|0:0,0:0:0:0:
32,280,51285,1,0,0:0:0:0:
56,208,51405,2,0,P|56:132|48:56,1,150.000005722046,8|0,0:0|0:0,0:0:0:0:
120,24,51765,1,0,0:0:0:0:
192,56,51885,6,0,P|224:92|280:96,1,100,0|0,0:0|0:0,0:0:0:0:
320,84,52245,1,0,0:0:0:0:
416,112,52365,2,0,L|424:232,1,100,8|0,0:0|0:0,0:0:0:0:
428,260,52725,1,0,0:0:0:0:
432,308,52845,6,0,P|400:348|356:364,1,100,0|0,0:0|0:0,0:0:0:0:
304,368,53205,1,0,0:0:0:0:
256,344,53325,2,0,P|212:344|160:368,1,100,8|0,0:0|0:0,0:0:0:0:
72,344,53685,5,0,0:0:0:0:
72,344,53805,2,0,P|64:308|64:264,1,75.0000028610231,2|0,0:0|0:0,0:0:0:0:
144,136,54045,2,0,P|143:173|135:209,1,75.0000028610231,0|0,0:0|0:0,0:0:0:0:
168,56,54285,6,0,B|213:72|224:120|224:120|260:88|308:100,1,179.999994506836,8|2,0:0|0:0,0:0:0:0:
376,160,54645,1,0,0:0:0:0:
432,296,54765,6,0,P|440:260|440:216,1,75.0000028610231,2|0,0:0|0:0,0:0:0:0:
360,344,55005,1,0,0:0:0:0:
360,344,55125,1,2,0:0:0:0:
272,312,55245,2,0,P|200:312|136:352,1,150.000005722046,8|0,0:0|0:0,0:0:0:0:
188,156,55725,6,0,P|280:156|232:252,1,225.000008583069,6|0,0:0|0:0,0:0:0:0:
184,144,56205,2,0,L|284:152,1,75.0000028610231,8|0,0:0|0:0,0:0:0:0:
328,256,56445,2,0,L|253:261,1,75.0000028610231,0|0,0:0|0:0,0:0:0:0:
114,338,56685,6,0,B|140:252|66:214|66:214|102:238|140:224,1,225.000008583069,2|0,0:0|0:0,0:0:0:0:
136,216,57105,1,0,0:0:0:0:
132,208,57165,2,0,P|167:227|224:212,1,75.0000028610231,8|0,0:0|0:0,0:0:0:0:
236,80,57405,2,0,P|201:61|144:76,1,75.0000028610231,0|0,0:0|0:0,0:0:0:0:
184,144,57645,5,2,0:0:0:0:
40,296,57885,1,0,0:0:0:0:
244,344,58125,2,0,P|316:328|408:336,1,150.000005722046,8|0,0:0|0:0,0:0:0:0:
391,332,58485,1,0,0:0:0:0:
488,220,58605,6,0,P|436:172|356:200,1,150.000005722046,2|8,0:0|0:0,0:0:0:0:
24,164,59085,2,0,P|76:212|156:184,1,150.000005722046,8|0,0:0|0:0,0:0:0:0:
100,128,59445,1,0,0:0:0:0:
224,176,59565,6,0,P|219:224|191:256,1,89.9999972534181,2|0,0:0|0:0,0:0:0:0:
72,208,59805,2,0,P|76:159|102:129,1,89.9999972534181,0|0,0:0|0:0,0:0:0:0:
272,108,60045,6,0,B|316:144|304:204|304:204|320:160,1,150.000005722046,8|0,0:0|0:0,0:0:0:0:
360,92,60405,1,0,0:0:0:0:
360,92,60465,1,0,0:0:0:0:
360,92,60525,2,0,P|400:84|456:84,1,75.0000028610231,2|0,0:0|0:0,0:0:0:0:
380,212,60765,2,0,P|340:204|284:204,1,75.0000028610231,0|0,0:0|0:0,0:0:0:0:
208,280,61005,2,0,P|246:331|326:327,1,150.000005722046,8|2,0:0|0:0,0:0:0:0:
284,256,61365,1,0,0:0:0:0:
364,232,61485,6,0,P|325:180|245:184,1,150.000005722046,2|0,0:0|0:0,0:0:0:0:
92,328,61845,1,2,0:0:0:0:
92,328,61965,2,0,P|130:276|210:280,1,150.000005722046,10|0,0:0|0:0,0:0:0:0:
170,352,62325,1,0,0:0:0:0:
76,216,62445,6,0,B|100:184|142:187|142:187|128:152|152:112,1,150.000005722046,2|8,0:0|0:0,0:0:0:0:
224,152,62805,1,2,0:0:0:0:
372,92,62925,2,0,B|348:124|306:121|306:121|320:156|296:196,1,150.000005722046,8|0,0:0|0:0,0:0:0:0:
436,268,63405,6,0,P|392:188|480:212,1,225.000008583069,6|0,0:0|0:0,0:0:0:0:
444,280,63885,2,0,P|404:276|372:252,1,75.0000028610231,8|0,0:0|0:0,0:0:0:0:
368,144,64125,2,0,P|408:148|440:172,1,75.0000028610231,0|0,0:0|0:0,0:0:0:0:
450,292,64365,6,0,B|408:308|400:356|400:356|372:312|320:300|280:332,1,225.000008583069,2|0,0:0|0:0,0:0:0:0:
284,336,64785,1,0,0:0:0:0:
288,340,64845,2,0,B|301:301|301:301|296:244,1,75.0000028610231,8|0,0:0|0:0,0:0:0:0:
248,132,65085,2,0,B|235:171|235:171|240:228,1,75.0000028610231,0|0,0:0|0:0,0:0:0:0:
292,344,65325,5,2,0:0:0:0:
320,180,65565,1,0,0:0:0:0:
164,240,65805,1,8,0:0:0:0:
292,344,66045,1,0,0:0:0:0:
360,300,66165,1,0,0:0:0:0:
420,356,66285,6,0,P|408:276|444:212,1,150.000005722046,2|8,0:0|0:0,0:0:0:0:
92,28,66765,2,0,P|104:108|68:172,1,150.000005722046,8|0,0:0|0:0,0:0:0:0:
0,200,67125,1,0,0:0:0:0:
108,240,67245,6,0,P|144:224|204:228,1,89.9999972534181,2|0,0:0|0:0,0:0:0:0:
136,340,67485,2,0,P|96:320|40:328,1,89.9999972534181,0|0,0:0|0:0,0:0:0:0:
208,216,67725,6,0,P|276:284|264:356,1,150.000005722046,8|0,0:0|0:0,0:0:0:0:
356,196,68085,1,0,0:0:0:0:
416,252,68205,2,0,P|384:276|350:278,1,75.0000028610231,2|0,0:0|0:0,0:0:0:0:
292,140,68445,2,0,P|324:116|357:113,1,75.0000028610231,0|0,0:0|0:0,0:0:0:0:
416,264,68685,6,0,P|360:292|280:244,1,150.000005722046,8|2,0:0|0:0,0:0:0:0:
356,196,69045,1,0,0:0:0:0:
292,128,69165,2,0,P|348:100|428:148,1,150.000005722046,2|2,0:0|0:0,0:0:0:0:
416,264,69525,1,0,0:0:0:0:
300,144,69645,6,0,L|212:136,1,75.0000028610231,8|2,0:0|0:0,0:0:0:0:
172,268,69885,2,0,L|260:260,1,75.0000028610231,0|8,0:0|0:0,0:0:0:0:
292,128,70125,2,0,L|140:112,2,150.000005722046,4|2|8,0:0|0:0|0:0,0:0:0:0:
300,144,70725,1,0,0:0:0:0:
308,160,70845,1,0,0:0:0:0:
316,176,70965,1,0,0:0:0:0:
356,196,71085,5,6,0:0:0:0:
348,220,71205,1,0,0:0:0:0:
340,244,71325,1,0,0:0:0:0:
332,268,71445,1,0,0:0:0:0:
324,292,71565,2,0,L|308:344,1,50,8|0,0:0|0:0,0:0:0:0:
220,240,71805,2,0,L|234:192,1,50,0|0,0:0|0:0,0:0:0:0:
244,168,72045,5,2,0:0:0:0:
220,172,72165,1,0,0:0:0:0:
196,176,72285,1,0,0:0:0:0:
172,180,72405,1,0,0:0:0:0:
148,184,72525,2,0,L|84:196,1,50,8|0,0:0|0:0,0:0:0:0:
200,256,72765,2,0,L|244:296,1,50,0|0,0:0|0:0,0:0:0:0:
256,308,73005,5,2,0:0:0:0:
268,284,73125,1,0,0:0:0:0:
280,260,73245,1,0,0:0:0:0:
292,236,73365,1,0,0:0:0:0:
304,212,73485,2,0,L|328:164,1,50,8|0,0:0|0:0,0:0:0:0:
416,96,73725,2,0,L|440:48,1,50,0|0,0:0|0:0,0:0:0:0:
456,16,73965,5,2,0:0:0:0:
280,48,74205,2,0,L|224:56,1,50,0|0,0:0|0:0,0:0:0:0:
134,131,74445,2,0,L|184:124,1,50,10|0,0:0|0:0,0:0:0:0:
296,64,74685,2,0,L|240:72,1,50,0|0,0:0|0:0,0:0:0:0:
148,144,74925,5,2,0:0:0:0:
177,140,75045,1,0,0:0:0:0:
206,136,75165,1,0,0:0:0:0:
235,132,75285,1,0,0:0:0:0:
264,128,75405,2,0,L|318:119,1,50,8|0,0:0|0:0,0:0:0:0:
236,216,75645,2,0,L|290:207,1,50,0|0,0:0|0:0,0:0:0:0:
316,204,75885,5,2,0:0:0:0:
340,220,76005,1,0,0:0:0:0:
368,236,76125,1,0,0:0:0:0:
396,252,76245,1,0,0:0:0:0:
420,268,76365,2,0,L|464:296,1,50,8|0,0:0|0:0,0:0:0:0:
416,176,76605,2,0,L|428:120,1,50,0|0,0:0|0:0,0:0:0:0:
432,96,76845,5,2,0:0:0:0:
408,116,76965,1,0,0:0:0:0:
384,136,77085,1,0,0:0:0:0:
360,156,77205,1,0,0:0:0:0:
340,176,77325,2,0,L|300:212,1,50,8|0,0:0|0:0,0:0:0:0:
168,240,77565,2,0,L|128:276,1,50,0|0,0:0|0:0,0:0:0:0:
108,296,77805,5,2,0:0:0:0:
100,160,78045,1,0,0:0:0:0:
131,154,78165,1,0,0:0:0:0:
159,147,78285,2,0,L|209:135,1,50,10|0,0:0|0:0,0:0:0:0:
312,56,78525,2,0,L|263:66,1,50,0|0,0:0|0:0,0:0:0:0:
152,168,78765,6,0,L|253:145,1,100,2|0,0:0|0:0,0:0:0:0:
360,164,79125,1,0,0:0:0:0:
456,216,79245,2,0,P|432:172|448:120,1,100,8|0,0:0|0:0,0:0:0:0:
492,64,79605,1,0,0:0:0:0:
412,48,79725,2,0,L|296:40,1,100,2|0,0:0|0:0,0:0:0:0:
108,64,80205,5,10,0:0:0:0:
36,208,80445,2,0,L|8:152,1,50,0|0,0:0|0:0,0:0:0:0:
36,208,80685,2,0,L|132:248,1,100,2|0,0:0|0:0,0:0:0:0:
204,224,81045,1,0,0:0:0:0:
272,268,81165,2,0,L|304:168,1,100,8|0,0:0|0:0,0:0:0:0:
328,96,81525,1,0,0:0:0:0:
328,96,81645,5,2,0:0:0:0:
352,284,81885,2,0,P|328:328|284:348,1,100,0|8,0:0|0:0,0:0:0:0:
136,292,82365,1,0,0:0:0:0:
56,300,82485,1,0,0:0:0:0:
4,360,82605,5,2,0:0:0:0:
72,196,82845,2,0,L|48:140,1,50,0|0,0:0|0:0,0:0:0:0:
220,88,83205,2,0,L|272:108,1,50,0|0,0:0|0:0,0:0:0:0:
160,224,83565,2,0,L|136:270,1,50,0|0,0:0|0:0,0:0:0:0:
274,196,83925,2,0,L|324:188,1,50,0|8,0:0|0:0,0:0:0:0:
480,156,84285,1,0,0:0:0:0:
400,172,84405,1,0,0:0:0:0:
424,96,84525,5,2,1:2:0:0:
428,252,84645,1,0,0:0:0:0:
392,84,84765,1,0,0:0:0:0:
396,240,84885,1,0,0:0:0:0:
360,228,85005,2,0,L|332:124,2,100,8|0|0,1:2|1:0|1:0,0:0:0:0:
264,320,85725,1,2,0:0:0:0:
128,236,85965,2,0,P|80:224|24:236,1,100,8|0,0:0|0:0,0:0:0:0:
48,32,86445,5,4,0:0:0:0:
176,104,86685,1,0,0:0:0:0:
232,152,86805,1,0,0:0:0:0:
308,160,86925,2,0,P|344:152|372:124,1,75,0|0,1:0|0:0,0:0:0:0:
404,56,87165,1,0,0:0:0:0:
460,108,87285,1,0,0:0:0:0:
468,188,87405,6,0,P|464:264|420:324,1,150.000005722046,0|0,0:0|0:0,0:0:0:0:
352,360,87765,1,0,0:0:0:0:
280,336,87885,2,0,B|244:320|208:336|208:336|172:352|132:336,1,150.000005722046,0|2,1:0|0:0,0:0:0:0:
56,208,88365,6,0,P|80:176|88:136,1,75.0000028610231,2|0,0:0|0:0,0:0:0:0:
80,64,88605,1,0,0:0:0:0:
148,96,88725,1,0,0:0:0:0:
220,72,88845,1,0,1:0:0:0:
288,104,88965,1,0,0:0:0:0:
360,80,89085,1,0,0:0:0:0:
428,112,89205,1,0,0:0:0:0:
496,144,89325,6,0,P|496:192|488:232,1,75.0000028610231,0|0,0:0|0:0,0:0:0:0:
480,296,89565,2,0,P|464:336|432:360,1,75.0000028610231,2|0,0:0|0:0,0:0:0:0:
376,312,89805,1,0,1:0:0:0:
304,304,89925,1,0,0:0:0:0:
232,320,90045,1,0,0:0:0:0:
176,376,90165,1,0,0:0:0:0:
112,336,90285,6,0,B|76:336|40:352|40:352|40:312|16:280,1,150.000005722046,2|0,0:0|0:0,0:0:0:0:
0,208,90645,1,0,0:0:0:0:
24,136,90765,2,0,P|16:100|20:60,1,75.0000028610231,0|0,1:0|0:0,0:0:0:0:
176,112,91005,2,0,P|184:148|180:188,1,75.0000028610231,0|0,0:0|0:0,0:0:0:0:
240,48,91245,6,0,P|320:48|376:96,1,150.000005722046,0|0,0:0|0:0,0:0:0:0:
400,160,91605,1,0,0:0:0:0:
440,336,91725,2,0,L|288:312,1,150.000005722046,0|2,1:0|0:0,0:0:0:0:
232,360,92085,1,0,0:0:0:0:
108,204,92205,6,0,P|140:208|176:232,1,75.0000028610231,2|0,0:0|0:0,0:0:0:0:
224,288,92445,2,0,P|236:328|232:368,1,75.0000028610231,0|0,0:0|0:0,0:0:0:0:
88,280,92685,2,0,P|32:232|44:160,1,150.000005722046,0|0,1:0|0:0,0:0:0:0:
108,128,93045,1,0,0:0:0:0:
160,256,93165,6,0,P|164:296|148:328,1,75.0000028610231,0|2,1:0|0:0,0:0:0:0:
16,304,93405,2,0,P|12:264|28:232,1,75.0000028610231,2|2,0:0|0:0,0:0:0:0:
88,280,93645,2,0,P|80:352|16:384,1,150.000005722046,0|0,1:0|0:0,0:0:0:0:
108,128,94125,6,0,P|180:128|232:72,1,150.000005722046,4|0,0:0|0:0,0:0:0:0:
296,32,94485,1,0,0:0:0:0:
360,72,94605,2,0,P|400:72|432:88,1,75.0000028610231,0|0,1:0|0:0,0:0:0:0:
472,152,94845,2,0,P|464:224|400:264,1,150.000005722046,0|2,0:0|0:0,0:0:0:0:
328,264,95205,5,0,0:0:0:0:
264,224,95325,1,0,0:0:0:0:
248,152,95445,1,0,0:0:0:0:
248,152,95565,2,0,P|176:152|112:208,1,150.000005722046,0|0,1:0|0:0,0:0:0:0:
80,264,95925,1,0,0:0:0:0:
3,252,96045,5,2,0:0:0:0:
43,192,96165,1,0,0:0:0:0:
80,264,96285,1,0,0:0:0:0:
144,297,96405,1,0,0:0:0:0:
218,296,96525,2,0,P|283:267|328:201,1,150.000005722046,0|0,1:0|3:0,0:0:0:0:
336,128,96885,1,0,0:0:0:0:
456,48,97005,6,0,P|468:80|472:120,1,75.0000028610231,2|0,0:0|0:0,0:0:0:0:
424,264,97245,2,0,P|412:232|408:192,1,75.0000028610231,0|0,1:0|0:0,0:0:0:0:
492,212,97485,1,0,0:0:0:0:
504,296,97605,1,0,0:0:0:0:
436,352,97725,1,0,0:0:0:0:
356,320,97845,1,0,0:0:0:0:
348,232,97965,6,0,P|312:240|288:268,1,75.0000028610231,0|0,1:0|0:0,0:0:0:0:
248,336,98205,2,0,P|224:364|188:376,1,75.0000028610231,0|0,1:0|0:0,0:0:0:0:
112,368,98445,2,0,L|32:376,1,75.0000028610231,0|0,1:0|0:0,0:0:0:0:
0,312,98685,1,0,0:0:0:0:
0,312,98805,1,0,0:0:0:0:
32,152,98925,5,6,0:0:0:0:
104,160,99045,1,0,0:0:0:0:
168,120,99165,1,0,0:0:0:0:
184,48,99285,1,0,0:0:0:0:
240,96,99405,2,0,B|280:89|313:111|313:111|347:133|387:127,1,150.000005722046,2|0,0:0|1:0,0:0:0:0:
448,88,99765,1,0,0:0:0:0:
440,212,99885,6,0,L|492:220,2,50.0000019073487,2|0|0,0:0|0:0|0:0,0:0:0:0:
400,276,100125,2,0,L|440:308,2,50.0000019073487,8|0|0,1:0|0:0|0:0,0:0:0:0:
336,308,100365,2,0,L|356:360,2,50.0000019073487,2|0|0,0:0|0:0|0:0,0:0:0:0:
264,300,100605,2,0,L|256:352,2,50.0000019073487,8|0|0,1:0|0:0|0:0,0:0:0:0:
208,252,100845,5,2,0:0:0:0:
132,252,100965,1,0,0:0:0:0:
68,292,101085,1,8,1:0:0:0:
56,327,101145,1,0,0:0:0:0:
60,364,101205,1,0,0:0:0:0:
45,153,101325,5,2,0:0:0:0:
124,104,101445,1,0,0:0:0:0:
215,117,101565,1,8,1:0:0:0:
278,185,101685,1,0,0:0:0:0:
284,277,101805,5,4,0:0:0:0:
330,54,102285,1,8,0:0:0:0:
167,174,102765,5,0,0:0:0:0:
337,325,103245,1,8,0:0:0:0:
316,124,103725,5,0,0:0:0:0:
100,196,104205,1,8,0:0:0:0:
100,196,104685,5,0,0:0:0:0:
284,208,104925,1,8,0:0:0:0:
136,308,105165,1,8,0:0:0:0:
66,85,105405,1,0,0:0:0:0:
66,85,105525,1,0,0:0:0:0:
66,85,105645,6,0,P|106:107|148:105,1,89.9999972534181,2|0,0:0|0:0,0:0:0:0:
125,278,105885,2,0,P|125:232|102:197,1,89.9999972534181,0|0,0:0|0:0,0:0:0:0:
262,129,106125,6,0,B|214:141|202:193|202:193|196:164|170:141,1,150.000005722046,8|0,0:0|0:0,0:0:0:0:
206,65,106485,1,0,0:0:0:0:
206,65,106545,1,0,0:0:0:0:
206,65,106605,2,0,P|238:89|294:89,1,75.0000028610231,2|0,0:0|0:0,0:0:0:0:
352,180,106845,2,0,P|318:185|286:209,1,75.0000028610231,0|0,0:0|0:0,0:0:0:0:
216,312,107085,2,0,P|284:296|344:352,1,150.000005722046,8|2,0:0|0:0,0:0:0:0:
396,208,107445,6,0,P|397:193|403:172,1,37.5000014305115,0|0,0:0|0:0,0:0:0:0:
424,136,107565,2,0,P|372:176|276:136,1,150.000005722046,2|0,0:0|0:0,0:0:0:0:
176,168,107925,1,2,0:0:0:0:
100,128,108045,2,0,P|152:88|248:128,1,150.000005722046,8|0,0:0|0:0,0:0:0:0:
176,168,108405,1,8,0:0:0:0:
312,85,108525,6,0,P|312:122|296:156,1,75.0000028610231,6|0,0:0|0:0,0:0:0:0:
260,296,108765,2,0,P|243:262|243:225,1,75.0000028610231,10|2,0:0|0:0,0:0:0:0:
408,292,109005,6,0,L|364:284,3,37.5000014305115,8|0|0|0,0:0|0:0|0:0|0:0,0:0:0:0:
340,312,109245,2,0,L|303:318,3,37.5000014305115,0|0|2|0,0:0|0:0|0:0|0:0,0:0:0:0:
276,268,109485,5,4,0:0:0:0:
44,308,109965,1,8,0:0:0:0:
236,156,110445,5,0,0:0:0:0:
468,196,110925,1,8,0:0:0:0:
276,48,111405,5,0,0:0:0:0:
44,88,111885,1,8,0:0:0:0:
44,88,112365,5,0,0:0:0:0:
204,104,112605,1,8,0:0:0:0:
32,176,112845,1,8,0:0:0:0:
192,16,113085,1,0,0:0:0:0:
192,16,113205,1,0,0:0:0:0:
192,16,113325,6,0,B|188:72|188:72|212:116,1,89.9999972534181,2|0,0:0|0:0,0:0:0:0:
32,176,113565,2,0,B|48:146|48:146|44:90,1,89.9999972534181,0|0,0:0|0:0,0:0:0:0:
200,8,113805,6,0,B|196:64|196:64|212:96|212:96|208:160,1,150.000005722046,8|0,0:0|0:0,0:0:0:0:
160,220,114165,1,0,0:0:0:0:
160,220,114225,1,0,0:0:0:0:
160,220,114285,2,0,P|192:192|244:192,1,75.0000028610231,2|0,0:0|0:0,0:0:0:0:
288,312,114525,2,0,P|256:340|204:340,1,75.0000028610231,2|0,0:0|0:0,0:0:0:0:
228,264,114765,5,8,0:0:0:0:
360,280,114885,1,0,0:0:0:0:
352,360,115005,1,2,0:0:0:0:
228,264,115125,1,0,0:0:0:0:
226,180,115245,6,0,B|208:144|164:132|128:149|128:149|148:116|141:85|141:85|112:52,1,225.000008583069,2|2,0:0|0:0,0:0:0:0:
120,48,115665,1,0,0:0:0:0:
128,44,115725,2,0,P|164:64|212:64,1,75.0000028610231,8|2,0:0|0:0,0:0:0:0:
324,32,115965,2,0,P|304:68|312:116,1,75.0000028610231,0|8,0:0|0:0,0:0:0:0:
420,160,116205,2,0,P|472:92|444:28,1,150.000005722046,4|2,0:0|0:0,0:0:0:0:
452,36,116685,5,8,0:0:0:0:
452,36,116805,1,0,0:0:0:0:
452,36,116925,1,0,0:0:0:0:
452,36,117045,1,0,0:0:0:0:
452,36,117165,6,0,P|396:72|320:52,1,150.000005722046,6|0,0:0|0:0,0:0:0:0:
244,20,117525,1,0,0:0:0:0:
268,100,117645,2,0,L|240:248,1,150.000005722046,8|2,0:0|0:0,0:0:0:0:
228,328,118005,1,0,0:0:0:0:
139,328,118125,6,0,P|169:262|240:247,1,150.000005722046,2|0,0:0|0:0,0:0:0:0:
320,260,118485,1,0,0:0:0:0:
396,288,118605,2,0,P|460:260|476:180,1,150.000005722046,8|2,0:0|0:0,0:0:0:0:
464,104,118965,1,0,0:0:0:0:
423,29,119085,6,0,P|379:86|400:156,1,150.000005722046,2|0,0:0|0:0,0:0:0:0:
478,187,119445,1,0,0:0:0:0:
408,232,119565,2,0,L|248:236,1,150.000005722046,8|2,0:0|0:0,0:0:0:0:
176,240,119925,1,0,0:0:0:0:
92,240,120045,1,2,0:0:0:0:
100,256,120285,5,2,0:0:0:0:
168,108,120525,1,8,0:0:0:0:
328,144,120765,2,0,L|380:208,1,75.0000028610231,2|0,0:0|0:0,0:0:0:0:
456,216,121005,6,0,P|412:284|348:284,1,150.000005722046,2|0,0:0|0:0,0:0:0:0:
272,256,121365,1,0,0:0:0:0:
208,204,121485,2,0,P|136:209|101:272,1,150.000005722046,8|2,0:0|0:0,0:0:0:0:
108,356,121845,1,0,0:0:0:0:
101,272,121965,6,0,L|88:120,1,150.000005722046,2|0,0:0|0:0,0:0:0:0:
168,108,122325,1,0,0:0:0:0:
212,40,122445,2,0,L|376:72,1,150.000005722046,8|2,0:0|0:0,0:0:0:0:
440,88,122805,1,0,0:0:0:0:
384,148,122925,6,0,P|392:184|412:216,1,75.0000028610231,2|0,0:0|0:0,0:0:0:0:
492,348,123165,2,0,P|483:311|464:280,1,75.0000028610231,0|2,0:0|0:0,0:0:0:0:
408,340,123405,1,8,0:0:0:0:
468,156,123645,1,2,0:0:0:0:
320,228,123885,2,0,P|240:240|168:220,1,150.000005722046,2|2,0:0|0:0,0:0:0:0:
174,222,124365,6,0,L|156:148,1,75.0000028610231,8|0,0:0|0:0,0:0:0:0:
108,280,124605,2,0,L|125:352,1,75.0000028610231,2|0,0:0|0:0,0:0:0:0:
188,232,124845,6,0,L|151:82,1,150.000005722046,6|0,0:0|0:0,0:0:0:0:
220,36,125205,1,0,0:0:0:0:
284,88,125325,2,0,P|356:112|424:76,1,150.000005722046,8|2,0:0|0:0,0:0:0:0:
468,12,125685,1,0,0:0:0:0:
496,92,125805,6,0,P|456:152|368:184,1,150.000005722046,2|0,0:0|0:0,0:0:0:0:
304,196,126165,1,0,0:0:0:0:
220,192,126285,2,0,P|248:260|320:276,1,150.000005722046,8|2,0:0|0:0,0:0:0:0:
304,196,126645,1,0,0:0:0:0:
268,120,126765,6,0,P|200:104|140:156,1,150.000005722046,2|0,0:0|0:0,0:0:0:0:
136,232,127125,1,0,0:0:0:0:
141,151,127245,2,0,L|96:8,1,150.000005722046,8|0,0:0|0:0,0:0:0:0:
40,72,127605,1,0,0:0:0:0:
32,156,127725,1,2,0:0:0:0:
36,168,127965,5,2,0:0:0:0:
124,308,128205,1,2,0:0:0:0:
284,264,128445,2,0,P|324:252|360:256,1,75.0000028610231,2|0,0:0|0:0,0:0:0:0:
440,244,128685,6,0,P|476:184|448:108,1,150.000005722046,2|0,0:0|0:0,0:0:0:0:
376,84,129045,1,0,0:0:0:0:
308,128,129165,2,0,P|240:152|160:108,1,150.000005722046,8|2,0:0|0:0,0:0:0:0:
140,44,129525,1,0,0:0:0:0:
171,122,129645,6,0,P|152:192|80:220,1,150.000005722046,2|0,0:0|0:0,0:0:0:0:
0,220,130005,1,0,0:0:0:0:
85,220,130125,2,0,L|232:260,1,150.000005722046,8|0,0:0|1:0,0:0:0:0:
308,284,130485,1,0,0:0:0:0:
384,252,130605,5,0,1:0:0:0:
400,264,130845,2,0,L|408:184,1,75.0000028610231,0|0,0:0|1:0,0:0:0:0:
420,108,131085,5,8,1:2:0:0:
480,260,131325,1,0,1:0:0:0:
316,236,131565,1,0,1:0:0:0:
420,108,131805,2,0,P|344:128|272:92,1,150.000005722046,2|8,0:0|0:0,0:0:0:0:
216,48,132165,1,0,0:0:0:0:
200,128,132285,2,0,L|108:160,1,75.0000028610231,0|0,0:0|0:0,0:0:0:0:
64,112,132525,5,6,0:0:0:0:
16,168,132645,1,0,0:0:0:0:
48,232,132765,1,0,3:0:0:0:
16,296,132885,1,0,0:0:0:0:
72,344,133005,2,0,P|108:336|144:344,1,75.0000028610231,8|0,1:0|0:0,0:0:0:0:
220,360,133245,2,0,P|256:368|292:360,1,75.0000028610231,0|0,0:0|0:0,0:0:0:0:
344,304,133485,5,2,0:0:0:0:
368,232,133605,1,0,0:0:0:0:
360,160,133725,1,0,3:0:0:0:
432,184,133845,1,0,0:0:0:0:
504,160,133965,2,0,L|508:80,1,75.0000028610231,8|0,1:0|0:0,0:0:0:0:
312,16,134205,2,0,P|312:56|320:96,1,75.0000028610231,0|0,3:0|0:0,0:0:0:0:
416,48,134445,5,2,0:0:0:0:
408,120,134565,1,0,0:0:0:0:
384,192,134685,1,0,3:0:0:0:
328,244,134805,1,2,0:0:0:0:
400,272,134925,2,0,P|404:308|392:344,1,75.0000028610231,8|0,1:0|0:0,0:0:0:0:
320,360,135165,2,0,P|292:336|276:300,1,75.0000028610231,0|0,3:0|0:0,0:0:0:0:
238,237,135405,6,0,P|210:261|202:297,1,75.0000028610231,2|0,0:0|0:0,0:0:0:0:
148,352,135645,2,0,B|116:264|24:296|24:296,1,150.000005722046,0|8,0:0|1:0,0:0:0:0:
16,220,136005,2,0,L|8:132,1,75.0000028610231,0|0,0:0|3:0,0:0:0:0:
60,92,136245,1,0,0:0:0:0:
120,136,136365,6,0,P|160:136|192:120,1,75.0000028610231,2|0,0:0|0:0,0:0:0:0:
224,48,136605,2,0,P|264:48|300:56,1,75.0000028610231,0|0,3:0|0:0,0:0:0:0:
328,128,136845,1,8,1:0:0:0:
392,168,136965,1,0,0:0:0:0:
468,160,137085,2,0,L|476:240,1,75.0000028610231,0|0,3:0|0:0,0:0:0:0:
456,312,137325,5,2,0:0:0:0:
400,360,137445,1,0,0:0:0:0:
328,376,137565,1,0,3:0:0:0:
256,360,137685,1,0,0:0:0:0:
200,304,137805,2,0,P|160:304|128:320,1,75.0000028610231,8|0,1:0|0:0,0:0:0:0:
72,368,138045,2,0,P|32:368|0:352,1,75.0000028610231,0|0,3:0|0:0,0:0:0:0:
48,292,138285,5,2,0:0:0:0:
48,292,138405,1,0,0:0:0:0:
88,232,138525,1,0,3:0:0:0:
88,232,138645,1,0,0:0:0:0:
32,184,138765,2,0,P|24:148|32:112,1,75.0000028610231,8|0,1:0|0:0,0:0:0:0:
176,72,139005,2,0,P|184:108|176:144,1,75.0000028610231,0|0,3:0|0:0,0:0:0:0:
168,160,139185,1,0,0:0:0:0:
160,176,139245,6,0,P|160:248|208:308,1,150.000005722046,2|0,0:0|3:0,0:0:0:0:
264,352,139605,1,0,0:0:0:0:
320,304,139725,2,0,B|360:284|392:304|392:304|424:324|464:304,1,150.000005722046,8|0,1:0|3:0,0:0:0:0:
432,232,140085,1,0,0:0:0:0:
460,208,140145,1,0,0:0:0:0:
488,184,140205,6,0,L|496:32,1,150.000005722046,6|0,0:0|3:0,0:0:0:0:
424,16,140565,1,0,0:0:0:0:
368,72,140685,6,0,B|272:144|208:48|208:48,1,179.999994506836,8|0,1:0|3:0,0:0:0:0:
120,24,141045,2,0,L|72:8,1,44.999998626709,0|0,0:0|0:0,0:0:0:0:
32,72,141165,2,0,B|88:168|16:240|16:240,1,179.999994506836,2|0,0:0|3:0,0:0:0:0:
72,312,141525,1,0,0:0:0:0:
152,344,141645,2,0,B|272:360|272:240|272:240,1,179.999994506836,8|0,1:0|3:0,0:0:0:0:
184,256,142005,1,0,0:0:0:0:
320,168,142125,6,0,P|276:156|232:168,1,89.9999972534181,2|0,0:0|0:0,0:0:0:0:
76,96,142365,2,0,P|120:108|164:96,1,89.9999972534181,0|0,3:0|0:0,0:0:0:0:
240,48,142605,1,8,1:0:0:0:
328,24,142725,1,0,0:0:0:0:
416,40,142845,2,0,L|432:128,1,89.9999972534181,0|0,3:0|0:0,0:0:0:0:
504,288,143085,6,0,L|488:200,1,89.9999972534181,8|0,1:0|0:0,0:0:0:0:
440,344,143325,1,0,3:0:0:0:
360,304,143445,1,0,0:0:0:0:
360,304,143505,1,0,0:0:0:0:
360,304,143565,2,0,B|312:288|280:328|280:328|248:368|200:352,1,179.999994506836,8|0,1:0|3:0,0:0:0:0:
120,312,143925,1,0,0:0:0:0:
168,82,144045,6,0,B|168:80|176:200|56:192,1,179.999994506836,2|0,0:0|3:0,0:0:0:0:
80,104,144405,1,0,0:0:0:0:
240,32,144525,2,0,P|288:24|328:32,1,89.9999972534181,8|0,1:0|0:0,0:0:0:0:
404,76,144765,1,0,3:0:0:0:
404,76,144885,1,0,0:0:0:0:
472,224,145005,6,0,P|480:184|472:136,1,89.9999972534181,2|0,0:0|0:0,0:0:0:0:
335,135,145245,2,0,P|327:179|336:224,1,89.9999972534181,0|0,3:0|0:0,0:0:0:0:
284,64,145485,2,0,B|238:47|199:81|199:81|161:115|115:99,1,179.999994506836,8|0,1:0|3:0,0:0:0:0:
40,48,145845,1,0,0:0:0:0:
0,128,145965,5,2,0:0:0:0:
16,216,146085,1,0,0:0:0:0:
80,280,146205,1,0,3:0:0:0:
168,304,146325,1,0,0:0:0:0:
168,304,146385,1,0,0:0:0:0:
168,304,146445,2,0,P|256:296|312:360,1,179.999994506836,8|0,1:0|3:0,0:0:0:0:
424,288,146805,1,0,0:0:0:0:
400,376,146925,6,0,P|448:376|488:352,1,89.9999972534181,8|0,1:0|0:0,0:0:0:0:
336,304,147165,2,0,P|288:304|248:280,1,89.9999972534181,8|0,1:0|0:0,0:0:0:0:
312,216,147405,5,4,1:0:0:0:
