osu file format v9

[General]
AudioFilename: M2U - BlythE.ogg
AudioLeadIn: 0
PreviewTime: 4109
Countdown: 0
SampleSet: Soft
StackLeniency: 0
Mode: 0
LetterboxInBreaks: 0
SkinPreference:DJMax Osuka

[Editor]
Bookmarks: 20166,36166,97500,120166
DistanceSpacing: 0.8
BeatDivisor: 4
GridSize: 32

[Metadata]
Title:BlythE (Osuka)
Artist:M2U
Creator:ziin
Version:Maniac
Source:DJMAX Technika
Tags:

[Difficulty]
HPDrainRate:5
CircleSize:6
OverallDifficulty:8
ApproachRate:3
SliderMultiplier:1.8
SliderTickRate:4

[Events]
//Background and Video events
0,0,"BlythE_bg5.jpg"
Video,-50,"BlythE_video.avi"
//Break Periods
//Storyboard Layer 0 (Background)
//Storyboard Layer 1 (Fail)
//Storyboard Layer 2 (Pass)
//Storyboard Layer 3 (Foreground)
Sprite,Foreground,Centre,"s\67.png",0,265 V,0,0,,1,1,641,3 F,0,833,1166,0,1 F,0,130000,130500,1,0 F,0,130500,133000,0
Sprite,Foreground,TopLeft,"s\bar.png",320,240 L,1320,16 M,0,0,2666,0,265,1024,265 M,0,2666,5333,0,265,1024,265 M,0,5333,8000,0,265,1024,265 R,0,0,,3.14 V,0,0,,1,180
Sprite,Foreground,TopLeft,"s\bar.png",320,240 L,2653,16 M,0,0,2666,640,268,-384,268 M,0,2666,5333,640,268,-384,268 M,0,5333,8000,640,268,-384,268 V,0,0,,1,180
Sprite,Foreground,BottomLeft,"s\flash.png",0,265 L,791,16 F,0,0,42,0,1 F,0,42,209,1,0 F,0,334,375,0,1 F,0,375,542,1,0 F,0,2667,2709,0,1 F,0,2709,2876,1,0 F,0,3001,3042,0,1 F,0,3042,3209,1,0 F,0,5333,5375,0,1 F,0,5375,5542,1,0 F,0,5667,5708,0,1 F,0,5708,5875,1,0 F,0,5875,8000,0 P,0,0,,H
Sprite,Foreground,TopRight,"s\flash.png",640,268 L,2125,16 F,0,0,42,0,1 F,0,42,209,1,0 F,0,334,375,0,1 F,0,375,542,1,0 F,0,2667,2709,0,1 F,0,2709,2876,1,0 F,0,3001,3042,0,1 F,0,3042,3209,1,0 F,0,5333,5375,0,1 F,0,5375,5542,1,0 F,0,5667,5708,0,1 F,0,5708,5875,1,0 F,0,5875,8000,0
Sprite,Foreground,Centre,"s\bc.png",28,116 L,833,16 F,0,0,,1 F,0,166,,0 F,0,2666,,1 F,0,2833,,0 F,0,5333,,1 F,0,5500,8000,0
Sprite,Foreground,Centre,"s\bb.png",28,116 L,1000,16 F,0,0,,1 F,0,166,,0 F,0,2666,,1 F,0,2833,,0 F,0,5333,,1 F,0,5500,8000,0
Sprite,Foreground,Centre,"s\ba.png",28,116 L,1166,16 F,0,0,,1 F,0,166,,0 F,0,2666,,1 F,0,2833,,0 F,0,5333,,1 F,0,5500,8000,0
Sprite,Foreground,Centre,"s\bc.png",612,299 L,2166,16 F,0,0,,1 F,0,166,,0 F,0,2666,,1 F,0,2833,,0 F,0,5333,,1 F,0,5500,8000,0
Sprite,Foreground,Centre,"s\bb.png",612,299 L,2333,16 F,0,0,,1 F,0,166,,0 F,0,2666,,1 F,0,2833,,0 F,0,5333,,1 F,0,5500,8000,0
Sprite,Foreground,Centre,"s\ba.png",612,299 L,2500,16 F,0,0,,1 F,0,166,,0 F,0,2666,,1 F,0,2833,,0 F,0,5333,,1 F,0,5500,8000,0
Sprite,Foreground,CentreLeft,"s\hold.png",448,117 C,0,19666,,0,0,192 F,0,19666,20166,0,1 V,0,19666,20166,1,1,4,1 F,0,21416,21499,1,0
Sprite,Foreground,CentreRight,"s\hold.png",192,405 C,0,21000,,0,0,192 F,0,21000,21500,0,1 V,0,21000,21500,1,1,8,1 F,0,22916,22999,1,0
Sprite,Foreground,CentreLeft,"s\hold.png",64,181 C,0,26666,,0,0,192 F,0,26666,27166,0,1 V,0,26666,27166,1,1,8,1 F,0,28583,28666,1,0
Sprite,Foreground,CentreRight,"s\hold.png",189,309 C,0,31666,,0,0,192 F,0,31666,32166,0,1 V,0,31666,32166,1,1,12,1 F,0,33749,33832,1,0
Sprite,Foreground,CentreLeft,"s\hold.png",0,117 C,0,31833,,0,0,192 F,0,31833,32333,0,1 V,0,31833,32333,1,1,8,1 F,0,33749,33832,1,0
Sprite,Foreground,CentreRight,"s\hold.png",192,309 C,0,37000,,0,0,192 F,0,37000,37500,0,1 V,0,37000,37500,1,1,4,1 F,0,38749,38832,1,0
Sprite,Foreground,CentreRight,"s\hold.png",320,341 C,0,39333,,0,0,192 F,0,39333,39833,0,1 V,0,39333,39833,1,1,4,1 F,0,41083,41166,1,0
Sprite,Foreground,CentreRight,"s\hold.png",320,373 C,0,42000,,0,0,192 F,0,42000,42500,0,1 V,0,42000,42500,1,1,2,1 F,0,43666,43749,1,0
Sprite,Foreground,CentreLeft,"s\hold.png",192,117 C,0,43000,,0,0,192 F,0,43000,43500,0,1 V,0,43000,43500,1,1,8,1 F,0,44916,44999,1,0
Sprite,Foreground,CentreRight,"s\hold.png",320,373 C,0,44666,,0,0,192 F,0,44666,45166,0,1 V,0,44666,45166,1,1,2,1 F,0,46333,46416,1,0
Sprite,Foreground,CentreRight,"s\hold.png",256,341 C,0,44833,,0,0,192 F,0,44833,45333,0,1 V,0,44833,45333,1,1,8,1 F,0,46749,46832,1,0
Sprite,Foreground,CentreRight,"s\hold.png",384,373 C,0,49833,,0,0,192 F,0,49833,50333,0,1 V,0,49833,50333,1,1,4,1 F,0,51583,51666,1,0
Sprite,Foreground,CentreRight,"s\hold.png",256,309 C,0,50166,,0,0,192 F,0,50166,50666,0,1 V,0,50166,50666,1,1,4,1 F,0,51916,51999,1,0
Sprite,Foreground,CentreLeft,"s\hold.png",256,149 C,0,77833,,0,0,192 F,0,77833,78333,0,1 V,0,77833,78333,1,1,16,1 F,0,80083,80166,1,0
Sprite,Foreground,CentreRight,"s\hold.png",384,373 C,0,79166,,0,0,192 F,0,79166,79666,0,1 V,0,79166,79666,1,1,10,1 F,0,81166,81249,1,0
Sprite,Foreground,CentreLeft,"s\hold.png",64,213 C,0,80000,,0,0,192 F,0,80000,80500,0,1 V,0,80000,80500,1,1,24,1 F,0,82499,82582,1,0
Sprite,Foreground,CentreRight,"s\hold.png",384,373 C,0,81833,,0,0,192 F,0,81833,82333,0,1 V,0,81833,82333,1,1,4,1 F,0,83583,83666,1,0
Sprite,Foreground,CentreRight,"s\hold.png",128,341 C,0,82500,,0,0,192 F,0,82500,83000,0,1 V,0,82500,83000,1,1,8,1 F,0,84333,84416,1,0
Sprite,Foreground,CentreLeft,"s\hold.png",0,181 C,0,82500,,0,0,192 F,0,82500,83000,0,1 V,0,82500,83000,1,1,8,1 F,0,84333,84416,1,0
Sprite,Foreground,CentreLeft,"s\hold.png",256,213 C,0,83166,,0,0,192 F,0,83166,83666,0,1 V,0,83166,83666,1,1,4,1 F,0,84916,84999,1,0
Sprite,Foreground,CentreLeft,"s\hold.png",448,181 C,0,83666,,0,0,192 F,0,83666,84166,0,1 V,0,83666,84166,1,1,10,1 F,0,85666,85749,1,0
Sprite,Foreground,CentreRight,"s\hold.png",640,373 C,0,83833,,0,0,192 F,0,83833,84333,0,1 V,0,83833,84333,1,1,6,1 F,0,85666,85749,1,0
Sprite,Foreground,CentreRight,"s\hold.png",192,341 C,0,85000,,0,0,192 F,0,85000,85500,0,1 V,0,85000,85500,1,1,32,1 F,0,87916,87999,1,0
Sprite,Foreground,CentreLeft,"s\hold.png",0,149 C,0,85166,,0,0,192 F,0,85166,85666,0,1 V,0,85166,85666,1,1,28,1 F,0,87916,87999,1,0
Sprite,Foreground,CentreLeft,"s\hold.png",448,181 C,0,94333,,0,0,192 F,0,94333,94833,0,1 V,0,94333,94833,1,1,4,1 F,0,96083,96166,1,0
Sprite,Foreground,CentreRight,"s\hold.png",192,405 C,0,95666,,0,0,192 F,0,95666,96166,0,1 V,0,95666,96166,1,1,12,1 F,0,97749,97832,1,0
Sprite,Foreground,CentreLeft,"s\hold.png",0,213 C,0,95833,,0,0,192 F,0,95833,96333,0,1 V,0,95833,96333,1,1,8,1 F,0,97749,97832,1,0
Sprite,Foreground,CentreRight,"s\hold.png",384,309 C,0,100500,,0,0,192 F,0,100500,101000,0,1 V,0,100500,101000,1,1,12,1 F,0,102583,102666,1,0
Sprite,Foreground,CentreLeft,"s\hold.png",64,213 C,0,101333,,0,0,192 F,0,101333,101833,0,1 V,0,101333,101833,1,1,4,1 F,0,103083,103166,1,0
Sprite,Foreground,CentreRight,"s\hold.png",128,341 C,0,103833,,0,0,192 F,0,103833,104333,0,1 V,0,103833,104333,1,1,8,1 F,0,105750,105833,1,0
Sprite,Foreground,CentreLeft,"s\hold.png",0,149 C,0,103833,,0,0,192 F,0,103833,104333,0,1 V,0,103833,104333,1,1,8,1 F,0,105750,105833,1,0
Sprite,Foreground,CentreRight,"s\hold.png",448,373 C,0,105666,,0,0,192 F,0,105666,106166,0,1 V,0,105666,106166,1,1,4,1 F,0,107416,107499,1,0
Sprite,Foreground,CentreRight,"s\hold.png",192,309 C,0,106333,,0,0,192 F,0,106333,106833,0,1 V,0,106333,106833,1,1,12,1 F,0,108416,108499,1,0
Sprite,Foreground,CentreLeft,"s\hold.png",0,117 C,0,106500,,0,0,192 F,0,106500,107000,0,1 V,0,106500,107000,1,1,8,1 F,0,108416,108499,1,0
Sprite,Foreground,CentreRight,"s\hold.png",576,309 C,0,108000,,0,0,192 F,0,108000,108500,0,1 V,0,108000,108500,1,1,8,1 F,0,109916,109999,1,0
Sprite,Foreground,CentreRight,"s\hold.png",384,373 C,0,108500,,0,0,192 F,0,108500,109000,0,1 V,0,108500,109000,1,1,8,1 F,0,110416,110499,1,0
Sprite,Foreground,CentreRight,"s\hold.png",384,309 C,0,111166,,0,0,192 F,0,111166,111666,0,1 V,0,111166,111666,1,1,10,1 F,0,113166,113249,1,0
Sprite,Foreground,CentreRight,"s\hold.png",384,373 C,0,113833,,0,0,192 F,0,113833,114333,0,1 V,0,113833,114333,1,1,4,1 F,0,115583,115666,1,0
Sprite,Foreground,CentreLeft,"s\hold.png",64,213 C,0,114666,,0,0,192 F,0,114666,115166,0,1 V,0,114666,115166,1,1,6,1 F,0,116499,116582,1,0
Sprite,Foreground,CentreLeft,"s\hold.png",256,181 C,0,115166,,0,0,192 F,0,115166,115666,0,1 V,0,115166,115666,1,1,6,1 F,0,116999,117082,1,0
Sprite,Foreground,CentreRight,"s\hold.png",448,373 C,0,116333,,0,0,192 F,0,116333,116833,0,1 V,0,116333,116833,1,1,4,1 F,0,118083,118166,1,0
Sprite,Foreground,CentreRight,"s\hold.png",320,341 C,0,116666,,0,0,192 F,0,116666,117166,0,1 V,0,116666,117166,1,1,4,1 F,0,118416,118499,1,0
Sprite,Foreground,CentreRight,"s\hold.png",128,309 C,0,117166,,0,0,192 F,0,117166,117666,0,1 V,0,117166,117666,1,1,16,1 F,0,119416,119499,1,0
Sprite,Foreground,CentreLeft,"s\hold.png",0,117 C,0,117166,,0,0,192 F,0,117166,117666,0,1 V,0,117166,117666,1,1,16,1 F,0,119416,119499,1,0
Sprite,Foreground,CentreLeft,"s\holdoverlay.png",448,117 L,19666,5 F,2,0,167,0,0.5 F,1,167,333,0.5,0 V,0,19666,20166,1,1,4,1 F,0,21416,21499,0.5,0
Sprite,Foreground,CentreRight,"s\holdoverlay.png",192,405 L,21000,6 F,2,0,167,0,0.5 F,1,167,333,0.5,0 V,0,21000,21500,1,1,8,1 F,0,22916,22999,0.5,0
Sprite,Foreground,CentreLeft,"s\holdoverlay.png",64,181 L,26666,6 F,2,0,167,0,0.5 F,1,167,333,0.5,0 V,0,26666,27166,1,1,8,1 F,0,28583,28666,0.5,0
Sprite,Foreground,CentreRight,"s\holdoverlay.png",189,309 L,31666,6 F,2,0,167,0,0.5 F,1,167,333,0.5,0 V,0,31666,32166,1,1,12,1 F,0,33749,33832,0.5,0
Sprite,Foreground,CentreLeft,"s\holdoverlay.png",0,117 L,31833,6 F,0,0,167,0.5,0 F,0,167,333,0,0.5 V,0,31833,32333,1,1,8,1 F,0,33749,33832,0.5,0
Sprite,Foreground,CentreRight,"s\holdoverlay.png",192,309 L,37000,5 F,2,0,167,0,0.5 F,1,167,333,0.5,0 V,0,37000,37500,1,1,4,1 F,0,38749,38832,0.5,0
Sprite,Foreground,CentreRight,"s\holdoverlay.png",320,341 L,39333,5 F,2,0,167,0,0.5 F,1,167,333,0.5,0 V,0,39333,39833,1,1,4,1 F,0,41083,41166,0.5,0
Sprite,Foreground,CentreRight,"s\holdoverlay.png",320,373 L,42000,5 F,2,0,167,0,0.5 F,1,167,333,0.5,0 V,0,42000,42500,1,1,2,1 F,0,43666,43749,0.5,0
Sprite,Foreground,CentreLeft,"s\holdoverlay.png",192,117 L,43000,6 F,2,0,167,0,0.5 F,1,167,333,0.5,0 V,0,43000,43500,1,1,8,1 F,0,44916,44999,0.5,0
Sprite,Foreground,CentreRight,"s\holdoverlay.png",320,373 L,44666,5 F,2,0,167,0,0.5 F,1,167,333,0.5,0 V,0,44666,45166,1,1,2,1 F,0,46333,46416,0.5,0
Sprite,Foreground,CentreRight,"s\holdoverlay.png",256,341 L,44833,6 F,0,0,167,0.5,0 F,0,167,333,0,0.5 V,0,44833,45333,1,1,8,1 F,0,46749,46832,0.5,0
Sprite,Foreground,CentreRight,"s\holdoverlay.png",384,373 L,49833,5 F,0,0,167,0.5,0 F,0,167,333,0,0.5 V,0,49833,50333,1,1,4,1 F,0,51583,51666,0.5,0
Sprite,Foreground,CentreRight,"s\holdoverlay.png",256,309 L,50166,5 F,0,0,167,0.5,0 F,0,167,333,0,0.5 V,0,50166,50666,1,1,4,1 F,0,51916,51999,0.5,0
Sprite,Foreground,CentreLeft,"s\holdoverlay.png",256,149 L,77833,7 F,0,0,167,0.5,0 F,0,167,333,0,0.5 V,0,77833,78333,1,1,16,1 F,0,80083,80166,0.5,0
Sprite,Foreground,CentreRight,"s\holdoverlay.png",384,373 L,79166,6 F,0,0,167,0.5,0 F,0,167,333,0,0.5 V,0,79166,79666,1,1,10,1 F,0,81166,81249,0.5,0
Sprite,Foreground,CentreLeft,"s\holdoverlay.png",64,213 L,80000,8 F,2,0,167,0,0.5 F,1,167,333,0.5,0 V,0,80000,80500,1,1,24,1 F,0,82499,82582,0.5,0
Sprite,Foreground,CentreRight,"s\holdoverlay.png",384,373 L,81833,5 F,0,0,167,0.5,0 F,0,167,333,0,0.5 V,0,81833,82333,1,1,4,1 F,0,83583,83666,0.5,0
Sprite,Foreground,CentreRight,"s\holdoverlay.png",128,341 L,82500,5 F,0,0,167,0.5,0 F,0,167,333,0,0.5 V,0,82500,83000,1,1,8,1 F,0,84333,84416,0.5,0
Sprite,Foreground,CentreLeft,"s\holdoverlay.png",0,181 L,82500,5 F,0,0,167,0.5,0 F,0,167,333,0,0.5 V,0,82500,83000,1,1,8,1 F,0,84333,84416,0.5,0
Sprite,Foreground,CentreLeft,"s\holdoverlay.png",256,213 L,83166,5 F,0,0,167,0.5,0 F,0,167,333,0,0.5 V,0,83166,83666,1,1,4,1 F,0,84916,84999,0.5,0
Sprite,Foreground,CentreLeft,"s\holdoverlay.png",448,181 L,83666,6 F,2,0,167,0,0.5 F,1,167,333,0.5,0 V,0,83666,84166,1,1,10,1 F,0,85666,85749,0.5,0
Sprite,Foreground,CentreRight,"s\holdoverlay.png",640,373 L,83833,6 F,0,0,167,0.5,0 F,0,167,333,0,0.5 V,0,83833,84333,1,1,6,1 F,0,85666,85749,0.5,0
Sprite,Foreground,CentreRight,"s\holdoverlay.png",192,341 L,85000,9 F,2,0,167,0,0.5 F,1,167,333,0.5,0 V,0,85000,85500,1,1,32,1 F,0,87916,87999,0.5,0
Sprite,Foreground,CentreLeft,"s\holdoverlay.png",0,149 L,85166,8 F,0,0,167,0.5,0 F,0,167,333,0,0.5 V,0,85166,85666,1,1,28,1 F,0,87916,87999,0.5,0
Sprite,Foreground,CentreLeft,"s\holdoverlay.png",448,181 L,94333,5 F,2,0,167,0,0.5 F,1,167,333,0.5,0 V,0,94333,94833,1,1,4,1 F,0,96083,96166,0.5,0
Sprite,Foreground,CentreRight,"s\holdoverlay.png",192,405 L,95666,6 F,2,0,167,0,0.5 F,1,167,333,0.5,0 V,0,95666,96166,1,1,12,1 F,0,97749,97832,0.5,0
Sprite,Foreground,CentreLeft,"s\holdoverlay.png",0,213 L,95833,6 F,0,0,167,0.5,0 F,0,167,333,0,0.5 V,0,95833,96333,1,1,8,1 F,0,97749,97832,0.5,0
Sprite,Foreground,CentreRight,"s\holdoverlay.png",384,309 L,100500,6 F,0,0,167,0.5,0 F,0,167,333,0,0.5 V,0,100500,101000,1,1,12,1 F,0,102583,102666,0.5,0
Sprite,Foreground,CentreLeft,"s\holdoverlay.png",64,213 L,101333,5 F,2,0,167,0,0.5 F,1,167,333,0.5,0 V,0,101333,101833,1,1,4,1 F,0,103083,103166,0.5,0
Sprite,Foreground,CentreRight,"s\holdoverlay.png",128,341 L,103833,6 F,0,0,167,0.5,0 F,0,167,333,0,0.5 V,0,103833,104333,1,1,8,1 F,0,105750,105833,0.5,0
Sprite,Foreground,CentreLeft,"s\holdoverlay.png",0,149 L,103833,6 F,0,0,167,0.5,0 F,0,167,333,0,0.5 V,0,103833,104333,1,1,8,1 F,0,105750,105833,0.5,0
Sprite,Foreground,CentreRight,"s\holdoverlay.png",448,373 L,105666,5 F,2,0,167,0,0.5 F,1,167,333,0.5,0 V,0,105666,106166,1,1,4,1 F,0,107416,107499,0.5,0
Sprite,Foreground,CentreRight,"s\holdoverlay.png",192,309 L,106333,6 F,2,0,167,0,0.5 F,1,167,333,0.5,0 V,0,106333,106833,1,1,12,1 F,0,108416,108499,0.5,0
Sprite,Foreground,CentreLeft,"s\holdoverlay.png",0,117 L,106500,6 F,0,0,167,0.5,0 F,0,167,333,0,0.5 V,0,106500,107000,1,1,8,1 F,0,108416,108499,0.5,0
Sprite,Foreground,CentreRight,"s\holdoverlay.png",576,309 L,108000,6 F,2,0,167,0,0.5 F,1,167,333,0.5,0 V,0,108000,108500,1,1,8,1 F,0,109916,109999,0.5,0
Sprite,Foreground,CentreRight,"s\holdoverlay.png",384,373 L,108500,6 F,0,0,167,0.5,0 F,0,167,333,0,0.5 V,0,108500,109000,1,1,8,1 F,0,110416,110499,0.5,0
Sprite,Foreground,CentreRight,"s\holdoverlay.png",384,309 L,111166,6 F,0,0,167,0.5,0 F,0,167,333,0,0.5 V,0,111166,111666,1,1,10,1 F,0,113166,113249,0.5,0
Sprite,Foreground,CentreRight,"s\holdoverlay.png",384,373 L,113833,5 F,0,0,167,0.5,0 F,0,167,333,0,0.5 V,0,113833,114333,1,1,4,1 F,0,115583,115666,0.5,0
Sprite,Foreground,CentreLeft,"s\holdoverlay.png",64,213 L,114666,6 F,2,0,167,0,0.5 F,1,167,333,0.5,0 V,0,114666,115166,1,1,6,1 F,0,116499,116582,0.5,0
Sprite,Foreground,CentreLeft,"s\holdoverlay.png",256,181 L,115166,6 F,0,0,167,0.5,0 F,0,167,333,0,0.5 V,0,115166,115666,1,1,6,1 F,0,116999,117082,0.5,0
Sprite,Foreground,CentreRight,"s\holdoverlay.png",448,373 L,116333,5 F,2,0,167,0,0.5 F,1,167,333,0.5,0 V,0,116333,116833,1,1,4,1 F,0,118083,118166,0.5,0
Sprite,Foreground,CentreRight,"s\holdoverlay.png",320,341 L,116666,5 F,2,0,167,0,0.5 F,1,167,333,0.5,0 V,0,116666,117166,1,1,4,1 F,0,118416,118499,0.5,0
Sprite,Foreground,CentreRight,"s\holdoverlay.png",128,309 L,117166,7 F,0,0,167,0.5,0 F,0,167,333,0,0.5 V,0,117166,117666,1,1,16,1 F,0,119416,119499,0.5,0
Sprite,Foreground,CentreLeft,"s\holdoverlay.png",0,117 L,117166,7 F,0,0,167,0.5,0 F,0,167,333,0,0.5 V,0,117166,117666,1,1,16,1 F,0,119416,119499,0.5,0
Sprite,Foreground,Centre,"s\repeat.png",128,309 C,0,37000,,255,8,255 F,0,37000,37500,0,1 F,0,38749,38832,1,0
Sprite,Foreground,Centre,"s\repeat.png",256,341 C,0,39333,,255,8,255 F,0,39333,39833,0,1 F,0,41083,41166,1,0
Sprite,Foreground,Centre,"s\repeat.png",256,341 C,0,39333,,255,8,255 F,0,39333,39833,0,1 F,0,41083,41166,1,0
Sprite,Foreground,Centre,"s\repeat.png",288,341 C,0,39333,,255,8,255 F,0,39333,39833,0,1 F,0,41083,41166,1,0
Sprite,Foreground,Centre,"s\repeat.png",288,373 C,0,42000,,255,8,255 F,0,42000,42500,0,1 F,0,43666,43749,1,0
Sprite,Foreground,Centre,"s\repeat.png",320,117 C,0,43000,,255,8,255 F,0,43000,43500,0,1 F,0,44916,44999,1,0
Sprite,Foreground,Centre,"s\repeat.png",288,373 C,0,44666,,255,8,255 F,0,44666,45166,0,1 F,0,46333,46416,1,0
Sprite,Foreground,Centre,"s\repeat.png",128,341 C,0,44833,,255,8,255 F,0,44833,45333,0,1 F,0,46749,46832,1,0
Sprite,Foreground,Centre,"s\repeat.png",384,373 C,0,105666,,255,8,255 F,0,105666,106166,0,1 F,0,107416,107499,1,0
Sprite,Foreground,Centre,"s\repeat.png",512,309 C,0,108000,,255,8,255 F,0,108000,108500,0,1 F,0,109916,109999,1,0
Sprite,Foreground,Centre,"s\repeat.png",448,309 C,0,108000,,255,8,255 F,0,108000,108500,0,1 F,0,109916,109999,1,0
Sprite,Foreground,Centre,"s\repeat.png",352,373 C,0,108500,,255,8,255 F,0,108500,109000,0,1 F,0,110416,110499,1,0
Sprite,Foreground,Centre,"s\repeat.png",320,373 C,0,108500,,255,8,255 F,0,108500,109000,0,1 F,0,110416,110499,1,0
Sprite,Foreground,Centre,"s\repeat.png",256,373 C,0,108500,,255,8,255 F,0,108500,109000,0,1 F,0,110416,110499,1,0
Sprite,Foreground,Centre,"s\repeat.png",384,373 C,0,116333,,255,8,255 F,0,116333,116833,0,1 F,0,118083,118166,1,0
Sprite,Foreground,Centre,"s\repeat.png",256,341 C,0,116666,,255,8,255 F,0,116666,117166,0,1 F,0,118416,118499,1,0
Sprite,Foreground,Centre,"s\repeatoverlay.png",128,309 L,37000,5 F,2,0,167,0,0.5 F,1,167,333,0.5,0 F,0,38749,38832,0.5,0
Sprite,Foreground,Centre,"s\repeatoverlay.png",256,341 L,39333,5 F,2,0,167,0,0.5 F,1,167,333,0.5,0 F,0,41083,41166,0.5,0
Sprite,Foreground,Centre,"s\repeatoverlay.png",288,341 L,39333,5 F,2,0,167,0,0.5 F,1,167,333,0.5,0 F,0,41083,41166,0.5,0
Sprite,Foreground,Centre,"s\repeatoverlay.png",288,373 L,42000,5 F,2,0,167,0,0.5 F,1,167,333,0.5,0 F,0,43666,43749,0.5,0
Sprite,Foreground,Centre,"s\repeatoverlay.png",320,117 L,43000,6 F,2,0,167,0,0.5 F,1,167,333,0.5,0 F,0,44916,44999,0.5,0
Sprite,Foreground,Centre,"s\repeatoverlay.png",288,373 L,44666,5 F,2,0,167,0,0.5 F,1,167,333,0.5,0 F,0,46333,46416,0.5,0
Sprite,Foreground,Centre,"s\repeatoverlay.png",128,341 L,44833,6 F,0,0,167,0.5,0 F,0,167,333,0,0.5 F,0,46749,46832,0.5,0
Sprite,Foreground,Centre,"s\repeatoverlay.png",384,373 L,105666,5 F,2,0,167,0,0.5 F,1,167,333,0.5,0 F,0,107416,107499,0.5,0
Sprite,Foreground,Centre,"s\repeatoverlay.png",512,309 L,108000,6 F,2,0,167,0,0.5 F,1,167,333,0.5,0 F,0,109916,109999,0.5,0
Sprite,Foreground,Centre,"s\repeatoverlay.png",448,309 L,108000,6 F,2,0,167,0,0.5 F,1,167,333,0.5,0 F,0,109916,109999,0.5,0
Sprite,Foreground,Centre,"s\repeatoverlay.png",352,373 L,108500,6 F,0,0,167,0.5,0 F,0,167,333,0,0.5 F,0,110416,110499,0.5,0
Sprite,Foreground,Centre,"s\repeatoverlay.png",320,373 L,108500,6 F,0,0,167,0.5,0 F,0,167,333,0,0.5 F,0,110416,110499,0.5,0
Sprite,Foreground,Centre,"s\repeatoverlay.png",256,373 L,108500,6 F,0,0,167,0.5,0 F,0,167,333,0,0.5 F,0,110416,110499,0.5,0
Sprite,Foreground,Centre,"s\repeatoverlay.png",384,373 L,116333,5 F,2,0,167,0,0.5 F,1,167,333,0.5,0 F,0,118083,118166,0.5,0
Sprite,Foreground,Centre,"s\repeatoverlay.png",256,341 L,116666,5 F,2,0,167,0,0.5 F,1,167,333,0.5,0 F,0,118416,118499,0.5,0
//Storyboard Sound Samples
//Background Colour Transformations
3,100,255,255,255

[TimingPoints]
167,333.333333333333,4,2,1,100,1,0
276,-100,4,2,1,100,0,1
4166,-100,4,1,1,100,0,1
4833,-100,4,2,0,100,0,1
8833,-100,4,1,1,100,0,1
10083,-100,4,2,0,100,0,1
14833,-100,4,2,2,100,0,1
19333,-100,4,2,1,100,0,1
19875,-100,4,2,2,100,0,1
24666,-100,4,2,1,100,0,1
25250,-100,4,2,2,100,0,1
30000,-100,4,2,1,100,0,1
30500,-100,4,2,2,100,0,1
31333,-140.625,4,2,2,100,0,1
31833,-100,4,2,2,100,0,1
46208,-100,4,2,1,100,0,1
46291,-100,4,2,2,100,0,1
51333,-100,4,2,1,100,0,1
52000,-100,4,2,2,100,0,1
57500,-100,4,1,2,100,0,1
59333,-100,4,2,1,100,0,1
60166,-100,4,2,2,100,0,1
83625,-100,4,2,1,100,0,1
83708,-100,4,2,2,100,0,1
88958,-100,4,2,1,100,0,1
89041,-100,4,2,2,100,0,1
99833,-140.625,4,2,2,100,0,1
100000,-100,4,2,1,100,0,1
100083,-100,4,2,2,100,0,1
104958,-100,4,2,1,100,0,1
105041,-100,4,2,2,100,0,1
109958,-100,4,2,1,100,0,1
110375,-100,4,2,2,100,0,1
115625,-100,4,2,1,100,0,1
115708,-100,4,2,2,100,0,1
121166,-140.625,4,2,2,100,0,1
121333,-100,4,2,1,100,0,1
121375,-100,4,2,2,100,0,1
126500,-140.625000000022,4,2,2,100,0,1
126666,-100,4,2,1,100,0,1
126833,-100,4,2,2,100,0,0

[Colours]
Combo1 : 255,0,0
Combo2 : 255,0,0
Combo3 : 255,255,0
Combo4 : 0,0,255
Combo5 : 224,0,255
SliderBorder : 64,64,64
SliderTrackOverride : 255,255,0

[HitObjects]
160,256,3750,1,0
0,160,4166,53,2
64,128,4333,1,2
128,64,4500,1,8
192,128,4666,1,2
320,64,5000,1,2
512,320,5500,5,2
320,352,6000,1,0
128,320,6500,1,2
0,160,6833,53,0
64,96,7000,1,2
192,128,7333,1,0
256,64,7500,1,2
384,96,7833,1,0
448,160,8000,1,2
384,320,8500,5,0
192,320,9000,1,8
128,352,9167,1,4
64,288,9333,6,8,B|32:256,1,45
0,128,9500,37,2
64,160,9666,1,2
128,64,9833,1,8
192,128,10000,1,2
256,160,10166,1,0
320,96,10333,1,2
448,128,10666,1,0
512,256,10833,5,0
384,288,11166,1,0
320,352,11333,1,2
192,320,11666,1,0
64,352,12000,1,2
64,128,12333,53,0
128,96,12500,1,0
192,64,12666,1,0
256,160,12833,1,2
320,128,13000,1,2
384,96,13166,1,2
448,64,13333,1,2
448,320,13666,5,0
320,320,14000,1,0
128,352,14500,1,0
0,160,14833,53,2
64,96,15000,1,0
128,64,15166,1,0
192,64,15333,1,8
256,128,15500,22,0,B|288:160|288:160|320:128,1,90
384,160,15833,53,2
512,320,16166,53,10
448,352,16333,1,0
384,256,16500,1,0
320,320,16666,1,8
256,256,16833,22,0,B|224:288|224:288|192:256,1,90,8|8
128,256,17166,37,10
64,256,17333,1,8
0,128,17500,5,2
64,64,17666,6,0,B|96:96|96:96|128:64,1,90
192,128,18000,37,0
256,96,18166,1,0
320,64,18333,22,0,B|352:96|352:96|384:64,1,90,0|2
448,128,18666,37,10
512,288,18833,5,8
448,320,19000,1,2
384,256,19166,1,0
320,320,19333,1,2
256,256,19500,6,0,B|224:288|224:288|192:256,1,90,0|2
128,352,19833,37,0
64,256,20000,1,8
0,96,20167,5,0
64,128,20333,1,0
128,160,20500,1,0
192,96,20667,1,0
256,160,20833,6,0,B|288:128|288:128|320:160,1,90
384,64,21167,6,0,L|384:65|384:63|385:64|383:64|384:63|385:64|384:65|383:64|384:63|385:64|384:65|385:64|384:65|383:64|384:63|384:65|384:63|384:65|384:63|384:65|384:63|384:65|384:63|384:65|384:63|384:65|384:64,2,45,0|0|10
512,320,21500,21,0
448,352,21667,1,2
384,288,21833,1,8
320,352,22000,1,0
256,320,22167,22,0,B|192:256,1,90,8|0
128,352,22500,6,0,L|128:353|128:351|129:352|127:352|128:351|129:352|128:353|127:352|128:351|129:352|128:353|129:352|128:353|127:352|128:351|128:353|128:351|128:353|128:351|128:353|128:351|128:353|128:351|128:353|128:351|128:353|128:352,4,45,8|0|8|0|2
128,64,23166,21,0
192,128,23333,1,0
256,96,23500,1,0
320,64,23667,22,0,B|352:96|352:96|384:64,1,90,0|2
448,96,24000,53,2
512,256,24167,53,0
448,352,24333,1,2
384,320,24500,1,0
320,320,24667,1,2
256,288,24833,1,0
192,352,25000,1,8
128,288,25167,1,0
64,256,25333,1,8
0,64,25500,5,2
64,160,25667,1,0
128,64,25833,1,0
192,128,26000,6,0,B|256:64,1,90
320,160,26333,53,0
384,64,26500,6,0,B|448:128,1,90,0|8
512,256,26833,53,2
448,288,27000,6,0,B|416:320|416:320|352:256|352:256|320:288,1,180
256,288,27500,53,8
192,256,27667,6,0,B|128:320|128:320|64:256,1,180,8|10
0,128,28167,6,0,L|0:129|0:127|1:128|-1:128|0:127|1:128|0:129|-1:128|0:127|1:128|0:129|1:128|0:129|-1:128|0:127|0:129|0:127|0:129|0:127|0:129|0:127|0:129|0:127|0:129|0:127|0:129|0:128,4,45,2|0|0|0|0
256,96,28833,21,2
384,64,29167,1,0
448,128,29333,1,8
512,256,29500,5,2
448,288,29667,1,2
384,256,29833,1,0
320,352,30000,1,2
256,256,30167,6,2,B|192:320,1,90,0|8
128,352,30500,2,0,B|64:288,1,90,0|8
0,128,30833,53,2
64,160,31000,1,0
128,64,31167,1,0
192,96,31333,6,0,B|384:96,1,192
448,96,32000,37,10
512,256,32167,1,2
448,288,32333,1,0
384,352,32500,1,0
320,320,32667,1,0
256,256,32833,1,8
192,320,33000,1,8
128,256,33167,38,0,L|128:257|128:255|129:256|127:256|128:255|129:256|128:257|127:256|128:255|129:256|128:257|129:256|128:257|127:256|128:255|128:257|128:255|128:257|128:255|128:257|128:255|128:257|128:255|128:257|128:255|128:257|128:256,6,45,8|0|8|0|0|0|0
128,160,33833,21,0
192,128,34000,1,0
256,160,34167,1,0
320,128,34333,1,0
384,96,34500,1,2
448,64,34667,1,10
512,256,34833,5,2
448,288,35000,1,2
384,320,35167,1,2
320,288,35333,1,2
256,320,35500,1,2
192,352,35666,1,2
128,256,35833,1,8
0,160,36167,53,2
64,128,36333,1,0
128,64,36500,1,4
192,96,36667,22,0,B|224:128|224:128|256:96,1,90,2|0
320,160,37000,53,4
384,128,37167,1,2
448,96,37333,1,8
512,256,37500,6,0,B|448:320,1,90,0|2
384,288,37833,2,0,B|320:352,1,90,4|2
256,352,38167,2,0,B|192:288,1,90,8|14
128,256,38500,21,8
128,256,38667,1,10
0,160,38833,5,2
64,128,39000,22,0,B|128:64,1,90,0|4
160,128,39250,2,0,B|192:160,1,45,0|2
256,96,39500,53,0
320,64,39666,1,4
384,160,39833,1,2
448,96,40000,1,8
512,288,40166,6,0,B|480:320|480:320|448:288,1,90,8|2
384,256,40500,53,4
320,352,40666,1,0
256,288,40833,37,6
256,288,40916,1,0
256,288,41000,1,6
128,352,41166,21,14
64,256,41333,1,8
0,160,41500,53,2
64,128,41666,1,0
128,64,41833,1,4
192,96,42000,22,0,B|224:128|224:128|256:96,1,90
320,160,42333,53,0
384,128,42500,1,2
448,96,42666,1,8
512,256,42833,6,0,B|448:320,1,90,0|2
384,352,43166,2,0,B|320:288,1,90,8|4
256,320,43500,21,8
256,320,43583,1,8
192,288,43666,21,12
128,256,43833,6,0,B|96:288|96:288|64:256|64:256|32:288,1,135,14|2
128,64,44500,21,4
192,96,44666,5,0
128,64,44833,53,4
320,96,45000,38,0,B|384:160,1,90
448,64,45333,37,12
512,160,45500,1,2
384,288,45833,5,6
320,352,46000,1,0
256,320,46166,37,12
256,320,46250,1,2
192,288,46333,1,14
128,352,46500,5,8
192,288,46666,53,14
0,160,46833,5,2
64,96,47000,1,0
128,64,47166,1,4
192,160,47333,22,0,B|256:96,1,90,0|0
320,64,47666,53,4
384,160,47833,1,0
448,96,48000,1,8
512,256,48166,6,0,B|448:320,1,90,0|2
384,352,48500,53,12
320,256,48666,1,2
256,352,48833,6,0,B|192:288,1,90,8|12
128,320,49166,2,0,B|64:256,1,90,8|8
0,160,49500,53,2
64,64,49666,6,0,B|160:160|160:160|192:128,1,180,0|2
256,96,50166,53,0
320,160,50333,6,0,B|352:128|352:128|384:160,1,90,4|2
448,96,50666,53,10
512,256,50833,6,0,B|448:320,1,90,2|6
384,352,51166,37,4
320,320,51333,38,0,L|320:321|320:319|321:320|319:320|320:319|321:320|320:321|319:320|320:319|321:320|320:321|321:320|320:321|319:320|320:319|320:321|320:319|320:321|320:319|320:321|320:319|320:321|320:319|320:321|320:319|320:321|320:320,2,45,0|0|0
192,256,51666,2,2,L|192:257|192:255|193:256|191:256|192:255|193:256|192:257|191:256|192:255|193:256|192:257|193:256|192:257|191:256|192:255|192:257|192:255|192:257|192:255|192:257|192:255|192:257|192:255|192:257|192:255|192:257|192:256,2,45,8|0|0
64,320,52000,21,10
0,160,52166,5,2
64,64,52333,1,0
128,128,52500,1,4
192,64,52666,6,0,B|224:96|224:96|256:64,1,90,0|0
320,160,53000,53,4
384,64,53166,1,0
448,96,53333,1,10
512,256,53500,6,0,B|448:320,1,90,2|0
384,288,53833,2,0,B|320:352,1,90,4|0
256,320,54166,2,0,B|192:256,1,90,8|12
128,352,54500,37,14
64,256,54666,1,14
0,160,54833,5,2
64,96,55000,6,0,B|128:160|128:160|192:96,1,180,0|0
256,128,55500,53,4
320,64,55666,6,4,B|384:128,1,90,0|2
448,96,56000,37,8
512,256,56166,5,0
448,288,56333,1,4
384,320,56500,1,0
320,288,56666,1,4
256,352,56833,1,0
0,160,57500,53,2
64,128,57666,1,0
128,96,57833,1,8
192,160,58000,1,2
256,64,58166,1,0
320,96,58333,1,8
384,128,58500,1,2
448,160,58666,1,0
512,256,58833,5,2
448,320,59000,1,8
384,352,59166,1,2
320,288,59333,1,0
256,352,59500,1,2
192,288,59666,1,2
128,320,59833,1,2
64,256,60000,1,8
0,160,60166,1,2
64,64,60333,6,0,B|160:160,1,135
192,128,60666,37,2
256,64,60833,1,0
320,96,61000,1,4
384,160,61166,1,2
448,96,61333,1,8
512,256,61500,5,0
448,288,61666,1,2
384,320,61833,1,4
320,352,62000,1,2
256,352,62166,6,2,B|192:288,1,90,2|6
128,352,62500,37,2
64,256,62666,1,8
0,160,62833,5,2
64,128,63000,1,0
128,64,63166,1,4
192,96,63333,6,0,B|224:128|224:128|256:96,1,90
320,160,63666,53,4
384,128,63833,1,0
448,96,64000,1,8
512,256,64166,6,0,B|448:320,1,90
384,288,64500,2,0,B|320:352,1,90,12|0
256,352,64833,2,0,B|192:288,1,90,8|12
128,256,65166,2,0,B|32:352|32:352|0:320,1,180,10|2
128,64,65833,53,4
192,160,66000,1,0
256,128,66166,1,4
320,64,66333,6,0,B|384:128,1,90,0|0
448,160,66666,37,12
512,352,66833,5,2
448,352,67000,1,2
384,256,67166,1,4
320,352,67333,1,2
256,352,67500,1,2
192,288,67666,6,2,B|160:320|160:320|128:288,1,90,4|6
0,160,68166,37,2
64,160,68333,1,0
128,64,68500,1,4
192,96,68666,1,0
256,160,68833,1,0
320,160,69000,1,4
384,128,69166,1,0
448,96,69333,1,8
512,320,69500,5,2
448,288,69666,1,2
384,352,69833,1,4
320,256,70000,1,0
256,320,70166,1,8
192,352,70333,1,12
128,256,70500,1,8
64,288,70666,1,8
0,160,70833,53,2
64,160,71000,1,0
128,64,71166,1,4
192,96,71333,1,2
256,160,71500,1,0
320,64,71666,1,4
384,96,71833,1,2
448,96,72000,1,8
512,320,72166,5,2
448,320,72333,1,2
384,288,72500,1,4
320,256,72666,1,2
256,320,72833,1,10
192,352,73000,1,12
128,256,73166,1,10
64,256,73333,1,8
0,160,73500,53,2
64,128,73666,1,0
128,64,73833,1,4
192,96,74000,1,0
256,160,74166,1,0
320,128,74333,1,4
384,96,74500,1,0
448,128,74666,1,8
512,352,74833,5,2
448,352,75000,1,2
384,320,75166,1,4
320,288,75333,1,2
256,352,75500,1,8
192,320,75666,1,12
128,288,75833,1,10
64,256,76000,1,10
0,160,76166,53,2
64,128,76333,1,0
128,64,76500,1,4
192,96,76666,1,0
256,64,76833,1,4
320,96,77000,1,4
384,128,77166,1,6
448,96,77333,1,8
512,256,77500,22,0,B|416:352,1,135,0|0
384,256,77833,2,0,B|288:352,1,135,0|0
256,256,78166,2,0,B|160:352,1,135,0|0
128,256,78500,2,2,B|32:352,1,135,0|0
0,320,78833,37,0
128,64,79167,5,4
192,96,79333,22,0,L|192:97|192:95|193:96|191:96|192:95|193:96|192:97|191:96|192:95|193:96|192:97|193:96|192:97|191:96|192:95|192:97|192:95|192:97|192:95|192:97|192:95|192:97|192:95|192:97|192:95|192:97|192:96,8,45,0|0|0|0|4|0|0|0|0
384,352,80500,21,4
320,320,80666,38,0,L|320:321|320:319|321:320|319:320|320:319|321:320|320:321|319:320|320:319|321:320|320:321|321:320|320:321|319:320|320:319|320:321|320:319|320:321|320:319|320:321|320:319|320:321|320:319|320:321|320:319|320:321|320:320,5,45,0|0|0|0|4|0
0,160,81500,2,0,L|0:161|0:159|1:160|-1:160|0:159|1:160|0:161|-1:160|0:159|1:160|0:161|1:160|0:161|-1:160|0:159|0:161|0:159|0:161|0:159|0:161|0:159|0:161|0:159|0:161|0:159|0:161|0:160,12,45,0|0|0|0|4|0|0|0|0|0|4|0|0
512,352,82833,21,2
448,320,83000,1,2
384,256,83167,1,8
320,320,83333,38,2,L|320:321|320:319|321:320|319:320|320:319|321:320|320:321|319:320|320:319|321:320|320:321|321:320|320:321|319:320|320:319|320:321|320:319|320:321|320:319|320:321|320:319|320:321|320:319|320:321|320:319|320:321|320:320,2,45,2|0|2
192,256,83667,21,8
128,352,83833,1,10
64,288,84000,38,0,L|64:289|64:287|65:288|63:288|64:287|65:288|64:289|63:288|64:287|65:288|64:289|65:288|64:289|63:288|64:287|64:289|64:287|64:289|64:287|64:289|64:287|64:289|64:287|64:289|64:287|64:289|64:288,4,45
128,64,84500,21,8
192,160,84667,38,0,L|192:161|192:159|193:160|191:160|192:159|193:160|192:161|191:160|192:159|193:160|192:161|193:160|192:161|191:160|192:159|192:161|192:159|192:161|192:159|192:161|192:159|192:161|192:159|192:161|192:159|192:161|192:160,2,45,0|0|0
320,64,85000,21,8
384,128,85167,38,0,L|384:129|384:127|385:128|383:128|384:127|385:128|384:129|383:128|384:127|385:128|384:129|385:128|384:129|383:128|384:127|384:129|384:127|384:129|384:127|384:129|384:127|384:129|384:127|384:129|384:127|384:129|384:128,5,45,0|0|8|0|2|0
384,256,85833,21,0
256,320,86167,1,8
192,256,86333,1,8
128,288,86500,38,0,L|128:289|128:287|129:288|127:288|128:287|129:288|128:289|127:288|128:287|129:288|128:289|129:288|128:289|127:288|128:287|128:289|128:287|128:289|128:287|128:289|128:287|128:289|128:287|128:289|128:287|128:289|128:288,16,45,10|2|10|2|2|0|0|0|0|0|0|0|0|0|0|0|0
512,352,88167,54,0,B|448:288,1,90,0|2
384,256,88500,53,8
320,352,88667,1,2
256,320,88833,6,2,B|192:256,1,90,2|2
128,352,89167,37,2
64,288,89333,1,8
0,160,89500,5,2
64,96,89667,1,0
128,64,89833,1,0
192,64,90000,1,0
256,128,90167,6,0,B|288:160|288:160|320:128,1,90
384,160,90500,37,0
448,64,90667,1,10
512,320,90833,1,2
448,352,91000,1,2
384,256,91167,5,8
320,288,91333,1,2
256,256,91500,6,0,B|224:288|224:288|192:256,1,90,8|8
128,256,91833,37,8
64,256,92000,1,8
0,160,92167,5,0
64,64,92333,6,0,B|96:96|96:96|128:64,1,90
192,128,92667,53,0
256,96,92833,1,0
320,64,93000,6,0,B|352:96|352:96|384:64,1,90
448,128,93333,37,8
512,288,93500,5,0
448,320,93667,1,0
384,256,93833,1,8
320,320,94000,1,0
256,256,94167,6,10,B|224:288|224:288|192:256,1,90
128,352,94500,37,8
64,256,94667,1,8
0,96,94833,5,4
64,128,95000,1,0
128,160,95167,1,0
192,96,95333,1,4
256,160,95500,6,0,B|288:128|288:128|320:160,1,90
384,128,95833,6,0,L|384:129|384:127|385:128|383:128|384:127|385:128|384:129|383:128|384:127|385:128|384:129|385:128|384:129|383:128|384:127|384:129|384:127|384:129|384:127|384:129|384:127|384:129|384:127|384:129|384:127|384:129|384:128,2,45,0|0|8
512,320,96167,21,4
448,352,96333,1,0
384,288,96500,1,0
320,352,96667,1,4
256,320,96833,22,0,B|192:256,1,90,8|8
128,352,97167,6,0,L|128:353|128:351|129:352|127:352|128:351|129:352|128:353|127:352|128:351|129:352|128:353|129:352|128:353|127:352|128:351|128:353|128:351|128:353|128:351|128:353|128:351|128:353|128:351|128:353|128:351|128:353|128:352,6,45,8|0|8|0|0|0|0
192,128,98000,21,0
256,160,98167,1,2
320,128,98333,1,0
384,96,98500,1,2
448,64,98667,1,12
320,352,99333,5,0
192,320,99667,1,2
128,288,99833,6,2,B|64:288,1,64,0|2
0,160,100167,37,0
64,128,100333,1,0
128,64,100500,1,0
192,128,100667,1,0
256,96,100833,1,0
320,64,101000,1,0
384,64,101167,1,0
512,256,101500,22,0,B|448:320,1,90
384,320,101833,37,0
320,256,102000,38,0,L|320:257|320:255|321:256|319:256|320:255|321:256|320:257|319:256|320:255|321:256|320:257|321:256|320:257|319:256|320:255|320:257|320:255|320:257|320:255|320:257|320:255|320:257|320:255|320:257|320:255|320:257|320:256,6,45
0,160,102833,2,0,L|0:162|2:159|-1:158|-2:161|1:162|2:160|0:158|-2:160|-1:162|2:161|1:158|-2:159|0:161|2:160|0:159|0:161|0:160,2,45,0|0|0
128,96,103167,21,0
192,160,103333,1,0
256,96,103500,1,2
320,64,103667,1,0
384,128,103833,1,0
448,128,104000,1,2
512,256,104167,5,0
448,288,104333,1,0
384,320,104500,1,0
320,352,104667,1,2
256,288,104833,1,2
192,320,105000,1,2
128,352,105167,1,2
64,288,105333,22,0,L|64:289|64:287|65:288|63:288|64:287|65:288|64:289|63:288|64:287|65:288|64:289|65:288|64:289|63:288|64:287|64:289|64:287|64:289|64:287|64:289|64:287|64:289|64:287|64:289|64:287|64:289|64:288,3,45,0|0|0|0
128,64,105833,37,0
256,160,106167,6,0,B|320:96,1,90
384,64,106500,37,0
448,160,106667,1,0
512,352,106833,5,0
384,320,107167,37,0
384,320,107333,1,0
192,288,107667,5,8
128,256,107833,38,0,L|128:257|128:255|129:256|127:256|128:255|129:256|128:257|127:256|128:255|129:256|128:257|129:256|128:257|127:256|128:255|128:257|128:255|128:257|128:255|128:257|128:255|128:257|128:255|128:257|128:255|128:257|128:256,6,45
256,64,108833,21,0
320,160,109000,1,0
384,64,109167,1,0
448,128,109333,1,0
512,256,109500,53,0
512,256,109667,1,0
512,256,109833,1,0
320,320,110000,1,2
320,320,110083,1,0
320,320,110167,1,0
320,320,110333,1,8
128,352,110500,5,0
0,64,110833,5,2
64,160,111000,1,0
128,128,111167,1,0
192,64,111333,1,0
256,160,111500,1,0
320,96,111667,1,0
384,64,111833,1,0
448,96,112000,1,8
512,256,112167,53,0
448,288,112333,1,0
384,320,112500,1,0
320,256,112667,38,0,L|320:257|320:255|321:256|319:256|320:255|321:256|320:257|319:256|320:255|321:256|320:257|321:256|320:257|319:256|320:255|320:257|320:255|320:257|320:255|320:257|320:255|320:257|320:255|320:257|320:255|320:257|320:256,5,45
64,256,113333,21,0
0,160,113500,5,0
64,160,113667,1,0
128,128,113833,6,0,B|160:160|160:160|192:128,1,90
256,128,114167,37,2
320,128,114333,1,0
384,64,114500,1,2
448,160,114667,1,8
512,256,114833,5,0
448,288,115000,1,0
384,256,115167,1,0
320,320,115333,22,2,L|320:321|320:319|321:320|319:320|320:319|321:320|320:321|319:320|320:319|321:320|320:321|321:320|320:321|319:320|320:319|320:321|320:319|320:321|320:319|320:321|320:319|320:321|320:319|320:321|320:319|320:321|320:320,2,45,0|0|0
192,320,115667,37,2
128,256,115833,6,0,B|64:320,1,90,0|0
0,160,116167,6,0,L|0:161|0:159|1:160|-1:160|0:159|1:160|0:161|-1:160|0:159|1:160|0:161|1:160|0:161|-1:160|0:159|0:161|0:159|0:161|0:159|0:161|0:159|0:161|0:159|0:161|0:159|0:161|0:160,3,45
192,128,116667,2,0,L|192:129|192:127|193:128|191:128|192:127|193:128|192:129|191:128|192:127|193:128|192:129|193:128|192:129|191:128|192:127|192:129|192:127|192:129|192:127|192:129|192:127|192:129|192:127|192:129|192:127|192:129|192:128,3,45,0|0|0|0
384,64,117167,21,0
512,288,117500,5,0
384,320,117833,37,0
384,320,118000,1,0
256,288,118167,1,0
256,288,118333,1,0
128,256,118500,5,0
64,256,118667,38,0,L|64:257|64:255|65:256|63:256|64:255|65:256|64:257|63:256|64:255|65:256|64:257|65:256|64:257|63:256|64:255|64:257|64:255|64:257|64:255|64:257|64:255|64:257|64:255|64:257|64:255|64:257|64:256,8,45
320,64,119667,54,0,B|352:96|352:96|384:64,1,90
448,96,120000,37,8
512,256,120167,5,2
448,352,120333,1,0
384,320,120500,1,2
320,256,120667,1,2
192,320,121000,1,0
128,288,121167,6,2,B|64:288,1,64
0,160,121500,53,0
64,128,121667,1,0
128,128,121833,1,2
192,64,122000,1,0
256,96,122167,6,0,B|320:160,1,90
384,160,122500,53,0
448,128,122667,1,8
512,256,122833,6,0,B|448:320,1,90
384,288,123167,2,0,B|320:352,1,90
256,288,123500,2,0,B|192:352|192:352|128:288,1,180
64,288,124000,37,0
0,160,124167,5,2
64,128,124333,6,0,B|96:160|96:160|128:128,1,90
192,96,124667,53,0
256,96,124833,1,2
320,64,125000,6,0,B|384:128,1,90
448,96,125333,37,8
512,352,125500,5,4
448,352,125667,1,0
384,320,125833,1,0
320,288,126000,1,4
192,256,126333,1,2
128,320,126500,6,2,B|64:320,1,64,0|2
