osu file format v9

[General]
AudioFilename: M2U - BlythE.ogg
AudioLeadIn: 0
PreviewTime: 4109
Countdown: 0
SampleSet: Soft
StackLeniency: 0
Mode: 0
LetterboxInBreaks: 0
SkinPreference:DJMax Osuka

[Editor]
Bookmarks: 14833,25500,78833,100166
DistanceSpacing: 0.8
BeatDivisor: 4
GridSize: 32

[Metadata]
Title:BlythE (Osuka)
Artist:M2U
Creator:ziin
Version:Hard
Source:DJMAX Technika
Tags:

[Difficulty]
HPDrainRate:4
CircleSize:6
OverallDifficulty:6
ApproachRate:3
SliderMultiplier:1.8
SliderTickRate:4

[Events]
//Background and Video events
0,0,"BlythE_bg4.jpg"
Video,-50,"BlythE_video.avi"
//Break Periods
2,56867,57893
2,78949,81393
//Storyboard Layer 0 (Background)
//Storyboard Layer 1 (Fail)
//Storyboard Layer 2 (Pass)
//Storyboard Layer 3 (Foreground)
Sprite,Foreground,Centre,"s\67.png",0,265 V,0,0,,1,1,641,3 F,0,833,1166,0,1 F,0,130000,130500,1,0 F,0,130500,133000,0
Sprite,Foreground,TopLeft,"s\bar.png",320,240 L,1320,16 M,0,0,2666,0,265,1024,265 M,0,2666,5333,0,265,1024,265 M,0,5333,8000,0,265,1024,265 R,0,0,,3.14 V,0,0,,1,180
Sprite,Foreground,TopLeft,"s\bar.png",320,240 L,2653,16 M,0,0,2666,640,268,-384,268 M,0,2666,5333,640,268,-384,268 M,0,5333,8000,640,268,-384,268 V,0,0,,1,180
Sprite,Foreground,BottomLeft,"s\flash.png",0,265 L,791,16 F,0,0,42,0,1 F,0,42,209,1,0 F,0,334,375,0,1 F,0,375,542,1,0 F,0,2667,2709,0,1 F,0,2709,2876,1,0 F,0,3001,3042,0,1 F,0,3042,3209,1,0 F,0,5333,5375,0,1 F,0,5375,5542,1,0 F,0,5667,5708,0,1 F,0,5708,5875,1,0 F,0,5875,8000,0 P,0,0,,H
Sprite,Foreground,TopRight,"s\flash.png",640,268 L,2125,16 F,0,0,42,0,1 F,0,42,209,1,0 F,0,334,375,0,1 F,0,375,542,1,0 F,0,2667,2709,0,1 F,0,2709,2876,1,0 F,0,3001,3042,0,1 F,0,3042,3209,1,0 F,0,5333,5375,0,1 F,0,5375,5542,1,0 F,0,5667,5708,0,1 F,0,5708,5875,1,0 F,0,5875,8000,0
Sprite,Foreground,Centre,"s\bc.png",28,116 L,833,16 F,0,0,,1 F,0,166,,0 F,0,2666,,1 F,0,2833,,0 F,0,5333,,1 F,0,5500,8000,0
Sprite,Foreground,Centre,"s\bb.png",28,116 L,1000,16 F,0,0,,1 F,0,166,,0 F,0,2666,,1 F,0,2833,,0 F,0,5333,,1 F,0,5500,8000,0
Sprite,Foreground,Centre,"s\ba.png",28,116 L,1166,16 F,0,0,,1 F,0,166,,0 F,0,2666,,1 F,0,2833,,0 F,0,5333,,1 F,0,5500,8000,0
Sprite,Foreground,Centre,"s\bc.png",612,299 L,2166,16 F,0,0,,1 F,0,166,,0 F,0,2666,,1 F,0,2833,,0 F,0,5333,,1 F,0,5500,8000,0
Sprite,Foreground,Centre,"s\bb.png",612,299 L,2333,16 F,0,0,,1 F,0,166,,0 F,0,2666,,1 F,0,2833,,0 F,0,5333,,1 F,0,5500,8000,0
Sprite,Foreground,Centre,"s\ba.png",612,299 L,2500,16 F,0,0,,1 F,0,166,,0 F,0,2666,,1 F,0,2833,,0 F,0,5333,,1 F,0,5500,8000,0
Sprite,Foreground,CentreLeft,"s\hold.png",256,149 C,0,13833,,0,0,192 F,0,13833,14333,0,1 V,0,13833,14333,1,1,12,1 F,0,15916,15999,1,0
Sprite,Foreground,CentreLeft,"s\hold.png",256,149 C,0,24500,,0,0,192 F,0,24500,25000,0,1 V,0,24500,25000,1,1,20,1 F,0,26916,26999,1,0
Sprite,Foreground,CentreLeft,"s\holdoverlay.png",256,149 L,24500,7 F,2,0,167,0.5,0 F,1,167,333,0,0.5 V,0,24500,25000,1,1,20,1
Sprite,Foreground,CentreRight,"s\hold.png",192,341 C,0,21000,,0,0,192 F,0,21000,21500,0,1 V,0,21000,21500,1,1,12,1 F,0,25083,25166,1,0
Sprite,Foreground,CentreLeft,"s\hold.png",0,149 C,0,21166,,0,0,192 F,0,21166,21666,0,1 V,0,21166,21666,1,1,40,1 F,0,25083,25166,1,0
Sprite,Foreground,CentreRight,"s\hold.png",640,341 C,0,22500,,0,0,192 F,0,22500,23000,0,1 V,0,22500,23000,1,1,24,1 F,0,25083,25166,1,0
Sprite,Foreground,CentreRight,"s\hold.png",320,309 C,0,26000,,0,0,192 F,0,26000,26500,0,1 V,0,26000,26500,1,1,8,1 F,0,27916,27999,1,0
Sprite,Foreground,CentreLeft,"s\hold.png",64,213 C,0,26666,,0,0,192 F,0,26666,27166,0,1 V,0,26666,27166,1,1,20,1 F,0,29083,29166,1,0
Sprite,Foreground,CentreRight,"s\hold.png",128,309 C,0,29166,,0,0,192 F,0,29166,29666,0,1 V,0,29166,29666,1,1,8,1 F,0,30999,31082,1,0
Sprite,Foreground,CentreLeft,"s\hold.png",0,117 C,0,29166,,0,0,192 F,0,29166,29666,0,1 V,0,29166,29666,1,1,8,1 F,0,30999,31082,1,0
Sprite,Foreground,CentreLeft,"s\hold.png",256,213 C,0,29833,,0,0,192 F,0,29833,30333,0,1 V,0,29833,30333,1,1,4,1 F,0,31583,31666,1,0
Sprite,Foreground,CentreLeft,"s\hold.png",448,117 C,0,30333,,0,0,192 F,0,30333,30833,0,1 V,0,30333,30833,1,1,12,1 F,0,32249,32332,1,0
Sprite,Foreground,CentreRight,"s\hold.png",640,309 C,0,30333,,0,0,192 F,0,30333,30833,0,1 V,0,30333,30833,1,1,4,1 F,0,32249,32332,1,0
Sprite,Foreground,CentreRight,"s\hold.png",192,309 C,0,31666,,0,0,192 F,0,31666,32166,0,1 V,0,31666,32166,1,1,28,1 F,0,34583,34666,1,0
Sprite,Foreground,CentreLeft,"s\hold.png",0,117 C,0,31833,,0,0,192 F,0,31833,32333,0,1 V,0,31833,32333,1,1,26,1 F,0,34583,34666,1,0
Sprite,Foreground,CentreRight,"s\hold.png",384,373 C,0,49833,,0,0,192 F,0,49833,50333,0,1 V,0,49833,50333,1,1,4,1 F,0,51583,51666,1,0
Sprite,Foreground,CentreRight,"s\hold.png",256,309 C,0,50166,,0,0,192 F,0,50166,50666,0,1 V,0,50166,50666,1,1,4,1 F,0,51916,51999,1,0
Sprite,Foreground,CentreRight,"s\hold.png",192,341 C,0,66333,,0,0,192 F,0,66333,66833,0,1 V,0,66333,66833,1,1,4,1 F,0,68083,68166,1,0
Sprite,Foreground,CentreRight,"s\hold.png",192,309 C,0,85000,,0,0,192 F,0,85000,85500,0,1 V,0,85000,85500,1,1,24,1 F,0,87583,87666,1,0
Sprite,Foreground,CentreLeft,"s\hold.png",0,117 C,0,85166,,0,0,192 F,0,85166,85666,0,1 V,0,85166,85666,1,1,20,1 F,0,87583,87666,1,0
Sprite,Foreground,CentreRight,"s\hold.png",320,405 C,0,92666,,0,0,192 F,0,92666,93166,0,1 V,0,92666,93166,1,1,4,1 F,0,94416,94499,1,0
Sprite,Foreground,CentreRight,"s\hold.png",192,309 C,0,93000,,0,0,192 F,0,93000,93500,0,1 V,0,93000,93500,1,1,4,1 F,0,94749,94832,1,0
Sprite,Foreground,CentreLeft,"s\hold.png",256,149 C,0,99166,,0,0,192 F,0,99166,99666,0,1 V,0,99166,99666,1,1,20,1 F,0,101583,101666,1,0
Sprite,Foreground,CentreRight,"s\hold.png",384,309 C,0,100500,,0,0,192 F,0,100500,101000,0,1 V,0,100500,101000,1,1,12,1 F,0,102583,102666,1,0
Sprite,Foreground,CentreLeft,"s\hold.png",64,213 C,0,101333,,0,0,192 F,0,101333,101833,0,1 V,0,101333,101833,1,1,24,1 F,0,103916,103999,1,0
Sprite,Foreground,CentreRight,"s\hold.png",384,373 C,0,103166,,0,0,192 F,0,103166,103666,0,1 V,0,103166,103666,1,1,4,1 F,0,104916,104999,1,0
Sprite,Foreground,CentreRight,"s\hold.png",128,341 C,0,103833,,0,0,192 F,0,103833,104333,0,1 V,0,103833,104333,1,1,8,1 F,0,105749,105832,1,0
Sprite,Foreground,CentreLeft,"s\hold.png",0,149 C,0,103833,,0,0,192 F,0,103833,104333,0,1 V,0,103833,104333,1,1,8,1 F,0,105749,105832,1,0
Sprite,Foreground,CentreLeft,"s\hold.png",256,181 C,0,104500,,0,0,192 F,0,104500,105000,0,1 V,0,104500,105000,1,1,4,1 F,0,106249,106332,1,0
Sprite,Foreground,CentreLeft,"s\hold.png",448,117 C,0,105000,,0,0,192 F,0,105000,105500,0,1 V,0,105000,105500,1,1,12,1 F,0,106916,106999,1,0
Sprite,Foreground,CentreRight,"s\hold.png",640,309 C,0,105000,,0,0,192 F,0,105000,105500,0,1 V,0,105000,105500,1,1,4,1 F,0,106916,106999,1,0
Sprite,Foreground,CentreRight,"s\hold.png",192,309 C,0,106333,,0,0,192 F,0,106333,106833,0,1 V,0,106333,106833,1,1,16,1 F,0,109749,109832,1,0
Sprite,Foreground,CentreLeft,"s\hold.png",0,117 C,0,106500,,0,0,192 F,0,106500,107000,0,1 V,0,106500,107000,1,1,40,1 F,0,109749,109832,1,0
Sprite,Foreground,CentreRight,"s\hold.png",640,309 C,0,107833,,0,0,192 F,0,107833,108333,0,1 V,0,107833,108333,1,1,8,1 F,0,109749,109832,1,0
Sprite,Foreground,CentreLeft,"s\hold.png",256,149 C,0,109833,,0,0,192 F,0,109833,110333,0,1 V,0,109833,110333,1,1,20,1 F,0,112249,112332,1,0
Sprite,Foreground,CentreRight,"s\hold.png",384,309 C,0,111166,,0,0,192 F,0,111166,111666,0,1 V,0,111166,111666,1,1,12,1 F,0,113249,113332,1,0
Sprite,Foreground,CentreLeft,"s\hold.png",64,213 C,0,112000,,0,0,192 F,0,112000,112500,0,1 V,0,112000,112500,1,1,20,1 F,0,114416,114499,1,0
Sprite,Foreground,CentreRight,"s\hold.png",384,373 C,0,113833,,0,0,192 F,0,113833,114333,0,1 V,0,113833,114333,1,1,4,1 F,0,115583,115666,1,0
Sprite,Foreground,CentreRight,"s\hold.png",128,341 C,0,114500,,0,0,192 F,0,114500,115000,0,1 V,0,114500,115000,1,1,8,1 F,0,116416,116499,1,0
Sprite,Foreground,CentreLeft,"s\hold.png",0,149 C,0,114500,,0,0,192 F,0,114500,115000,0,1 V,0,114500,115000,1,1,8,1 F,0,116416,116499,1,0
Sprite,Foreground,CentreLeft,"s\hold.png",256,181 C,0,115166,,0,0,192 F,0,115166,115666,0,1 V,0,115166,115666,1,1,4,1 F,0,116916,116999,1,0
Sprite,Foreground,CentreLeft,"s\hold.png",448,117 C,0,115666,,0,0,192 F,0,115666,116166,0,1 V,0,115666,116166,1,1,8,1 F,0,117583,117666,1,0
Sprite,Foreground,CentreRight,"s\hold.png",192,309 C,0,117000,,0,0,192 F,0,117000,117500,0,1 V,0,117000,117500,1,1,14,1 F,0,120416,120499,1,0
Sprite,Foreground,CentreLeft,"s\hold.png",0,117 C,0,117166,,0,0,192 F,0,117166,117666,0,1 V,0,117166,117666,1,1,40,1 F,0,120416,120499,1,0
Sprite,Foreground,CentreRight,"s\hold.png",640,309 C,0,118500,,0,0,192 F,0,118500,119000,0,1 V,0,118500,119000,1,1,8,1 F,0,120416,120499,1,0
Sprite,Foreground,CentreLeft,"s\holdoverlay.png",256,149 L,13833,6 F,2,0,167,0.5,0 F,1,167,333,0,0.5 V,0,13833,14333,1,1,12,1
Sprite,Foreground,CentreRight,"s\holdoverlay.png",192,341 L,21000,12 F,2,0,167,0,0.5 F,1,167,333,0.5,0 V,0,21000,21500,1,1,12,1
Sprite,Foreground,CentreLeft,"s\holdoverlay.png",0,149 L,21166,11 F,2,0,167,0.5,0 F,1,167,333,0,0.5 V,0,21166,21666,1,1,40,1
Sprite,Foreground,CentreRight,"s\holdoverlay.png",640,341 L,22500,7 F,2,0,167,0.5,0 F,1,167,333,0,0.5 V,0,22500,23000,1,1,24,1
Sprite,Foreground,CentreRight,"s\holdoverlay.png",320,309 L,26000,5 F,2,0,167,0,0.5 F,1,167,333,0.5,0 V,0,26000,26500,1,1,8,1
Sprite,Foreground,CentreLeft,"s\holdoverlay.png",64,213 L,26666,7 F,2,0,167,0,0.5 F,1,167,333,0.5,0 V,0,26666,27166,1,1,20,1
Sprite,Foreground,CentreRight,"s\holdoverlay.png",128,309 L,29166,5 F,2,0,167,0.5,0 F,1,167,333,0,0.5 V,0,29166,29666,1,1,8,1
Sprite,Foreground,CentreLeft,"s\holdoverlay.png",0,117 L,29166,5 F,2,0,167,0.5,0 F,1,167,333,0,0.5 V,0,29166,29666,1,1,8,1
Sprite,Foreground,CentreLeft,"s\holdoverlay.png",256,213 L,29833,4 F,2,0,167,0.5,0 F,1,167,333,0,0.5 V,0,29833,30333,1,1,4,1
Sprite,Foreground,CentreLeft,"s\holdoverlay.png",448,117 L,30333,6 F,2,0,167,0,0.5 F,1,167,333,0.5,0 V,0,30333,30833,1,1,12,1
Sprite,Foreground,CentreRight,"s\holdoverlay.png",640,309 L,30333,6 F,2,0,167,0,0.5 F,1,167,333,0.5,0 V,0,30333,30833,1,1,4,1
Sprite,Foreground,CentreRight,"s\holdoverlay.png",192,309 L,31666,6 F,2,0,167,0,0.5 F,1,167,333,0.5,0 V,0,31666,32166,1,1,28,1
Sprite,Foreground,CentreLeft,"s\holdoverlay.png",0,117 L,31833,8 F,2,0,167,0.5,0 F,1,167,333,0,0.5 V,0,31833,32333,1,1,26,1
Sprite,Foreground,CentreRight,"s\holdoverlay.png",384,373 L,49833,8 F,2,0,167,0.5,0 F,1,167,333,0,0.5 V,0,49833,50333,1,1,4,1
Sprite,Foreground,CentreRight,"s\holdoverlay.png",256,309 L,50166,5 F,2,0,167,0.5,0 F,1,167,333,0,0.5 V,0,50166,50666,1,1,4,1
Sprite,Foreground,CentreRight,"s\holdoverlay.png",192,341 L,66333,5 F,2,0,167,0,0.5 F,1,167,333,0.5,0 V,0,66333,66833,1,1,4,1
Sprite,Foreground,CentreRight,"s\holdoverlay.png",192,309 L,85000,8 F,2,0,167,0,0.5 F,1,167,333,0.5,0 V,0,85000,85500,1,1,24,1
Sprite,Foreground,CentreLeft,"s\holdoverlay.png",0,117 L,85166,7 F,2,0,167,0.5,0 F,1,167,333,0,0.5 V,0,85166,85666,1,1,20,1
Sprite,Foreground,CentreRight,"s\holdoverlay.png",320,405 L,92666,5 F,2,0,167,0,0.5 F,1,167,333,0.5,0 V,0,92666,93166,1,1,4,1
Sprite,Foreground,CentreRight,"s\holdoverlay.png",192,309 L,93000,5 F,2,0,167,0,0.5 F,1,167,333,0.5,0 V,0,93000,93500,1,1,4,1
Sprite,Foreground,CentreLeft,"s\holdoverlay.png",256,149 L,99166,7 F,2,0,167,0.5,0 F,1,167,333,0,0.5 V,0,99166,99666,1,1,20,1
Sprite,Foreground,CentreRight,"s\holdoverlay.png",384,309 L,100500,6 F,2,0,167,0.5,0 F,1,167,333,0,0.5 V,0,100500,101000,1,1,12,1
Sprite,Foreground,CentreLeft,"s\holdoverlay.png",64,213 L,101333,8 F,2,0,167,0,0.5 F,1,167,333,0.5,0 V,0,101333,101833,1,1,24,1
Sprite,Foreground,CentreRight,"s\holdoverlay.png",384,373 L,103166,5 F,2,0,167,0.5,0 F,1,167,333,0,0.5 V,0,103166,103666,1,1,4,1
Sprite,Foreground,CentreRight,"s\holdoverlay.png",128,341 L,103833,6 F,2,0,167,0.5,0 F,1,167,333,0,0.5 V,0,103833,104333,1,1,8,1
Sprite,Foreground,CentreLeft,"s\holdoverlay.png",0,149 L,103833,6 F,2,0,167,0,0.5 F,1,167,333,0.5,0 V,0,103833,104333,1,1,8,1
Sprite,Foreground,CentreLeft,"s\holdoverlay.png",256,181 L,104500,5 F,2,0,167,0.5,0 F,1,167,333,0,0.5 V,0,104500,105000,1,1,4,1
Sprite,Foreground,CentreLeft,"s\holdoverlay.png",448,117 L,105000,6 F,2,0,167,0,0.5 F,1,167,333,0.5,0 V,0,105000,105500,1,1,12,1
Sprite,Foreground,CentreRight,"s\holdoverlay.png",640,309 L,105000,6 F,2,0,167,0,0.5 F,1,167,333,0.5,0 V,0,105000,105500,1,1,4,1
Sprite,Foreground,CentreRight,"s\holdoverlay.png",192,309 L,106333,10 F,2,0,167,0,0.5 F,1,167,333,0.5,0 V,0,106333,106833,1,1,16,1
Sprite,Foreground,CentreLeft,"s\holdoverlay.png",0,117 L,106500,10 F,2,0,167,0.5,0 F,1,167,333,0,0.5 V,0,106500,107000,1,1,40,1
Sprite,Foreground,CentreRight,"s\holdoverlay.png",640,309 L,107833,6 F,2,0,167,0.5,0 F,1,167,333,0,0.5 V,0,107833,108333,1,1,8,1
Sprite,Foreground,CentreLeft,"s\holdoverlay.png",256,149 L,109833,7 F,2,0,167,0.5,0 F,1,167,333,0,0.5 V,0,109833,110333,1,1,20,1
Sprite,Foreground,CentreRight,"s\holdoverlay.png",384,309 L,111166,6 F,2,0,167,0.5,0 F,1,167,333,0,0.5 V,0,111166,111666,1,1,12,1
Sprite,Foreground,CentreLeft,"s\holdoverlay.png",64,213 L,112000,7 F,2,0,167,0,0.5 F,1,167,333,0.5,0 V,0,112000,112500,1,1,20,1
Sprite,Foreground,CentreRight,"s\holdoverlay.png",384,373 L,113833,5 F,2,0,167,0.5,0 F,1,167,333,0,0.5 V,0,113833,114333,1,1,4,1
Sprite,Foreground,CentreRight,"s\holdoverlay.png",128,341 L,114500,6 F,2,0,167,0.5,0 F,1,167,333,0,0.5 V,0,114500,115000,1,1,8,1
Sprite,Foreground,CentreLeft,"s\holdoverlay.png",0,149 L,114500,6 F,2,0,167,0.5,0 F,1,167,333,0,0.5 V,0,114500,115000,1,1,8,1
Sprite,Foreground,CentreLeft,"s\holdoverlay.png",256,181 L,115166,5 F,2,0,167,0.5,0 F,1,167,333,0,0.5 V,0,115166,115666,1,1,4,1
Sprite,Foreground,CentreLeft,"s\holdoverlay.png",448,117 L,115666,6 F,2,0,167,0,0.5 F,1,167,333,0.5,0 V,0,115666,116166,1,1,8,1
Sprite,Foreground,CentreRight,"s\holdoverlay.png",192,309 L,117000,10 F,2,0,167,0,0.5 F,1,167,333,0.5,0 V,0,117000,117500,1,1,14,1
Sprite,Foreground,CentreLeft,"s\holdoverlay.png",0,117 L,117166,10 F,2,0,167,0.5,0 F,1,167,333,0,0.5 V,0,117166,117666,1,1,40,1
Sprite,Foreground,CentreRight,"s\holdoverlay.png",640,309 L,118500,6 F,2,0,167,0.5,0 F,1,167,333,0,0.5 V,0,118500,119000,1,1,8,1
//Storyboard Sound Samples
//Background Colour Transformations
3,100,255,255,255

[TimingPoints]
167,333.333333333333,4,2,1,100,1,0
276,-100,4,2,1,100,0,1
4166,-100,4,1,1,100,0,1
4833,-100,4,2,0,100,0,1
8833,-100,4,1,1,100,0,1
10083,-100,4,2,0,100,0,1
14833,-100,4,2,2,100,0,1
19333,-100,4,2,1,100,0,1
19875,-100,4,2,2,100,0,1
24666,-100,4,2,1,100,0,1
25250,-100,4,2,2,100,0,1
30000,-100,4,2,1,100,0,1
30500,-100,4,2,2,100,0,1
46208,-100,4,2,1,100,0,1
46291,-100,4,2,2,100,0,1
51333,-100,4,2,1,100,0,1
52000,-100,4,2,2,100,0,1
57500,-100,4,1,2,100,0,1
59333,-100,4,2,1,100,0,1
60166,-100,4,2,2,100,0,1
83625,-100,4,2,1,100,0,1
83708,-100,4,2,2,100,0,1
88958,-100,4,2,1,100,0,1
89041,-100,4,2,2,100,0,1
100000,-100,4,2,1,100,0,1
100083,-100,4,2,2,100,0,1
104958,-100,4,2,1,100,0,1
105041,-100,4,2,2,100,0,1
109958,-100,4,2,1,100,0,1
110375,-100,4,2,2,100,0,1
115625,-100,4,2,1,100,0,1
115708,-100,4,2,2,100,0,1
121166,-140.625,4,2,2,100,0,1
121333,-100,4,2,1,100,0,1
121375,-100,4,2,2,100,0,1
126500,-140.625,4,2,2,100,0,1
126666,-100,4,2,1,100,0,1
126833,-100,4,2,2,100,0,0

[Colours]
Combo1 : 255,0,0
Combo2 : 255,0,0
Combo3 : 255,255,0
Combo4 : 0,0,255
Combo5 : 224,0,255
SliderBorder : 64,64,64
SliderTrackOverride : 255,255,0

[HitObjects]
128,64,4500,5,8
320,96,5000,1,2
512,320,5500,53,2
320,352,6000,1,0
128,320,6500,1,2
0,160,6833,5,0
64,96,7000,1,2
192,128,7333,1,0
256,64,7500,1,2
384,96,7833,1,0
448,160,8000,1,2
384,320,8500,53,0
192,352,9000,1,8
128,128,9833,5,8
256,160,10166,1,0
320,96,10333,1,2
448,128,10666,1,0
512,64,10833,1,0
384,256,11166,53,0
320,352,11333,1,2
192,288,11667,1,0
64,352,12000,1,2
64,128,12333,1,0
128,96,12500,1,0
192,64,12667,1,0
256,160,12833,1,2
320,128,13000,1,2
384,96,13167,1,2
448,64,13333,1,2
128,352,14500,5,0
0,128,14833,1,2
192,96,15333,22,0,L|192:97|192:95|193:96|191:96|192:95|193:96|192:97|191:96|192:95|193:96|192:97|193:96|192:97|191:96|192:95|192:97|192:95|192:97|192:95|192:97|192:95|192:97|192:95|192:97|192:95|192:97|192:96,6,45
512,320,16167,21,10
192,256,17000,1,0
64,320,17333,1,8
0,352,17500,1,2
512,352,18833,5,8
448,320,19000,1,2
384,288,19166,1,0
320,352,19333,1,2
0,160,20166,53,0
192,128,20666,1,0
384,96,21166,5,0
448,320,21667,1,0
320,288,22000,1,2
192,256,22333,1,0
128,288,22500,22,0,L|128:289|128:287|129:288|127:288|128:287|129:288|128:289|127:288|128:287|129:288|128:289|129:288|128:289|127:288|128:287|128:289|128:287|128:289|128:287|128:289|128:287|128:289|128:287|128:289|128:287|128:289|128:288,30,45
0,128,25500,37,2
192,96,26000,22,0,L|192:97|192:95|193:96|191:96|192:95|193:96|192:97|191:96|192:95|193:96|192:97|193:96|192:97|191:96|192:95|192:97|192:95|192:97|192:95|192:97|192:95|192:97|192:95|192:97|192:95|192:97|192:96,10,45
320,320,27333,37,8
256,256,27499,22,0,L|256:257|256:255|257:256|255:256|256:255|257:256|256:257|255:256|256:255|257:256|256:257|257:256|256:257|255:256|256:255|256:257|256:255|256:257|256:255|256:257|256:255|256:257|256:255|256:257|256:255|256:257|256:256,4,45,0|0|8|0|0
0,160,28166,2,0,L|0:161|0:159|1:160|-1:160|0:159|1:160|0:161|-1:160|0:159|1:160|0:161|1:160|0:161|-1:160|0:159|0:161|0:159|0:161|0:159|0:161|0:159|0:161|0:159|0:161|0:159|0:161|0:160,10,45
512,320,29500,21,2
448,288,29666,1,2
384,256,29833,1,0
320,288,30000,1,2
128,320,30500,1,0
64,256,30666,38,0,L|64:257|64:255|65:256|63:256|64:255|65:256|64:257|63:256|64:255|65:256|64:257|65:256|64:257|63:256|64:255|64:257|64:255|64:257|64:255|64:257|64:255|64:257|64:255|64:257|64:255|64:257|64:256,4,45
192,160,31333,2,0,L|192:161|192:159|193:160|191:160|192:159|193:160|192:161|191:160|192:159|193:160|192:161|193:160|192:161|191:160|192:159|192:161|192:159|192:161|192:159|192:161|192:159|192:161|192:159|192:161|192:159|192:161|192:160,3,45
384,64,31833,2,0,L|384:65|384:63|385:64|383:64|384:63|385:64|384:65|383:64|384:63|385:64|384:65|385:64|384:65|383:64|384:63|384:65|384:63|384:65|384:63|384:65|384:63|384:65|384:63|384:65|384:63|384:65|384:64,4,45
384,320,32500,37,0
256,288,32833,1,8
128,256,33166,22,0,L|128:257|128:255|129:256|127:256|128:255|129:256|128:257|127:256|128:255|129:256|128:257|129:256|128:257|127:256|128:255|128:257|128:255|128:257|128:255|128:257|128:255|128:257|128:255|128:257|128:255|128:257|128:256,14,45
512,288,34833,21,2
448,320,35000,1,2
384,352,35166,1,2
320,320,35333,1,2
256,352,35500,1,2
0,128,36166,5,2
128,96,36500,1,4
192,128,36666,1,2
320,96,37000,1,4
512,320,37500,53,2
448,320,37666,1,2
384,288,37833,1,4
320,320,38000,1,2
192,288,38333,1,12
0,128,38833,5,2
128,96,39166,1,4
192,128,39333,1,2
320,96,39667,1,4
384,128,39833,1,2
512,320,40167,53,2
448,320,40333,1,2
384,288,40500,1,4
320,320,40667,1,2
256,288,40833,22,10,B|192:352,1,90,12|12
128,320,41167,37,14
0,128,41500,5,2
128,96,41833,1,4
192,128,42000,1,2
320,96,42333,1,4
512,320,42833,53,2
448,320,43000,1,0
384,288,43167,1,4
320,320,43333,1,2
192,288,43667,1,4
128,320,43833,22,0,B|96:352|96:352|64:320|64:320|32:352,1,135
128,96,44500,37,4
256,96,44833,1,4
384,96,45167,1,0
448,128,45333,1,12
384,288,45833,5,4
320,320,46000,1,2
256,320,46167,1,14
192,288,46333,1,12
128,320,46500,1,10
64,288,46667,1,12
0,128,46833,53,2
64,160,47000,1,0
128,128,47167,1,4
192,160,47333,1,0
256,160,47500,22,0,B|320:96,1,90,0|4
384,160,47833,53,0
448,96,48000,1,8
512,256,48167,6,0,B|448:320,1,90
384,352,48500,53,12
320,256,48667,1,2
256,352,48833,6,0,B|192:288,1,90,0|12
128,288,49167,37,8
64,288,49333,1,8
0,160,49500,5,2
64,64,49667,6,0,B|160:160,1,135,0|0
256,160,50167,53,0
320,64,50333,6,0,B|384:128,1,90,4|0
448,160,50667,53,10
512,352,50833,6,0,B|448:288,1,90
384,352,51167,53,4
320,320,51333,22,0,L|320:321|320:319|321:320|319:320|320:319|321:320|320:321|319:320|320:319|321:320|320:321|321:320|320:321|319:320|320:319|320:321|320:319|320:321|320:319|320:321|320:319|320:321|320:319|320:321|320:319|320:321|320:320,2,45
192,256,51667,2,2,L|192:257|192:255|193:256|191:256|192:255|193:256|192:257|191:256|192:255|193:256|192:257|193:256|192:257|191:256|192:255|192:257|192:255|192:257|192:255|192:257|192:255|192:257|192:255|192:257|192:255|192:257|192:256,2,45
64,320,52000,21,10
0,160,52167,5,2
64,64,52333,1,0
128,128,52500,1,4
192,64,52667,6,0,B|256:128|256:128|320:64,1,180,0|4
384,64,53167,53,0
448,128,53333,1,10
512,256,53500,6,0,B|448:320,1,90
384,288,53833,2,0,B|320:352,1,90,4|0
256,320,54167,2,0,B|192:256,1,90,0|4
128,256,54500,37,14
64,256,54667,1,14
0,160,54833,5,2
64,64,55000,6,0,B|160:160,1,135
256,128,55500,53,4
320,64,55667,6,4,B|384:128,1,90
448,64,56000,37,8
512,256,56167,5,0
448,352,56333,1,4
384,288,56500,1,0
320,352,56667,1,4
320,352,59333,53,0
256,320,59500,1,2
192,256,59667,1,2
128,320,59833,1,2
64,288,60000,1,8
0,352,60167,1,2
128,128,60500,5,4
192,160,60667,1,2
320,128,61000,1,4
384,160,61167,1,2
512,256,61500,53,0
448,256,61667,1,2
384,320,61833,1,4
320,352,62000,1,2
256,352,62167,22,2,B|192:288,1,90,2|6
128,320,62500,37,6
64,288,62667,1,8
0,352,62833,1,2
128,96,63167,5,4
192,128,63333,1,0
256,160,63500,1,0
320,96,63667,1,4
448,352,64333,53,0
384,256,64500,1,12
320,288,64667,1,8
256,352,64833,1,4
128,320,65167,22,0,B|96:288|96:288|64:320|64:320|32:288|32:288|0:320,1,180
128,64,65833,37,4
256,128,66167,1,4
384,64,66500,1,0
448,96,66667,1,12
512,128,66833,1,2
384,256,67167,5,4
320,352,67333,1,2
256,352,67500,1,2
192,288,67667,1,8
128,288,67833,22,0,L|128:289|128:287|129:288|127:288|128:287|129:288|128:289|127:288|128:287|129:288|128:289|129:288|128:289|127:288|128:287|128:289|128:287|128:289|128:287|128:289|128:287|128:289|128:287|128:289|128:287|128:289|128:288,2,45
0,160,68167,21,2
64,128,68333,1,0
128,96,68500,1,4
192,64,68667,1,0
256,160,68833,1,0
320,128,69000,1,4
384,96,69167,1,0
448,96,69333,1,8
512,320,69500,5,2
448,288,69667,1,2
384,256,69833,1,4
320,256,70000,1,0
256,320,70167,1,8
192,288,70333,1,12
128,256,70500,1,8
64,288,70667,1,8
0,160,70833,53,2
64,160,71000,1,0
128,128,71167,1,4
192,96,71333,1,2
256,160,71500,1,0
320,128,71667,1,4
384,96,71833,1,2
448,64,72000,1,8
512,256,72167,5,2
448,288,72333,1,2
384,320,72500,1,4
320,352,72667,1,2
256,288,72833,1,10
192,320,73000,1,12
128,352,73167,1,10
64,352,73333,1,8
0,160,73500,53,2
64,128,73667,1,0
128,96,73833,1,4
192,64,74000,1,0
256,160,74167,1,0
320,128,74333,1,4
384,128,74500,1,0
448,160,74667,1,8
512,352,74833,5,2
448,352,75000,1,2
384,320,75167,1,4
320,288,75333,1,2
256,352,75500,1,8
192,320,75667,1,12
128,288,75833,1,10
64,256,76000,1,10
0,160,76167,53,2
64,128,76333,1,0
128,96,76500,1,4
192,96,76667,1,0
256,160,76833,1,4
320,128,77000,1,4
384,96,77167,1,6
448,64,77333,1,8
512,256,77500,22,0,B|416:352,1,135,6|0
384,256,77833,2,0,B|288:352,1,135,6|0
256,256,78167,2,0,B|160:352,1,135,6|0
128,256,78500,2,2,B|32:352,1,135,6|0
512,352,82833,37,2
448,320,83000,1,2
384,288,83166,1,4
320,352,83333,1,2
128,320,83833,1,10
64,288,84000,1,8
0,352,84166,5,2
128,128,84500,1,4
192,64,84666,1,0
320,96,85000,1,4
384,160,85166,1,0
512,256,85500,53,2
384,320,85833,1,4
320,256,86000,1,2
192,352,86333,1,12
128,256,86500,38,0,L|128:257|128:255|129:256|127:256|128:255|129:256|128:257|127:256|128:255|129:256|128:257|129:256|128:257|127:256|128:255|128:257|128:255|128:257|128:255|128:257|128:255|128:257|128:255|128:257|128:255|128:257|128:256,12,45,10|2|10|2|2|0|0|0|0|0|0|0|0
512,320,88166,37,2
384,352,88500,1,4
320,256,88666,1,2
192,256,89000,6,0,B|128:320,1,90,2|0
0,160,89500,53,2
64,96,89666,1,0
128,128,89833,1,0
192,64,90000,1,0
256,96,90166,6,0,B|320:160,1,90
384,128,90500,53,0
448,96,90666,1,10
512,256,90833,6,0,B|448:320,1,90
384,288,91166,53,4
320,256,91333,1,2
256,352,91500,6,0,B|192:288,1,90,0|4
128,256,91833,37,8
64,256,92000,1,8
0,160,92166,5,0
64,64,92333,1,0
128,96,92500,6,0,B|160:128|160:128|192:96|192:96|256:160|256:160,1,180
320,128,93000,37,4
384,64,93166,1,0
448,128,93333,1,8
512,256,93500,5,0
448,288,93666,1,0
384,320,93833,1,12
320,352,94000,1,0
256,352,94166,22,2,L|256:353|256:351|257:352|255:352|256:351|257:352|256:353|255:352|256:351|257:352|256:353|257:352|256:353|255:352|256:351|256:353|256:351|256:353|256:351|256:353|256:351|256:353|256:351|256:353|256:351|256:353|256:352,2,45,4|0|4
128,256,94500,2,2,L|128:257|128:255|129:256|127:256|128:255|129:256|128:257|127:256|128:255|129:256|128:257|129:256|128:257|127:256|128:255|128:257|128:255|128:257|128:255|128:257|128:255|128:257|128:255|128:257|128:255|128:257|128:256,2,45,4|0|0
0,160,94833,21,2
192,64,95333,1,2
384,160,95833,1,2
512,288,96166,5,2
256,256,96833,1,0
128,256,97166,1,8
64,352,97333,1,8
192,128,98000,53,0
256,160,98166,1,2
320,128,98333,1,4
384,96,98500,1,2
448,64,98666,1,12
320,352,99333,5,0
0,128,100166,1,0
192,96,100666,22,0,L|192:97|192:95|193:96|191:96|192:95|193:96|192:97|191:96|192:95|193:96|192:97|193:96|192:97|191:96|192:95|192:97|192:95|192:97|192:95|192:97|192:95|192:97|192:95|192:97|192:95|192:97|192:96,10,45
384,320,101833,37,0
320,256,102000,22,0,L|320:257|320:255|321:256|319:256|320:255|321:256|320:257|319:256|320:255|321:256|320:257|321:256|320:257|319:256|320:255|320:257|320:255|320:257|320:255|320:257|320:255|320:257|320:255|320:257|320:255|320:257|320:256,6,45
0,160,102833,2,0,L|0:161|0:159|1:160|-1:160|0:159|1:160|0:161|-1:160|0:159|1:160|0:161|1:160|0:161|-1:160|0:159|0:161|0:159|0:161|0:159|0:161|0:159|0:161|0:159|0:161|0:159|0:161|0:160,12,45
512,320,104166,37,0
448,288,104333,1,0
384,256,104500,1,0
320,320,104666,22,2,L|320:321|320:319|321:320|319:320|320:319|321:320|320:321|319:320|320:319|321:320|320:321|321:320|320:321|319:320|320:319|320:321|320:319|320:321|320:319|320:321|320:319|320:321|320:319|320:321|320:319|320:321|320:320,2,45,0|0|0
128,352,105166,37,2
64,288,105333,22,0,L|64:289|64:287|65:288|63:288|64:287|65:288|64:289|63:288|64:287|65:288|64:289|65:288|64:289|63:288|64:287|64:289|64:287|64:289|64:287|64:289|64:287|64:289|64:287|64:289|64:287|64:289|64:288,4,45
192,128,106000,2,0,L|192:129|192:127|193:128|191:128|192:127|193:128|192:129|191:128|192:127|193:128|192:129|193:128|192:129|191:128|192:127|192:129|192:127|192:129|192:127|192:129|192:127|192:129|192:127|192:129|192:127|192:129|192:128,2,45
384,64,106500,2,0,L|384:65|384:63|385:64|383:64|384:63|385:64|384:65|383:64|384:63|385:64|384:65|385:64|384:65|383:64|384:63|384:65|384:63|384:65|384:63|384:65|384:63|384:65|384:63|384:65|384:63|384:65|384:64,4,45
384,320,107166,37,0
256,288,107500,1,0
128,256,107833,22,0,L|128:257|128:255|129:256|127:256|128:255|129:256|128:257|127:256|128:255|129:256|128:257|129:256|128:257|127:256|128:255|128:257|128:255|128:257|128:255|128:257|128:255|128:257|128:255|128:257|128:255|128:257|128:256,22,45
128,352,110500,21,8
0,128,110833,5,2
192,96,111333,22,0,L|192:97|192:95|193:96|191:96|192:95|193:96|192:97|191:96|192:95|193:96|192:97|193:96|192:97|191:96|192:95|192:97|192:95|192:97|192:95|192:97|192:95|192:97|192:95|192:97|192:95|192:97|192:96,10,45
384,320,112500,37,0
320,256,112666,22,0,L|320:257|320:255|321:256|319:256|320:255|321:256|320:257|319:256|320:255|321:256|320:257|321:256|320:257|319:256|320:255|320:257|320:255|320:257|320:255|320:257|320:255|320:257|320:255|320:257|320:255|320:257|320:256,6,45
0,160,113500,2,0,L|0:161|0:159|1:160|-1:160|0:159|1:160|0:161|-1:160|0:159|1:160|0:161|1:160|0:161|-1:160|0:159|0:161|0:159|0:161|0:159|0:161|0:159|0:161|0:159|0:161|0:159|0:161|0:160,10,45
512,320,114833,21,0
448,288,115000,1,0
384,256,115166,1,0
320,320,115333,38,2,L|320:321|320:319|321:320|319:320|320:319|321:320|320:321|319:320|320:319|321:320|320:321|321:320|320:321|319:320|320:319|320:321|320:319|320:321|320:319|320:321|320:319|320:321|320:319|320:321|320:319|320:321|320:320,2,45,0|0|0
128,352,115833,37,0
64,288,116000,22,0,L|64:289|64:287|65:288|63:288|64:287|65:288|64:289|63:288|64:287|65:288|64:289|65:288|64:289|63:288|64:287|64:289|64:287|64:289|64:287|64:289|64:287|64:289|64:287|64:289|64:287|64:289|64:288,4,45
192,128,116666,2,0,L|192:129|192:127|193:128|191:128|192:127|193:128|192:129|191:128|192:127|193:128|192:129|193:128|192:129|191:128|192:127|192:129|192:127|192:129|192:127|192:129|192:127|192:129|192:127|192:129|192:127|192:129|192:128,2,45
384,64,117166,2,0,L|384:65|384:63|385:64|383:64|384:63|385:64|384:65|383:64|384:63|385:64|384:65|385:64|384:65|383:64|384:63|384:65|384:63|384:65|384:63|384:65|384:63|384:65|384:63|384:65|384:63|384:65|384:64,4,45
384,320,117833,37,0
256,288,118166,1,0
128,256,118500,22,0,L|128:257|128:255|129:256|127:256|128:255|129:256|128:257|127:256|128:255|129:256|128:257|129:256|128:257|127:256|128:255|128:257|128:255|128:257|128:255|128:257|128:255|128:257|128:255|128:257|128:255|128:257|128:256,22,45
192,288,121000,37,0
128,288,121166,6,2,B|64:288,1,64
0,160,121500,53,0
64,128,121666,1,0
128,128,121833,1,2
192,96,122000,1,0
256,96,122166,6,0,B|320:160,1,90
384,160,122500,53,0
448,128,122666,1,8
512,256,122833,6,0,B|448:320,1,90
384,288,123166,2,0,B|320:352,1,90
256,288,123500,2,0,B|192:352|192:352|128:288,1,180
64,288,124000,37,8
0,160,124166,5,2
64,128,124333,6,0,B|96:160|96:160|128:128,1,90
192,96,124666,53,0
256,96,124833,1,2
320,64,125000,6,0,B|384:128,1,90
448,96,125333,37,8
512,352,125500,5,4
448,352,125666,1,0
320,352,126000,1,4
192,256,126333,1,2
128,256,126500,6,2,B|64:256,1,64,0|2
