osu file format v9

[General]
AudioFilename: M2U - BlythE.ogg
AudioLeadIn: 0
PreviewTime: 4109
Countdown: 0
SampleSet: Soft
StackLeniency: 0
Mode: 0
LetterboxInBreaks: 0
SkinPreference:DJMax Osuka

[Editor]
DistanceSpacing: 0.8
BeatDivisor: 4
GridSize: 32

[Metadata]
Title:BlythE (Osuka)
Artist:M2U
Creator:ziin
Version:Easy
Source:DJMAX Technika
Tags:

[Difficulty]
HPDrainRate:1
CircleSize:5
OverallDifficulty:3
ApproachRate:0
SliderMultiplier:0.9
SliderTickRate:4

[Events]
//Background and Video events
0,0,"BlythE_bg2.jpg"
Video,-50,"BlythE_video.avi"
//Break Periods
2,22700,23700
2,57366,58700
2,80366,82700
2,105699,109033
//Storyboard Layer 0 (Background)
//Storyboard Layer 1 (Fail)
//Storyboard Layer 2 (Pass)
//Storyboard Layer 3 (Foreground)
Sprite,Foreground,Centre,"s\67.png",0,265 V,0,0,,1,1,641,3 F,0,833,1166,0,1 F,0,130000,130500,1,0 F,0,130500,133000,0
Sprite,Foreground,TopLeft,"s\bar.png",320,240 L,1138,8 F,0,0,138,0 M,0,0,5333,0,265,1024,265 F,0,138,180,0,1 F,0,5333,5471,0 M,0,5333,10667,0,265,1024,265 F,0,5513,2953,0,1 F,0,10667,10805,0 M,0,10667,16000,0,265,1024,265 F,0,10805,10847,0,1 R,0,0,,3.14 V,0,0,,1,180
Sprite,Foreground,TopLeft,"s\bar.png",320,240 L,3805,8 F,0,0,138,0 M,0,0,5333,640,268,-384,268 F,0,138,180,0,1 F,0,5333,5471,0 M,0,5333,10667,640,268,-384,268 F,0,5513,2953,0,1 F,0,10667,10805,0 M,0,10667,16000,640,268,-384,268 F,0,10805,10847,0,1 V,0,0,,1,180
Sprite,Foreground,BottomLeft,"s\flash.png",0,265 L,791,8 F,0,0,42,0,1 F,0,42,209,1,0 F,0,334,375,0,1 F,0,375,542,1,0 F,0,5333,5375,0,1 F,0,5375,5542,1,0 F,0,5667,5708,0,1 F,0,5708,5875,1,0 F,0,10665,10707,0,1 F,0,10707,10874,1,0 F,0,10999,11040,0,1 F,0,11040,11207,1,0 F,0,11207,16000,0 P,0,0,,H
Sprite,Foreground,TopRight,"s\flash.png",640,268 L,3458,8 F,0,0,42,0,1 F,0,42,209,1,0 F,0,334,375,0,1 F,0,375,542,1,0 F,0,5333,5375,0,1 F,0,5375,5542,1,0 F,0,5667,5708,0,1 F,0,5708,5875,1,0 F,0,10665,10707,0,1 F,0,10707,10874,1,0 F,0,10999,11040,0,1 F,0,11040,11207,1,0 F,0,11207,16000,0
Sprite,Foreground,Centre,"s\bc.png",28,116 L,833,8 F,0,0,,1 F,0,166,,0 F,0,5333,,1 F,0,5500,,0 F,0,10667,,1 F,0,10833,16000,0
Sprite,Foreground,Centre,"s\bb.png",28,116 L,1000,8 F,0,0,,1 F,0,166,,0 F,0,5333,,1 F,0,5500,,0 F,0,10667,,1 F,0,10833,16000,0
Sprite,Foreground,Centre,"s\ba.png",28,116 L,1166,8 F,0,0,,1 F,0,166,,0 F,0,5333,,1 F,0,5500,,0 F,0,10667,,1 F,0,10833,16000,0
Sprite,Foreground,Centre,"s\bc.png",612,299 L,3500,8 F,0,0,,1 F,0,166,,0 F,0,5333,,1 F,0,5500,,0 F,0,10667,,1 F,0,10833,16000,0
Sprite,Foreground,Centre,"s\bb.png",612,299 L,3666,8 F,0,0,,1 F,0,166,,0 F,0,5333,,1 F,0,5500,,0 F,0,10667,,1 F,0,10833,16000,0
Sprite,Foreground,Centre,"s\ba.png",612,299 L,3833,8 F,0,0,,1 F,0,166,,0 F,0,5333,,1 F,0,5500,,0 F,0,10667,,1 F,0,10833,16000,0
Sprite,Foreground,CentreRight,"s\hold.png",320,341 C,0,35666,,0,0,192 F,0,35666,36166,0,1 V,0,35666,36166,1,1,6,1 F,0,38083,38166,1,0
Sprite,Foreground,CentreRight,"s\holdoverlay.png",320,341 L,35666,7 F,2,0,167,0,0.5 F,1,167,333,0.5,0 V,0,35666,36166,1,1,6,1
Sprite,Foreground,CentreLeft,"s\hold.png",224,149 C,0,37833,,0,0,192 F,0,37833,38333,0,1 V,0,37833,38333,1,1,12,1 F,0,40749,40832,1,0
Sprite,Foreground,CentreLeft,"s\holdoverlay.png",224,149 L,37833,9 F,2,0,167,0.5,0 F,1,167,333,0,0.5 V,0,37833,38333,1,1,12,1
Sprite,Foreground,Centre,"s\repeat.png",288,149 C,0,37833,0,255,8,255 F,0,37833,38333,0,1 F,0,40749,40832,1,0
Sprite,Foreground,Centre,"s\repeatoverlay.png",288,149 L,37833,9 F,2,0,167,0.5,0 F,1,167,333,0,0.5
Sprite,Foreground,Centre,"s\repeat.png",352,149 C,0,37833,0,255,8,255 F,0,37833,38333,0,1 F,0,40749,40832,1,0
Sprite,Foreground,Centre,"s\repeatoverlay.png",352,149 L,37833,9 F,2,0,167,0.5,0 F,1,167,333,0,0.5
Sprite,Foreground,Centre,"s\repeat.png",416,149 C,0,37833,0,255,8,255 F,0,37833,38333,0,1 F,0,40749,40832,1,0
Sprite,Foreground,Centre,"s\repeatoverlay.png",416,149 L,37833,9 F,2,0,167,0.5,0 F,1,167,333,0,0.5
Sprite,Foreground,CentreLeft,"s\hold.png",64,181 C,0,42332,,0,0,192 F,0,42332,42832,0,1 V,0,42332,42832,1,1,16,1 F,0,45583,45666,1,0
Sprite,Foreground,CentreLeft,"s\holdoverlay.png",64,181 L,42332,10 F,2,0,167,0,0.5 F,1,167,333,0.5,0 V,0,42332,42832,1,1,16,1
Sprite,Foreground,CentreLeft,"s\hold.png",64,181 C,0,52999,,0,0,192 F,0,52999,53499,0,1 V,0,52999,53499,1,1,28,1 F,0,57249,57332,1,0
Sprite,Foreground,CentreLeft,"s\holdoverlay.png",64,181 L,52999,13 F,2,0,167,0,0.5 F,1,167,333,0.5,0 V,0,52999,53499,1,1,28,1
Sprite,Foreground,CentreLeft,"s\hold.png",64,181 C,0,63666,,0,0,192 F,0,63666,64166,0,1 V,0,63666,64166,1,1,16,1 F,0,66916,66999,1,0
Sprite,Foreground,CentreLeft,"s\holdoverlay.png",64,181 L,63666,10 F,2,0,167,0,0.5 F,1,167,333,0.5,0 V,0,63666,64166,1,1,16,1
Sprite,Foreground,CentreLeft,"s\hold.png",256,117 C,0,75332,,0,0,192 F,0,75332,75832,0,1 V,0,75332,75832,1,1,26,1 F,0,80249,80332,1,0
Sprite,Foreground,CentreLeft,"s\holdoverlay.png",256,117 L,75332,15 F,2,0,167,0,0.5 F,1,167,333,0.5,0 V,0,75332,75832,1,1,26,1
Sprite,Foreground,CentreRight,"s\hold.png",640,309 C,0,76666,,0,0,192 F,0,76666,77500,0,1 V,0,76666,77500,1,1,20,1 F,0,80249,80332,1,0
Sprite,Foreground,CentreRight,"s\holdoverlay.png",640,309 L,76666,11 F,2,0,167,0,0.5 F,1,167,333,0.5,0 V,0,76666,77500,1,1,20,1
Sprite,Foreground,CentreRight,"s\hold.png",96,309 C,0,84832,,0,0,192 F,0,84832,85332,0,1 V,0,84832,85332,1,1,7,1 F,0,88249,88332,1,0
Sprite,Foreground,CentreRight,"s\holdoverlay.png",96,309 L,84832,10 F,2,0,167,0.5,0 F,1,167,333,0,0.5 V,0,84832,85332,1,1,7,1
Sprite,Foreground,CentreLeft,"s\hold.png",0,117 C,0,84832,,0,0,192 F,0,84832,85332,0,1 V,0,84832,85332,1,1,20,1 F,0,88249,88332,1,0
Sprite,Foreground,CentreLeft,"s\holdoverlay.png",0,117 L,84832,10 F,2,0,167,0.5,0 F,1,167,333,0,0.5 V,0,84832,85332,1,1,20,1
Sprite,Foreground,CentreRight,"s\hold.png",480,341 C,0,98832,,0,0,192 F,0,98832,99332,0,1 V,0,98832,99332,1,1,10,1 F,0,101583,101666,1,0
Sprite,Foreground,CentreRight,"s\holdoverlay.png",480,341 L,98832,8 F,2,0,167,0.5,0 F,1,167,333,0,0.5 V,0,98832,99332,1,1,10,1
Sprite,Foreground,CentreLeft,"s\hold.png",64,213 C,0,100999,,0,0,192 F,0,100999,101499,0,1 V,0,100999,101499,1,1,10,1 F,0,103749,103832,1,0
Sprite,Foreground,CentreLeft,"s\holdoverlay.png",64,213 L,100999,8 F,2,0,167,0,0.5 F,1,167,333,0.5,0 V,0,100999,101499,1,1,10,1
Sprite,Foreground,CentreLeft,"s\hold.png",416,213 C,0,102832,,0,0,192 F,0,102832,103332,0,1 V,0,102832,103332,1,1,10,1 F,0,105583,105666,1,0
Sprite,Foreground,CentreLeft,"s\holdoverlay.png",416,213 L,102832,8 F,2,0,167,0.5,0 F,1,167,333,0,0.5 V,0,102832,103332,1,1,10,1
Sprite,Foreground,CentreRight,"s\hold.png",480,341 C,0,109499,,0,0,192 F,0,109499,109999,0,1 V,0,109499,109999,1,1,10,1 F,0,112249,112332,1,0
Sprite,Foreground,CentreRight,"s\holdoverlay.png",480,341 L,109499,8 F,2,0,167,0.5,0 F,1,167,333,0,0.5 V,0,109499,109999,1,1,10,1
Sprite,Foreground,CentreRight,"s\hold.png",448,309 C,0,114999,,0,0,192 F,0,114999,115499,0,1 V,0,114999,115499,1,1,8,1 F,0,117583,117666,1,0
Sprite,Foreground,CentreRight,"s\holdoverlay.png",448,309 L,114999,8 F,2,0,167,0,0.5 F,1,167,333,0.5,0 V,0,114999,115499,1,1,8,1
Sprite,Foreground,CentreLeft,"s\hold.png",64,213 C,0,116999,,0,0,192 F,0,116999,117499,0,1 V,0,116999,117499,1,1,14,1 F,0,120083,120166,1,0
Sprite,Foreground,CentreLeft,"s\holdoverlay.png",64,213 L,116999,9 F,2,0,167,0,0.5 F,1,167,333,0.5,0 V,0,116999,117499,1,1,14,1
Sprite,Foreground,CentreLeft,"s\hold.png",64,213 C,0,122332,,0,0,192 F,0,122332,122832,0,1 V,0,122332,122832,1,1,28,1 F,0,126583,126666,1,0
Sprite,Foreground,CentreLeft,"s\holdoverlay.png",64,213 L,122332,13 F,2,0,167,0,0.5 F,1,167,333,0.5,0 V,0,122332,122832,1,1,28,1
//Storyboard Sound Samples
//Background Colour Transformations
3,100,255,255,255

[TimingPoints]
167,333.333333333333,4,2,1,100,1,0
276,-100,4,2,1,100,0,1
4166,-100,4,1,1,100,0,1
4833,-100,4,2,0,100,0,1
8833,-100,4,1,1,100,0,1
10083,-100,4,2,0,100,0,1
14833,-100,4,2,2,100,0,1
19333,-100,4,2,1,100,0,1
19875,-100,4,2,2,100,0,1
24666,-100,4,2,1,100,0,1
25250,-100,4,2,2,100,0,1
30000,-100,4,2,1,100,0,1
30500,-100,4,2,2,100,0,1
46208,-100,4,2,1,100,0,1
46291,-100,4,2,2,100,0,1
51333,-100,4,2,1,100,0,1
52000,-100,4,2,2,100,0,1
57500,-100,4,1,2,100,0,1
59333,-100,4,2,1,100,0,1
60166,-100,4,2,2,100,0,1
68166,-140.625,4,2,2,100,0,1
69500,-100,4,2,2,100,0,1
83625,-100,4,2,1,100,0,1
83708,-100,4,2,2,100,0,1
88958,-100,4,2,1,100,0,1
89041,-100,4,2,2,100,0,1
100000,-100,4,2,1,100,0,1
100083,-100,4,2,2,100,0,1
105000,-100,4,2,1,100,0,1
105083,-100,4,2,2,100,0,1
109958,-100,4,2,1,100,0,1
110375,-100,4,2,2,100,0,1
115625,-100,4,2,1,100,0,1
115708,-100,4,2,2,100,0,1
121000,-140.625,4,2,2,100,0,1
121333,-100,4,2,1,100,0,1
121375,-100,4,2,2,100,0,1
126500,-100,4,2,1,100,0,1
126833,-100,4,2,2,100,0,0

[Colours]
Combo1 : 255,0,0
Combo2 : 255,0,0
Combo3 : 255,255,0
Combo4 : 0,0,255
Combo5 : 224,0,255
SliderBorder : 64,64,64
SliderTrackOverride : 255,255,0

[HitObjects]
512,288,4166,1,2
256,256,5500,1,2
0,160,6833,53,2
192,64,7833,1,0
224,96,8000,1,2
320,128,8500,1,0
416,160,9000,1,8
448,288,9833,5,8
256,288,10833,1,0
160,256,11333,1,0
96,352,11667,1,0
96,128,12667,53,0
128,160,12833,22,0,B|160:128|192:96|224:64,1,135
352,160,14000,37,4
512,320,14833,5,4
256,288,16167,6,0,B|224:320|224:320|192:288|192:288|160:256|160:256|144:272|144:272|128:256|128:256|96:288|96:288|64:256,1,270
0,160,17500,37,0
256,160,18833,22,0,B|320:96,1,90
352,160,19333,37,2
512,352,20166,5,0
416,288,20666,1,2
256,320,21500,6,0,B|224:352|224:352|192:320|192:320,1,90
160,288,22000,2,0,B|128:256|128:256|96:288|96:288,1,90
64,256,22500,37,2
512,320,25500,5,0
416,256,26000,1,2
256,288,26833,1,0
0,160,28166,53,2
256,160,29500,22,0,B|320:96,1,90
352,160,30000,37,2
512,352,30833,5,0
416,256,31333,1,2
256,320,32166,1,2
160,256,32666,1,2
96,320,33000,6,0,B|64:288,1,45,0|8
96,128,34000,2,0,B|128:160|128:160|160:128,1,90
224,64,34666,2,4,B|288:128|288:128|320:96|320:96|352:128|352:128,1,180,4|2
512,256,36166,37,2
320,256,37166,1,0
256,288,37500,38,0,L|256:289|256:287|256:289|256:287|256:289|256:287|256:289|256:287|256:289|256:287|256:289|256:287,6,22.5,0|0|0|0|0|0|8
64,96,39166,37,0
160,96,39667,37,4
160,96,40000,1,8
160,96,40333,1,2
160,96,40667,1,2
256,256,42833,21,2
192,288,43167,1,4
128,320,43500,1,12
0,128,44167,22,0,L|0:129|0:127|0:129|0:127|0:129|0:127|0:129|0:127|0:129|0:127|0:129|0:127,16,22.5,0|0|0|0|0|0|0|0|0|0|0|0|0|0|8|0|0
448,256,47167,54,0,B|352:352,1,135,0|2
256,320,48167,2,0,B|224:288|224:288|208:304|208:304|192:288|192:288|160:256,1,135,0|2
64,256,49167,37,8
64,128,49833,5,4
128,160,50167,6,0,B|160:128,1,45,0|4
224,64,50667,37,2
288,160,51000,1,0
352,160,51333,1,2
416,96,51667,1,8
384,256,52833,5,8
256,288,53500,1,2
128,320,54167,1,8
0,128,54833,22,0,L|0:129|0:127|0:129|0:127|0:129|0:127|0:129|0:127|0:129|0:127|0:129|0:127,28,22.5,0|0|0|0|0|0|0|0|0|0|0|0|0|0|8|0|0|0|0|0|0|0|0|0|0|0|0|0|0
64,64,60500,37,0
160,96,61000,6,8,B|176:112|176:112|192:96|192:96|224:128|224:128|240:144|240:144|256:128|256:128|288:96|288:96|304:112|304:112|320:96|320:96|352:64,1,270,8|2
512,352,62833,53,2
384,256,63500,1,0
256,288,64167,1,2
128,288,64833,1,10
0,128,65500,22,0,L|0:129|0:127|0:129|0:127|0:129|0:127|0:129|0:127|0:129|0:127|0:129|0:127,16,22.5,0|0|0|0|0|0|0|0|0|0|0|0|0|0|8|0|0
512,256,68167,54,0,B|256:256,1,256
128,288,70166,53,0
0,160,70833,53,2
96,128,71333,1,2
192,96,71833,1,10
256,96,72167,1,2
352,128,72667,1,2
448,160,73167,1,8
512,256,73500,5,2
416,288,74000,1,2
320,256,74500,1,10
256,352,74833,1,0
160,320,75333,1,2
64,256,75833,1,8
0,160,76167,53,2
96,96,76667,1,10
192,64,77167,38,0,L|192:65|192:63|192:65|192:63|192:65|192:63|192:65|192:63|192:65|192:63|192:65|192:63,36,22.5
448,320,84500,21,2
256,288,85500,1,2
128,256,86166,1,8
32,256,86666,38,0,L|32:257|32:255|32:257|32:255|32:257|32:255|32:257|32:255|32:257|32:255|32:257|32:255,18,22.5,0|0|0|0|0|0|0|0|0|0|0|0|0|0|0|0|8|0|0
448,160,89166,21,2
512,256,89500,5,2
448,256,89833,6,0,B|352:352,1,135,2|0
256,320,90833,2,0,B|192:256|192:256|160:288,1,135,2|0
96,320,91666,2,0,B|64:288,1,45,0|2
64,128,92500,53,0
128,160,92833,6,0,B|160:128,1,45
224,96,93333,37,8
288,160,93666,1,2
352,160,94000,1,2
416,128,94333,1,8
384,288,95500,5,2
320,256,95833,1,2
256,352,96166,1,4
128,256,96833,1,0
64,320,97166,1,8
32,288,97333,1,6
96,128,98000,53,2
128,160,98166,1,6
160,128,98333,1,4
192,97,98500,1,2
224,64,98666,1,6
351,158,99333,1,2
512,352,100166,5,2
416,288,100666,22,0,L|416:289|416:287|416:289|416:287|416:289|416:287|416:289|416:287|416:289|416:287|416:289|416:287,10,22.5
96,256,102333,54,0,B|64:288|64:288|32:256,1,90
0,160,102833,6,0,L|0:161|0:159|0:161|0:159|0:161|0:159|0:161|0:159|0:161|0:159|0:161|0:159,10,22.5,2|0|0|0|0|0|0|0|0|0|0
256,160,104166,37,0
288,128,104333,1,2
320,96,104500,1,0
352,160,104666,22,0,L|352:161|352:159|352:161|352:159|352:161|352:159|352:161|352:159|352:161|352:159|352:161|352:159,10,22.5
512,352,110833,37,0
416,288,111333,22,0,L|416:289|416:287|416:289|416:287|416:289|416:287|416:289|416:287|416:289|416:287|416:289|416:287,10,22.5
96,256,113000,54,0,B|64:288|64:288|32:256,1,90
64,64,113833,2,0,B|112:112|112:112|128:96|128:96|160:128,1,135,0|2
224,128,114666,37,0
288,64,115000,1,2
352,160,115333,1,0
416,128,115666,1,2
384,256,116833,38,0,L|384:257|384:255|384:257|384:255|384:257|384:255|384:257|384:255|384:257|384:255|384:257|384:255,8,22.5
128,288,118166,37,0
0,160,118833,22,0,L|0:161|0:159|0:161|0:159|0:161|0:159|0:161|0:159|0:161|0:159|0:161|0:159,14,22.5
416,96,121000,54,2,B|448:96,1,32,0|2
512,256,121500,2,0,B|464:304|464:304|448:288|448:288|416:320,1,135,2|0
384,320,122166,53,8
256,320,122833,6,0,B|208:272|208:272|192:288|192:288|160:256,1,135,2|0
128,256,123500,53,8
0,160,124166,22,0,L|0:161|0:159|0:161|0:159|0:161|0:159|0:161|0:159|0:161|0:159|0:161|0:159,28,22.5,0|0|0|0|0|0|0|0|0|0|0|0|2|0|0|0|2|0|2|0|0|0|2|0|0|0|0|0|2
