osu file format v4

[General]
AudioFilename: memory of beach.mp3
AudioLeadIn: 0
AudioHash: 60598b5ccfca5163c18cea7b1e27996e
PreviewTime: -1
SampleSet: Normal

[Metadata]
Title:Memory of Beach
Artist:M2U [ DJ Max ]
Creator:November_Usagi
Version:Hard

[Difficulty]
HPDrainRate:6
CircleSize:6
OverallDifficulty:5
SliderMultiplier: 1.7
SliderTickRate: 2

[Events]
1,0,"Memory of Beach.avi"
2,123404,124543
3,0,163,162,255

[TimingPoints]
-26,461.538461538462,4,1,0

[HitObjects]
32,352,7384,1,0,
128,256,7846,1,0,
224,160,8307,1,0,
320,64,8769,1,0,
448,32,9230,6,0,L|448:32|416:64|448:96|416:128|448:160|416:192|448:224|448:320,1,340
448,352,10384,1,0,
320,352,10846,2,0,L|320:352|288:320|320:288|288:256|320:224|288:192|320:160|288:128|320:96|320:32,1,425
256,32,12230,1,0,
128,32,12692,6,0,L|128:32|32:160,1,85
64,160,13153,1,0,
192,160,13615,1,0,
160,224,13846,1,0,
96,256,14076,1,0,
0,352,14538,6,0,B|0:352|352:352,1,340
320,288,15692,1,0,
384,256,15923,1,0,
384,192,16153,2,0,B|384:192|448:160|480:96|480:32,1,170
352,32,17076,2,0,B|352:32|352:96|320:128|288:160|256:192|192:224,1,255
192,96,18230,1,0,
128,64,18461,1,0,
64,64,18692,2,0,L|64:64|64:128|32:160|64:192|32:224|64:256|32:288|32:352,1,340
224,352,20307,5,0,
288,320,20538,1,0,
352,352,20769,1,0,
416,320,21000,1,0,
416,256,21230,2,0,L|416:256|416:32,1,170
352,96,21923,1,0,
320,32,22153,2,0,B|320:32|160:32,1,85
160,32,22615,2,0,L|160:32|128:64|96:32,1,85
32,64,23076,2,0,L|32:64|32:256,1,170
128,128,24000,5,0,
192,128,24230,1,0,
192,192,24461,1,0,
224,256,24692,2,0,B|224:256|256:288|320:320|384:320|416:288|480:256,1,255
480,128,25846,2,0,B|480:128|467:69|443:39|427:17|383:6|347:30|339:-2|288:32|279:64|256:96|256:160,1,340
256,192,27000,1,0,
320,192,27230,1,0,
384,192,27461,6,0,B|384:192|448:192,1,85
480,256,27923,2,0,B|480:256|416:256,1,85
320,256,28384,1,0,
256,288,28615,1,0,
192,256,28846,1,0,
96,160,29307,6,0,B|96:160|128:160|224:128|256:96|256:32|256:0,1,170
320,96,30000,2,0,B|320:96|512:96,1,170
480,160,30692,1,0,
480,224,30923,1,0,
448,288,31153,6,0,B|448:288|160:288,1,255
160,224,32076,1,0,
224,192,32307,1,0,
160,160,32538,1,0,
224,128,32769,1,0,
160,96,33000,6,0,B|160:96|224:32,1,85
288,32,33461,2,0,B|288:32|352:32,1,85
448,32,33923,2,0,B|448:32|576:128|352:256|512:352,1,340
320,352,35076,1,0,
256,320,35307,1,0,
320,288,35538,1,0,
256,256,35769,1,0,
192,256,36000,2,0,B|192:256|192:320,1,85
64,352,36692,6,0,L|64:352|32:320|64:288|32:256|64:224|32:192|64:160|32:128|64:96|32:64|32:0,1,425
96,32,38076,2,0,L|96:32|160:32,1,85
128,224,39000,6,0,B|128:224|128:256|128:288|160:320|192:352|224:352|256:352|288:352|320:352|352:352|384:352|416:352|448:320|448:288|448:256|448:224|448:192|448:160,1,510
448,96,40615,1,0,
448,32,40846,1,0,
384,64,41076,2,0,B|384:64|192:64,1,170
224,128,41769,1,0,
160,96,42000,2,0,B|160:96|96:96,1,85
32,224,42692,2,0,B|32:224|32:320|128:352,1,170
256,320,43615,1,0,
224,256,43846,1,0,
192,192,44076,2,0,B|192:192|160:160|160:96|192:64|256:64|288:64|352:96|352:160|320:224,1,340
352,320,45461,5,0,
416,288,45692,1,0,
480,160,46153,2,0,B|480:160|480:128|480:96|448:64|416:32|384:32|352:32|319:32|288:32|260:32|224:32|160:32,1,340
128,32,47307,2,0,B|128:32|128:96,1,85
64,160,47769,1,0,
64,224,48000,2,0,B|64:224|64:288|96:352|128:352|192:352,1,170
160,288,48692,6,0,B|160:288|320:64,1,255
384,64,49615,1,0,
448,64,49846,1,0,
480,256,50538,2,0,B|480:256|384:160|288:320|192:160|96:320|32:160,1,425
128,32,52384,6,0,B|128:32|192:96|320:64,1,170
352,32,53076,1,0,
416,32,53307,1,0,
480,160,53769,1,0,
416,160,54000,1,0,
352,160,54230,2,0,B|352:160|160:160,1,170
160,96,54923,1,0,
128,32,55153,1,0,
32,128,55615,6,0,B|32:128|32:160|64:224|256:224,1,255
320,224,56538,1,0,
384,224,56769,1,0,
384,160,57000,1,0,
288,64,57461,1,0,
256,128,57692,1,0,
192,96,57923,2,0,B|192:96|32:224|224:288,1,255
320,320,59076,6,0,B|320:320|384:320|416:320|448:288|480:256|480:224|480:192|480:160|480:96|480:64,1,340
416,64,60230,1,0,
352,64,60461,1,0,
288,64,60692,1,0,
224,64,60923,2,0,B|224:64|96:64|32:64|0:128|0:224,1,340
128,256,62538,5,0,
96,192,62769,2,0,B|96:192|175:131|271:243|384:160,1,255
480,160,63923,1,0,
480,96,64153,1,0,
416,64,64384,2,0,B|416:64|160:64,1,170
160,64,65076,1,0,
96,64,65307,1,0,
96,128,65538,2,0,L|96:128|96:192|96:320,1,170
160,256,66204,1,0,
288,192,66666,5,0,
384,192,67013,1,0,
480,192,67389,1,0,
192,64,68281,6,0,L|192:64|192:352,1,255
320,320,69435,2,0,B|320:320|384:320|448:288|448:256|448:192|448:128|384:96|320:96,1,425
0,320,71743,6,0,B|0:320|64:288|128:320|160:352|224:320|256:288|320:320,1,255
384,256,72897,2,0,B|384:256|384:64,1,170
320,64,73589,2,0,B|320:64|288:64,1,85
160,64,74050,1,0,
192,128,74281,1,0,
128,160,74512,1,0,
192,192,74743,1,0,
256,192,74974,2,0,B|256:192|256:384,1,170
384,320,75897,5,0,
448,288,76127,1,0,
384,256,76358,1,0,
448,224,76589,1,0,
448,160,76820,2,0,B|448:160|448:128|416:64|384:32|288:32|224:32|192:32,1,255
192,32,77743,2,0,B|192:32|128:64|160:96|192:96|224:128|192:160|160:160|128:192|160:224,1,170
96,64,78666,5,0,
32,96,78897,1,0,
96,128,79127,2,0,B|96:128|96:224|96:256|128:288|160:288|192:288|256:288,1,255
288,288,80050,2,0,B|288:288|288:0,1,255
416,32,81204,2,0,B|416:32|416:64,1,85
416,192,81666,2,0,B|416:192|416:256,1,85
352,320,82127,1,0,
352,256,82358,1,0,
96,288,83050,6,0,B|96:288|96:96,1,170
128,64,83743,1,0,
256,64,84204,2,0,B|256:64|480:64,1,170
256,192,86512,5,0,
192,192,86743,1,0,
160,64,87204,2,0,B|160:64|352:64,1,170
448,64,88127,2,0,L|448:64|416:128|448:224|416:320,1,255
352,288,89050,1,0,
320,224,89281,2,0,L|320:224|320:128,1,85
320,64,89743,1,0,
256,64,89974,2,0,L|256:64|160:64,1,85
256,160,90666,5,0,
256,224,90897,1,0,
192,224,91127,1,0,
192,160,91358,1,0,
160,96,91589,2,0,B|160:96|96:96|32:160|32:224|32:256|64:320|128:352|160:352,2,340
224,96,93666,1,0,
288,96,93897,1,0,
416,96,94358,6,0,B|416:96|480:128|544:192|544:256|497:311|409:309|326:274|284:210|279:213,1,425
256,32,96204,1,0,
352,32,96550,1,0,
448,32,96854,1,0,
480,256,97589,1,0,
448,320,97820,1,0,
320,320,98281,6,0,B|320:320|320:256,1,85
352,160,98743,2,0,B|352:160|384:96|416:64|480:32,1,170
320,32,99666,1,0,
256,32,99897,1,0,
192,32,100127,1,0,
128,32,100358,2,0,L|128:32|64:64|128:128|64:160|128:224|96:256,1,340
0,320,101743,5,0,
64,320,101974,1,0,
128,320,102204,2,0,L|128:320|160:320|224:288|256:320|288:288|320:320|352:288|384:320|448:320|480:320,1,425
480,256,103589,5,0,
480,192,103820,1,0,
480,128,104050,2,0,L|480:128|480:32,1,85
416,32,104512,1,0,
352,64,104743,1,0,
288,96,104974,2,0,L|288:96|192:96,1,85
128,32,105666,6,0,B|128:32|64:32|0:96|0:128,1,170
64,160,106358,1,0,
32,224,106589,1,0,
32,288,106820,2,0,L|32:288|128:288,1,85
192,288,107281,2,0,L|192:288|256:352|320:288|384:352,1,255
448,352,108204,1,0,
448,288,108435,1,0,
448,224,108666,1,0,
448,96,109127,5,0,
384,64,109358,2,0,B|384:64|320:32|256:96|192:32|160:0|128:64|96:96|32:32,1,340
32,128,110512,5,0,
32,192,110743,1,0,
96,224,110974,1,0,
128,160,111204,1,0,
160,224,111435,1,0,
224,192,111666,1,0,
256,256,111897,1,0,
320,256,112127,1,0,
448,256,112589,6,0,L|448:256|448:170|418:142|448:110|448:96|448:64|384:64|352:64|321:64|300:64|254:119|192:32,1,510
96,96,114435,6,0,L|96:96|96:182|126:210|96:242|96:256|96:288|160:288|192:288|223:288|244:288|290:233|352:320,1,510
480,320,116281,5,0,
480,256,116512,1,0,
448,192,116743,1,0,
384,192,116974,1,0,
416,128,117204,1,0,
480,96,117435,1,0,
448,32,117666,1,0,
320,32,118127,6,0,L|320:32|224:32|192:64|224:96|192:128|224:160|192:192|224:224|192:256|224:288|192:320|224:352,1,510
64,352,119974,5,0,
96,288,120204,1,0,
128,224,120435,1,0,
64,192,120666,1,0,
32,128,120897,1,0,
96,64,121127,1,0,
160,64,121358,2,0,L|160:64|320:64,1,85
320,32,121820,5,0,
352,96,122050,1,0,
384,160,122281,1,0,
416,224,122512,1,0,
352,256,122743,1,0,
288,256,122974,2,0,L|288:256|192:256,1,85
256,96,125743,5,0,
352,96,126074,1,0,
448,96,126435,1,0,
