osu file format v14

[General]
AudioFilename: Deemo 2.0 - M2U & Nicode - Stellar.mp3
AudioLeadIn: 0
PreviewTime: -1
Countdown: 1
SampleSet: Soft
StackLeniency: 0.7
Mode: 3
LetterboxInBreaks: 1
SpecialStyle: 0
WidescreenStoryboard: 1

[Editor]
DistanceSpacing: 1
BeatDivisor: 4
GridSize: 4
TimelineZoom: 1

[Metadata]
Title:Stellar
TitleUnicode:Stellar
Artist:M2U & Nicode
ArtistUnicode:M2U & Nicode
Creator:[-No One-]
Version:VENUS
Source:Deemo
Tags:Deemo M2U Nicode planets stellar lyly
BeatmapID:1117779
BeatmapSetID:492063

[Difficulty]
HPDrainRate:7.5
CircleSize:4
OverallDifficulty:7.5
ApproachRate:5
SliderMultiplier:1.4
SliderTickRate:1

[Events]
//Background and Video events
0,0,"STE3.jpg",0,0
//Break Periods
//Storyboard Layer 0 (Background)
//Storyboard Layer 1 (Fail)
//Storyboard Layer 2 (Pass)
//Storyboard Layer 3 (Foreground)
//Storyboard Sound Samples

[TimingPoints]
0,300,4,1,0,5,1,0
1725,-100,4,2,0,5,0,0
23400,-100,4,2,0,5,0,1
37816,-100,4,2,0,5,0,0
52200,-100,4,2,0,5,0,1
65771,-100,4,2,0,5,0,0
80999,-100,4,2,0,5,0,1
95100,-100,4,2,0,5,0,0

[HitObjects]
64,192,1800,5,0,0:0:0:0:
448,192,2100,1,0,0:0:0:0:
192,192,2700,1,0,0:0:0:0:
448,192,3000,1,0,0:0:0:0:
192,192,3150,1,0,0:0:0:0:
64,192,3300,1,0,0:0:0:0:
192,192,3450,1,0,0:0:0:0:
320,192,3600,1,0,0:0:0:0:
64,192,3900,1,0,0:0:0:0:
448,192,4200,1,0,0:0:0:0:
320,192,4350,1,0,0:0:0:0:
192,192,4500,128,0,4800:0:0:0:0:
320,192,4800,1,0,0:0:0:0:
448,192,5100,1,0,0:0:0:0:
192,192,5400,1,0,0:0:0:0:
64,192,5700,1,0,0:0:0:0:
320,192,5850,1,0,0:0:0:0:
192,192,6000,1,0,0:0:0:0:
320,192,6150,1,0,0:0:0:0:
448,192,6300,1,0,0:0:0:0:
192,192,6600,128,0,6900:0:0:0:0:
64,192,6900,128,0,7200:0:0:0:0:
320,192,7200,1,0,0:0:0:0:
64,192,7500,1,0,0:0:0:0:
192,192,7650,1,0,0:0:0:0:
320,192,7800,1,0,0:0:0:0:
192,192,7950,1,0,0:0:0:0:
64,192,8100,128,0,9000:0:0:0:0:
448,192,8100,128,0,9000:0:0:0:0:
320,192,9000,1,0,0:0:0:0:
192,192,9000,1,0,0:0:0:0:
64,192,9300,1,0,0:0:0:0:
448,192,9600,1,0,0:0:0:0:
64,192,9900,1,0,0:0:0:0:
320,192,9900,1,0,0:0:0:0:
448,192,9900,1,0,0:0:0:0:
192,192,10200,1,0,0:0:0:0:
448,192,10500,1,0,0:0:0:0:
64,192,10800,1,0,0:0:0:0:
320,192,10800,1,0,0:0:0:0:
320,192,11100,1,0,0:0:0:0:
64,192,11400,1,0,0:0:0:0:
448,192,11700,1,0,0:0:0:0:
192,192,11700,1,0,0:0:0:0:
64,192,11700,1,0,0:0:0:0:
192,192,12000,1,0,0:0:0:0:
320,192,12000,1,0,0:0:0:0:
64,192,12600,1,0,0:0:0:0:
448,192,12900,1,0,0:0:0:0:
192,192,13200,1,0,0:0:0:0:
64,192,13500,1,0,0:0:0:0:
448,192,13500,1,0,0:0:0:0:
320,192,13500,1,0,0:0:0:0:
192,192,13800,1,0,0:0:0:0:
320,192,14100,1,0,0:0:0:0:
192,192,14400,1,0,0:0:0:0:
448,192,14400,1,0,0:0:0:0:
64,192,14700,1,0,0:0:0:0:
320,192,15000,1,0,0:0:0:0:
192,192,15150,1,0,0:0:0:0:
448,192,15300,1,0,0:0:0:0:
64,192,15300,1,0,0:0:0:0:
320,192,15300,1,0,0:0:0:0:
64,192,15600,1,0,0:0:0:0:
192,192,15600,128,0,15900:0:0:0:0:
448,192,15900,1,0,0:0:0:0:
448,192,16200,1,0,0:0:0:0:
64,192,16200,1,0,0:0:0:0:
448,192,16500,1,0,0:0:0:0:
320,192,16650,1,0,0:0:0:0:
64,192,16800,1,0,0:0:0:0:
448,192,16950,1,0,0:0:0:0:
64,192,17100,1,0,0:0:0:0:
320,192,17100,1,0,0:0:0:0:
192,192,17100,1,0,0:0:0:0:
192,192,17400,1,0,0:0:0:0:
448,192,17700,1,0,0:0:0:0:
192,192,18000,1,0,0:0:0:0:
64,192,18000,1,0,0:0:0:0:
448,192,18000,1,0,0:0:0:0:
192,192,18300,1,0,0:0:0:0:
320,192,18600,1,0,0:0:0:0:
448,192,18900,1,0,0:0:0:0:
192,192,18900,1,0,0:0:0:0:
64,192,18900,1,0,0:0:0:0:
64,192,19050,128,0,19200:0:0:0:0:
192,192,19200,128,0,19350:0:0:0:0:
448,192,19200,1,0,0:0:0:0:
320,192,19350,128,0,19500:0:0:0:0:
448,192,19425,128,0,19650:0:0:0:0:
64,192,19650,1,0,0:0:0:0:
192,192,19800,1,0,0:0:0:0:
448,192,20100,1,0,0:0:0:0:
320,192,20250,1,0,0:0:0:0:
192,192,20400,1,0,0:0:0:0:
192,192,20700,1,0,0:0:0:0:
64,192,20700,1,0,0:0:0:0:
64,192,21000,1,0,0:0:0:0:
192,192,21150,1,0,0:0:0:0:
320,192,21300,1,0,0:0:0:0:
448,192,21600,1,0,0:0:0:0:
64,192,21600,1,0,0:0:0:0:
192,192,21900,1,0,0:0:0:0:
448,192,21900,1,0,0:0:0:0:
448,192,22200,1,0,0:0:0:0:
64,192,22200,1,0,0:0:0:0:
64,192,22500,1,0,0:0:0:0:
320,192,22500,1,0,0:0:0:0:
448,192,22500,1,0,0:0:0:0:
320,192,22800,1,0,0:0:0:0:
192,192,22800,128,0,23100:0:0:0:0:
448,192,23100,1,0,0:0:0:0:
64,192,23100,1,0,0:0:0:0:
320,192,23400,1,0,0:0:0:0:
192,192,23400,1,0,0:0:0:0:
64,192,23400,1,0,0:0:0:0:
448,192,23400,1,0,0:0:0:0:
448,192,23550,1,0,0:0:0:0:
320,192,23700,1,0,0:0:0:0:
64,192,23850,1,0,0:0:0:0:
192,192,24000,1,0,0:0:0:0:
448,192,24150,1,0,0:0:0:0:
192,192,24300,1,0,0:0:0:0:
64,192,24300,1,0,0:0:0:0:
64,192,24450,1,0,0:0:0:0:
192,192,24600,1,0,0:0:0:0:
448,192,24750,1,0,0:0:0:0:
320,192,24900,1,0,0:0:0:0:
192,192,25050,1,0,0:0:0:0:
64,192,25200,1,0,0:0:0:0:
448,192,25200,1,0,0:0:0:0:
320,192,25350,1,0,0:0:0:0:
192,192,25500,1,0,0:0:0:0:
64,192,25650,1,0,0:0:0:0:
320,192,25650,1,0,0:0:0:0:
448,192,25800,1,0,0:0:0:0:
64,192,25950,1,0,0:0:0:0:
192,192,26100,1,0,0:0:0:0:
448,192,26100,1,0,0:0:0:0:
448,192,26400,1,0,0:0:0:0:
320,192,26400,128,0,26700:0:0:0:0:
192,192,26700,1,0,0:0:0:0:
64,192,26700,1,0,0:0:0:0:
192,192,27000,1,0,0:0:0:0:
64,192,27000,1,0,0:0:0:0:
448,192,27000,1,0,0:0:0:0:
320,192,27000,1,0,0:0:0:0:
64,192,27150,1,0,0:0:0:0:
192,192,27300,1,0,0:0:0:0:
448,192,27450,1,0,0:0:0:0:
320,192,27600,1,0,0:0:0:0:
192,192,27750,1,0,0:0:0:0:
64,192,27900,1,0,0:0:0:0:
320,192,27900,1,0,0:0:0:0:
448,192,28050,1,0,0:0:0:0:
320,192,28200,1,0,0:0:0:0:
64,192,28350,1,0,0:0:0:0:
192,192,28500,1,0,0:0:0:0:
320,192,28650,1,0,0:0:0:0:
448,192,28800,1,0,0:0:0:0:
64,192,28800,1,0,0:0:0:0:
192,192,28950,1,0,0:0:0:0:
64,192,29100,1,0,0:0:0:0:
448,192,29250,1,0,0:0:0:0:
192,192,29400,1,0,0:0:0:0:
448,192,29550,1,0,0:0:0:0:
192,192,29700,1,0,0:0:0:0:
64,192,29700,1,0,0:0:0:0:
320,192,30000,1,0,0:0:0:0:
192,192,30000,128,0,30300:0:0:0:0:
64,192,30300,1,0,0:0:0:0:
448,192,30300,1,0,0:0:0:0:
320,192,30600,1,0,0:0:0:0:
192,192,30600,1,0,0:0:0:0:
64,192,30600,1,0,0:0:0:0:
448,192,30600,1,0,0:0:0:0:
448,192,30900,128,0,31500:0:0:0:0:
64,192,30900,1,0,0:0:0:0:
320,192,31050,1,0,0:0:0:0:
192,192,31200,1,0,0:0:0:0:
64,192,31350,1,0,0:0:0:0:
320,192,31500,1,0,0:0:0:0:
64,192,31500,128,0,32100:0:0:0:0:
192,192,31650,1,0,0:0:0:0:
448,192,31800,1,0,0:0:0:0:
192,192,31950,1,0,0:0:0:0:
320,192,32100,1,0,0:0:0:0:
448,192,32100,128,0,33300:0:0:0:0:
192,192,32250,1,0,0:0:0:0:
64,192,32400,1,0,0:0:0:0:
320,192,32400,1,0,0:0:0:0:
192,192,32550,1,0,0:0:0:0:
320,192,32700,1,0,0:0:0:0:
192,192,32850,1,0,0:0:0:0:
64,192,33000,1,0,0:0:0:0:
320,192,33150,1,0,0:0:0:0:
320,192,33300,1,0,0:0:0:0:
192,192,33300,1,0,0:0:0:0:
320,192,33600,1,0,0:0:0:0:
192,192,33600,128,0,33900:0:0:0:0:
64,192,33900,1,0,0:0:0:0:
448,192,33900,1,0,0:0:0:0:
192,192,34200,1,0,0:0:0:0:
320,192,34200,1,0,0:0:0:0:
448,192,34200,1,0,0:0:0:0:
64,192,34200,1,0,0:0:0:0:
64,192,34350,1,0,0:0:0:0:
448,192,34350,128,0,35100:0:0:0:0:
320,192,34500,1,0,0:0:0:0:
192,192,34650,1,0,0:0:0:0:
64,192,34800,1,0,0:0:0:0:
320,192,34950,1,0,0:0:0:0:
192,192,35100,1,0,0:0:0:0:
64,192,35100,128,0,36000:0:0:0:0:
320,192,35250,1,0,0:0:0:0:
192,192,35400,1,0,0:0:0:0:
448,192,35550,1,0,0:0:0:0:
320,192,35700,1,0,0:0:0:0:
192,192,35850,1,0,0:0:0:0:
448,192,36000,128,0,36900:0:0:0:0:
320,192,36000,1,0,0:0:0:0:
64,192,36150,1,0,0:0:0:0:
320,192,36300,1,0,0:0:0:0:
192,192,36450,1,0,0:0:0:0:
320,192,36600,1,0,0:0:0:0:
64,192,36750,1,0,0:0:0:0:
192,192,36900,1,0,0:0:0:0:
64,192,37650,1,0,0:0:0:0:
192,192,37700,1,0,0:0:0:0:
320,192,37750,1,0,0:0:0:0:
448,192,37800,1,0,0:0:0:0:
320,192,38100,1,0,0:0:0:0:
64,192,38250,1,0,0:0:0:0:
448,192,38400,1,0,0:0:0:0:
192,192,38550,1,0,0:0:0:0:
448,192,38700,1,0,0:0:0:0:
64,192,38700,1,0,0:0:0:0:
320,192,38850,1,0,0:0:0:0:
192,192,39000,1,0,0:0:0:0:
64,192,39150,1,0,0:0:0:0:
320,192,39300,1,0,0:0:0:0:
64,192,39450,1,0,0:0:0:0:
192,192,39600,1,0,0:0:0:0:
448,192,39600,1,0,0:0:0:0:
320,192,39750,1,0,0:0:0:0:
64,192,39900,1,0,0:0:0:0:
192,192,40050,1,0,0:0:0:0:
448,192,40200,1,0,0:0:0:0:
320,192,40275,1,0,0:0:0:0:
192,192,40350,1,0,0:0:0:0:
64,192,40425,1,0,0:0:0:0:
448,192,40500,1,0,0:0:0:0:
320,192,40500,1,0,0:0:0:0:
192,192,40650,1,0,0:0:0:0:
64,192,40800,1,0,0:0:0:0:
320,192,40950,1,0,0:0:0:0:
192,192,41100,1,0,0:0:0:0:
64,192,41250,1,0,0:0:0:0:
320,192,41400,1,0,0:0:0:0:
448,192,41400,1,0,0:0:0:0:
192,192,41550,1,0,0:0:0:0:
64,192,41700,1,0,0:0:0:0:
192,192,41850,1,0,0:0:0:0:
320,192,42000,1,0,0:0:0:0:
64,192,42150,1,0,0:0:0:0:
192,192,42300,1,0,0:0:0:0:
448,192,42300,1,0,0:0:0:0:
64,192,42450,1,0,0:0:0:0:
320,192,42600,1,0,0:0:0:0:
448,192,42750,1,0,0:0:0:0:
64,192,42900,1,0,0:0:0:0:
320,192,43050,1,0,0:0:0:0:
192,192,43200,1,0,0:0:0:0:
64,192,43200,1,0,0:0:0:0:
320,192,43350,1,0,0:0:0:0:
192,192,43500,1,0,0:0:0:0:
64,192,43650,1,0,0:0:0:0:
320,192,43800,1,0,0:0:0:0:
192,192,43950,1,0,0:0:0:0:
64,192,44100,1,0,0:0:0:0:
320,192,44100,1,0,0:0:0:0:
448,192,44400,128,0,44700:0:0:0:0:
64,192,44400,1,0,0:0:0:0:
320,192,44700,1,0,0:0:0:0:
192,192,44850,1,0,0:0:0:0:
448,192,45000,1,0,0:0:0:0:
64,192,45000,1,0,0:0:0:0:
320,192,45000,1,0,0:0:0:0:
192,192,45150,1,0,0:0:0:0:
320,192,45300,1,0,0:0:0:0:
448,192,45600,1,0,0:0:0:0:
320,192,45675,1,0,0:0:0:0:
192,192,45750,1,0,0:0:0:0:
64,192,45825,1,0,0:0:0:0:
320,192,45900,1,0,0:0:0:0:
448,192,45900,1,0,0:0:0:0:
64,192,46050,1,0,0:0:0:0:
192,192,46200,1,0,0:0:0:0:
448,192,46350,1,0,0:0:0:0:
320,192,46500,1,0,0:0:0:0:
192,192,46650,1,0,0:0:0:0:
320,192,46800,1,0,0:0:0:0:
64,192,46800,1,0,0:0:0:0:
448,192,46950,1,0,0:0:0:0:
192,192,47100,1,0,0:0:0:0:
448,192,47250,1,0,0:0:0:0:
64,192,47400,1,0,0:0:0:0:
448,192,47550,1,0,0:0:0:0:
192,192,47700,1,0,0:0:0:0:
64,192,47700,1,0,0:0:0:0:
64,192,47850,1,0,0:0:0:0:
320,192,48000,1,0,0:0:0:0:
448,192,48000,1,0,0:0:0:0:
448,192,48150,1,0,0:0:0:0:
192,192,48300,1,0,0:0:0:0:
64,192,48450,1,0,0:0:0:0:
448,192,48600,1,0,0:0:0:0:
192,192,48600,1,0,0:0:0:0:
320,192,48900,1,0,0:0:0:0:
192,192,49050,1,0,0:0:0:0:
448,192,49125,1,0,0:0:0:0:
320,192,49200,1,0,0:0:0:0:
192,192,49275,1,0,0:0:0:0:
64,192,49350,1,0,0:0:0:0:
320,192,49500,1,0,0:0:0:0:
64,192,49500,1,0,0:0:0:0:
192,192,49650,1,0,0:0:0:0:
320,192,49800,1,0,0:0:0:0:
448,192,49950,1,0,0:0:0:0:
192,192,50100,1,0,0:0:0:0:
320,192,50250,1,0,0:0:0:0:
64,192,50400,1,0,0:0:0:0:
192,192,50400,1,0,0:0:0:0:
320,192,50550,1,0,0:0:0:0:
448,192,50550,1,0,0:0:0:0:
192,192,50850,1,0,0:0:0:0:
64,192,50850,1,0,0:0:0:0:
448,192,51000,1,0,0:0:0:0:
320,192,51000,1,0,0:0:0:0:
192,192,51150,1,0,0:0:0:0:
64,192,51150,1,0,0:0:0:0:
448,192,51300,1,0,0:0:0:0:
64,192,51300,1,0,0:0:0:0:
64,192,51600,1,0,0:0:0:0:
192,192,51600,1,0,0:0:0:0:
320,192,51750,1,0,0:0:0:0:
448,192,51750,1,0,0:0:0:0:
192,192,51900,1,0,0:0:0:0:
64,192,51900,1,0,0:0:0:0:
64,192,52200,1,0,0:0:0:0:
448,192,52200,1,0,0:0:0:0:
320,192,52200,1,0,0:0:0:0:
192,192,52200,1,0,0:0:0:0:
448,192,52500,1,0,0:0:0:0:
64,192,52650,1,0,0:0:0:0:
192,192,52800,1,0,0:0:0:0:
448,192,52950,1,0,0:0:0:0:
320,192,53100,1,0,0:0:0:0:
64,192,53100,1,0,0:0:0:0:
192,192,53250,1,0,0:0:0:0:
64,192,53400,1,0,0:0:0:0:
320,192,53550,1,0,0:0:0:0:
192,192,53700,1,0,0:0:0:0:
64,192,53850,1,0,0:0:0:0:
448,192,54000,1,0,0:0:0:0:
320,192,54000,1,0,0:0:0:0:
192,192,54150,1,0,0:0:0:0:
320,192,54300,1,0,0:0:0:0:
64,192,54450,1,0,0:0:0:0:
192,192,54600,1,0,0:0:0:0:
448,192,54750,1,0,0:0:0:0:
64,192,54900,1,0,0:0:0:0:
320,192,54900,1,0,0:0:0:0:
448,192,55200,1,0,0:0:0:0:
64,192,55200,128,0,55500:0:0:0:0:
192,192,55500,1,0,0:0:0:0:
448,192,55500,1,0,0:0:0:0:
192,192,55800,1,0,0:0:0:0:
64,192,55800,1,0,0:0:0:0:
448,192,55800,1,0,0:0:0:0:
320,192,55800,1,0,0:0:0:0:
320,192,55950,1,0,0:0:0:0:
448,192,56100,1,0,0:0:0:0:
64,192,56250,1,0,0:0:0:0:
192,192,56400,1,0,0:0:0:0:
448,192,56550,1,0,0:0:0:0:
320,192,56700,1,0,0:0:0:0:
64,192,56700,1,0,0:0:0:0:
192,192,56850,1,0,0:0:0:0:
64,192,57000,1,0,0:0:0:0:
192,192,57150,1,0,0:0:0:0:
320,192,57300,1,0,0:0:0:0:
64,192,57450,1,0,0:0:0:0:
192,192,57600,1,0,0:0:0:0:
448,192,57600,1,0,0:0:0:0:
320,192,57750,1,0,0:0:0:0:
448,192,57900,1,0,0:0:0:0:
64,192,58050,1,0,0:0:0:0:
192,192,58200,1,0,0:0:0:0:
448,192,58350,1,0,0:0:0:0:
64,192,58500,1,0,0:0:0:0:
320,192,58500,1,0,0:0:0:0:
64,192,58800,1,0,0:0:0:0:
320,192,58800,128,0,59100:0:0:0:0:
192,192,59100,1,0,0:0:0:0:
448,192,59100,1,0,0:0:0:0:
192,192,59400,1,0,0:0:0:0:
448,192,59400,1,0,0:0:0:0:
64,192,59400,1,0,0:0:0:0:
320,192,59400,1,0,0:0:0:0:
320,192,59550,1,0,0:0:0:0:
64,192,59700,1,0,0:0:0:0:
320,192,59850,1,0,0:0:0:0:
192,192,60000,1,0,0:0:0:0:
320,192,60150,1,0,0:0:0:0:
448,192,60300,1,0,0:0:0:0:
64,192,60300,1,0,0:0:0:0:
192,192,60450,1,0,0:0:0:0:
320,192,60600,1,0,0:0:0:0:
192,192,60750,1,0,0:0:0:0:
64,192,60900,1,0,0:0:0:0:
320,192,61050,1,0,0:0:0:0:
192,192,61200,1,0,0:0:0:0:
448,192,61200,1,0,0:0:0:0:
320,192,61350,1,0,0:0:0:0:
448,192,61500,1,0,0:0:0:0:
64,192,61650,1,0,0:0:0:0:
320,192,61800,1,0,0:0:0:0:
192,192,61950,1,0,0:0:0:0:
64,192,62100,1,0,0:0:0:0:
448,192,62100,1,0,0:0:0:0:
192,192,62400,128,0,62700:0:0:0:0:
320,192,62400,1,0,0:0:0:0:
64,192,62700,1,0,0:0:0:0:
448,192,62700,1,0,0:0:0:0:
192,192,63000,1,0,0:0:0:0:
320,192,63150,1,0,0:0:0:0:
448,192,63300,1,0,0:0:0:0:
192,192,63450,1,0,0:0:0:0:
64,192,63600,1,0,0:0:0:0:
448,192,63750,1,0,0:0:0:0:
320,192,63900,1,0,0:0:0:0:
192,192,63900,1,0,0:0:0:0:
64,192,64050,1,0,0:0:0:0:
192,192,64200,1,0,0:0:0:0:
320,192,64350,1,0,0:0:0:0:
64,192,64500,1,0,0:0:0:0:
320,192,64650,1,0,0:0:0:0:
448,192,64800,1,0,0:0:0:0:
64,192,64800,1,0,0:0:0:0:
192,192,64950,1,0,0:0:0:0:
320,192,65100,1,0,0:0:0:0:
448,192,65250,1,0,0:0:0:0:
64,192,65400,128,0,65700:0:0:0:0:
320,192,65550,1,0,0:0:0:0:
192,192,65700,1,0,0:0:0:0:
448,192,65700,1,0,0:0:0:0:
64,192,66000,128,0,66600:0:0:0:0:
448,192,66600,1,0,0:0:0:0:
320,192,66900,1,0,0:0:0:0:
64,192,67050,1,0,0:0:0:0:
192,192,67200,1,0,0:0:0:0:
320,192,67350,1,0,0:0:0:0:
192,192,67500,1,0,0:0:0:0:
448,192,67500,1,0,0:0:0:0:
64,192,67500,1,0,0:0:0:0:
320,192,67800,1,0,0:0:0:0:
192,192,67950,1,0,0:0:0:0:
64,192,68100,1,0,0:0:0:0:
192,192,68250,1,0,0:0:0:0:
320,192,68400,1,0,0:0:0:0:
64,192,68400,1,0,0:0:0:0:
448,192,68400,1,0,0:0:0:0:
192,192,68700,1,0,0:0:0:0:
320,192,68850,1,0,0:0:0:0:
448,192,69000,1,0,0:0:0:0:
320,192,69150,1,0,0:0:0:0:
64,192,69300,1,0,0:0:0:0:
192,192,69300,1,0,0:0:0:0:
448,192,69300,1,0,0:0:0:0:
320,192,69600,1,0,0:0:0:0:
192,192,69750,1,0,0:0:0:0:
448,192,69900,1,0,0:0:0:0:
320,192,70050,1,0,0:0:0:0:
192,192,70200,1,0,0:0:0:0:
64,192,70200,1,0,0:0:0:0:
448,192,70200,1,0,0:0:0:0:
192,192,70500,1,0,0:0:0:0:
320,192,70650,1,0,0:0:0:0:
64,192,70800,1,0,0:0:0:0:
192,192,70950,1,0,0:0:0:0:
320,192,71100,1,0,0:0:0:0:
448,192,71100,1,0,0:0:0:0:
64,192,71100,1,0,0:0:0:0:
320,192,71400,1,0,0:0:0:0:
192,192,71550,1,0,0:0:0:0:
64,192,71700,1,0,0:0:0:0:
192,192,71850,1,0,0:0:0:0:
448,192,72000,1,0,0:0:0:0:
320,192,72000,1,0,0:0:0:0:
64,192,72000,1,0,0:0:0:0:
320,192,72300,128,0,72600:0:0:0:0:
192,192,72600,128,0,72900:0:0:0:0:
64,192,72900,128,0,73500:0:0:0:0:
320,192,72900,128,0,73200:0:0:0:0:
448,192,72900,1,0,0:0:0:0:
448,192,73200,1,0,0:0:0:0:
192,192,73200,128,0,73500:0:0:0:0:
320,192,73500,1,0,0:0:0:0:
448,192,73800,1,0,0:0:0:0:
192,192,73950,1,0,0:0:0:0:
320,192,74100,1,0,0:0:0:0:
64,192,74400,1,0,0:0:0:0:
320,192,74550,1,0,0:0:0:0:
192,192,74700,1,0,0:0:0:0:
448,192,74700,1,0,0:0:0:0:
64,192,75000,1,0,0:0:0:0:
320,192,75300,1,0,0:0:0:0:
192,192,75600,1,0,0:0:0:0:
448,192,75600,1,0,0:0:0:0:
320,192,75900,1,0,0:0:0:0:
192,192,76050,1,0,0:0:0:0:
320,192,76200,1,0,0:0:0:0:
192,192,76350,1,0,0:0:0:0:
64,192,76500,1,0,0:0:0:0:
448,192,76500,1,0,0:0:0:0:
192,192,76800,1,0,0:0:0:0:
320,192,76800,1,0,0:0:0:0:
448,192,77400,1,0,0:0:0:0:
64,192,77400,1,0,0:0:0:0:
320,192,77400,1,0,0:0:0:0:
192,192,77700,1,0,0:0:0:0:
320,192,77850,1,0,0:0:0:0:
448,192,78000,1,0,0:0:0:0:
64,192,78300,1,0,0:0:0:0:
192,192,78300,1,0,0:0:0:0:
320,192,78300,1,0,0:0:0:0:
448,192,78600,1,0,0:0:0:0:
320,192,78750,1,0,0:0:0:0:
192,192,78900,1,0,0:0:0:0:
448,192,79200,1,0,0:0:0:0:
192,192,79200,1,0,0:0:0:0:
320,192,79350,1,0,0:0:0:0:
64,192,79350,1,0,0:0:0:0:
192,192,79650,1,0,0:0:0:0:
448,192,79650,1,0,0:0:0:0:
64,192,79800,1,0,0:0:0:0:
320,192,79800,1,0,0:0:0:0:
192,192,79950,1,0,0:0:0:0:
448,192,79950,1,0,0:0:0:0:
448,192,80100,1,0,0:0:0:0:
64,192,80100,1,0,0:0:0:0:
192,192,80250,1,0,0:0:0:0:
64,192,80400,1,0,0:0:0:0:
320,192,80400,1,0,0:0:0:0:
64,192,80550,1,0,0:0:0:0:
320,192,80550,1,0,0:0:0:0:
192,192,80700,1,0,0:0:0:0:
448,192,80700,1,0,0:0:0:0:
448,192,81000,1,0,0:0:0:0:
192,192,81000,1,0,0:0:0:0:
64,192,81000,1,0,0:0:0:0:
320,192,81000,1,0,0:0:0:0:
320,192,81150,1,0,0:0:0:0:
192,192,81300,1,0,0:0:0:0:
64,192,81450,1,0,0:0:0:0:
448,192,81600,1,0,0:0:0:0:
192,192,81750,1,0,0:0:0:0:
64,192,81900,1,0,0:0:0:0:
320,192,81900,1,0,0:0:0:0:
448,192,82050,1,0,0:0:0:0:
320,192,82200,1,0,0:0:0:0:
64,192,82350,1,0,0:0:0:0:
192,192,82500,1,0,0:0:0:0:
320,192,82650,1,0,0:0:0:0:
64,192,82800,1,0,0:0:0:0:
448,192,82800,1,0,0:0:0:0:
192,192,82950,1,0,0:0:0:0:
448,192,83100,1,0,0:0:0:0:
64,192,83250,1,0,0:0:0:0:
320,192,83400,1,0,0:0:0:0:
448,192,83550,1,0,0:0:0:0:
192,192,83700,1,0,0:0:0:0:
64,192,83700,1,0,0:0:0:0:
192,192,84000,128,0,84300:0:0:0:0:
320,192,84000,1,0,0:0:0:0:
64,192,84300,1,0,0:0:0:0:
448,192,84300,1,0,0:0:0:0:
192,192,84600,1,0,0:0:0:0:
448,192,84600,1,0,0:0:0:0:
320,192,84600,1,0,0:0:0:0:
64,192,84600,1,0,0:0:0:0:
64,192,84750,1,0,0:0:0:0:
320,192,84900,1,0,0:0:0:0:
448,192,85050,1,0,0:0:0:0:
64,192,85200,1,0,0:0:0:0:
192,192,85350,1,0,0:0:0:0:
448,192,85500,1,0,0:0:0:0:
320,192,85650,1,0,0:0:0:0:
64,192,85800,1,0,0:0:0:0:
192,192,85950,1,0,0:0:0:0:
448,192,86100,1,0,0:0:0:0:
320,192,86250,1,0,0:0:0:0:
64,192,86400,1,0,0:0:0:0:
448,192,86400,1,0,0:0:0:0:
192,192,86550,1,0,0:0:0:0:
320,192,86700,1,0,0:0:0:0:
64,192,86850,1,0,0:0:0:0:
192,192,87000,1,0,0:0:0:0:
320,192,87150,1,0,0:0:0:0:
448,192,87300,1,0,0:0:0:0:
64,192,87300,1,0,0:0:0:0:
192,192,87600,1,0,0:0:0:0:
320,192,87600,1,0,0:0:0:0:
448,192,87900,1,0,0:0:0:0:
64,192,87900,1,0,0:0:0:0:
448,192,88200,1,0,0:0:0:0:
64,192,88200,1,0,0:0:0:0:
192,192,88200,1,0,0:0:0:0:
320,192,88200,1,0,0:0:0:0:
192,192,88350,1,0,0:0:0:0:
320,192,88500,1,0,0:0:0:0:
192,192,88650,1,0,0:0:0:0:
64,192,88800,1,0,0:0:0:0:
320,192,88950,1,0,0:0:0:0:
192,192,89100,1,0,0:0:0:0:
448,192,89100,1,0,0:0:0:0:
64,192,89250,1,0,0:0:0:0:
448,192,89400,1,0,0:0:0:0:
320,192,89550,1,0,0:0:0:0:
192,192,89700,1,0,0:0:0:0:
448,192,89850,1,0,0:0:0:0:
64,192,90000,1,0,0:0:0:0:
320,192,90000,1,0,0:0:0:0:
192,192,90150,1,0,0:0:0:0:
320,192,90300,1,0,0:0:0:0:
64,192,90450,1,0,0:0:0:0:
448,192,90600,1,0,0:0:0:0:
320,192,90750,1,0,0:0:0:0:
192,192,90900,1,0,0:0:0:0:
448,192,90900,1,0,0:0:0:0:
192,192,91200,128,0,91500:0:0:0:0:
320,192,91200,1,0,0:0:0:0:
448,192,91500,1,0,0:0:0:0:
64,192,91500,1,0,0:0:0:0:
320,192,91800,1,0,0:0:0:0:
64,192,91800,1,0,0:0:0:0:
192,192,91800,1,0,0:0:0:0:
448,192,91800,1,0,0:0:0:0:
64,192,91950,1,0,0:0:0:0:
192,192,92100,1,0,0:0:0:0:
320,192,92250,1,0,0:0:0:0:
448,192,92400,1,0,0:0:0:0:
192,192,92550,1,0,0:0:0:0:
64,192,92700,1,0,0:0:0:0:
320,192,92700,1,0,0:0:0:0:
448,192,92850,1,0,0:0:0:0:
192,192,93000,1,0,0:0:0:0:
64,192,93150,1,0,0:0:0:0:
448,192,93300,1,0,0:0:0:0:
192,192,93450,1,0,0:0:0:0:
320,192,93600,1,0,0:0:0:0:
64,192,93600,1,0,0:0:0:0:
448,192,93750,1,0,0:0:0:0:
64,192,93900,1,0,0:0:0:0:
320,192,94050,1,0,0:0:0:0:
192,192,94200,1,0,0:0:0:0:
320,192,94350,1,0,0:0:0:0:
448,192,94500,128,0,95100:0:0:0:0:
64,192,94500,1,0,0:0:0:0:
64,192,95400,1,0,0:0:0:0:
448,192,95700,1,0,0:0:0:0:
64,192,95850,1,0,0:0:0:0:
192,192,96000,1,0,0:0:0:0:
448,192,96150,1,0,0:0:0:0:
192,192,96300,1,0,0:0:0:0:
64,192,96600,1,0,0:0:0:0:
320,192,96750,1,0,0:0:0:0:
192,192,96900,1,0,0:0:0:0:
64,192,97050,1,0,0:0:0:0:
320,192,97200,1,0,0:0:0:0:
448,192,97500,1,0,0:0:0:0:
64,192,97800,1,0,0:0:0:0:
192,192,97950,1,0,0:0:0:0:
320,192,98100,128,0,98700:0:0:0:0:
64,192,98400,1,0,0:0:0:0:
192,192,98400,128,0,98700:0:0:0:0:
448,192,98700,1,0,0:0:0:0:
320,192,99000,128,0,99300:0:0:0:0:
448,192,99300,1,0,0:0:0:0:
192,192,99450,1,0,0:0:0:0:
64,192,99600,1,0,0:0:0:0:
192,192,99750,1,0,0:0:0:0:
320,192,99900,1,0,0:0:0:0:
64,192,99900,128,0,100200:0:0:0:0:
448,192,100200,128,0,100500:0:0:0:0:
320,192,100500,1,0,0:0:0:0:
192,192,100500,128,0,100800:0:0:0:0:
320,192,100800,1,0,0:0:0:0:
448,192,101100,1,0,0:0:0:0:
192,192,101250,1,0,0:0:0:0:
320,192,101400,1,0,0:0:0:0:
64,192,101550,1,0,0:0:0:0:
320,192,101700,128,0,102000:0:0:0:0:
64,192,102000,128,0,102600:0:0:0:0:
448,192,102600,1,0,0:0:0:0:
192,192,102600,1,0,0:0:0:0:
320,192,102900,1,0,0:0:0:0:
192,192,103200,1,0,0:0:0:0:
64,192,103500,1,0,0:0:0:0:
320,192,103800,1,0,0:0:0:0:
192,192,104100,1,0,0:0:0:0:
64,192,104400,1,0,0:0:0:0:
192,192,104700,1,0,0:0:0:0:
320,192,105000,1,0,0:0:0:0:
448,192,105300,1,0,0:0:0:0:
320,192,105600,1,0,0:0:0:0:
64,192,105975,1,0,0:0:0:0:
192,192,106050,1,0,0:0:0:0:
320,192,106125,1,0,0:0:0:0:
448,192,106200,1,0,0:0:0:0:
