osu file format v14

[General]
AudioFilename: M2U & Nicode - Myosotis.mp3
AudioLeadIn: 0
PreviewTime: 43650
Countdown: 0
SampleSet: Normal
StackLeniency: 0.7
Mode: 3
LetterboxInBreaks: 0
SpecialStyle: 0
WidescreenStoryboard: 1

[Editor]
DistanceSpacing: 0.8
BeatDivisor: 4
GridSize: 16
TimelineZoom: 1

[Metadata]
Title:Myosotis
TitleUnicode:Myosotis
Artist:M2U & Nicode
ArtistUnicode:M2U & Nicode
Creator:Anima_Alumi-47
Version:HD
Source:Deemo
Tags:
BeatmapID:855568
BeatmapSetID:393021

[Difficulty]
HPDrainRate:7
CircleSize:4
OverallDifficulty:8
ApproachRate:5
SliderMultiplier:1.4
SliderTickRate:1

[Events]
//Background and Video events
0,0,"bg.png",0,0
//Break Periods
//Storyboard Layer 0 (Background)
//Storyboard Layer 1 (Fail)
//Storyboard Layer 2 (Pass)
//Storyboard Layer 3 (Foreground)
//Storyboard Sound Samples

[TimingPoints]
1650,375,4,1,1,100,1,0
78150,-100,4,3,1,100,0,1
102150,-100,4,1,1,100,0,0

[HitObjects]
64,192,1650,5,0,0:0:0:0:
448,192,1650,1,0,0:0:0:0:
192,192,2025,1,0,0:0:0:0:
320,192,2400,1,0,0:0:0:0:
448,192,2400,1,0,0:0:0:0:
64,192,3150,1,0,0:0:0:0:
448,192,3150,1,0,0:0:0:0:
320,192,3525,1,0,0:0:0:0:
192,192,3900,1,0,0:0:0:0:
64,192,3900,1,0,0:0:0:0:
320,192,4275,1,0,0:0:0:0:
192,192,4650,1,0,0:0:0:0:
448,192,4650,1,0,0:0:0:0:
64,192,5025,1,0,0:0:0:0:
320,192,5400,1,0,0:0:0:0:
448,192,5400,1,0,0:0:0:0:
192,192,5775,1,0,0:0:0:0:
64,192,6150,1,0,0:0:0:0:
448,192,6150,1,0,0:0:0:0:
320,192,6525,1,0,0:0:0:0:
192,192,6900,1,0,0:0:0:0:
64,192,6900,1,0,0:0:0:0:
320,192,7275,1,0,0:0:0:0:
192,192,7650,1,0,0:0:0:0:
448,192,7650,1,0,0:0:0:0:
64,192,8025,1,0,0:0:0:0:
192,192,8400,1,0,0:0:0:0:
448,192,8400,1,0,0:0:0:0:
320,192,8775,1,0,0:0:0:0:
64,192,9150,1,0,0:0:0:0:
448,192,9150,128,0,9900:0:0:0:0:
192,192,9525,1,0,0:0:0:0:
320,192,9900,128,0,10275:0:0:0:0:
64,192,9900,1,0,0:0:0:0:
192,192,10275,128,0,10650:0:0:0:0:
448,192,10275,1,0,0:0:0:0:
320,192,10650,1,0,0:0:0:0:
64,192,10650,128,0,10837:0:0:0:0:
448,192,11025,1,0,0:0:0:0:
192,192,11400,128,0,11775:0:0:0:0:
320,192,11400,1,0,0:0:0:0:
448,192,11775,128,0,12150:0:0:0:0:
64,192,11775,1,0,0:0:0:0:
320,192,12150,128,0,12900:0:0:0:0:
192,192,12150,1,0,0:0:0:0:
64,192,12900,128,0,13650:0:0:0:0:
192,192,12900,1,0,0:0:0:0:
448,192,13650,128,0,18150:0:0:0:0:
320,192,13650,1,0,0:0:0:0:
64,192,14025,1,0,0:0:0:0:
192,192,14212,1,0,0:0:0:0:
64,192,14400,1,0,0:0:0:0:
192,192,14587,1,0,0:0:0:0:
320,192,14775,1,0,0:0:0:0:
192,192,14962,1,0,0:0:0:0:
64,192,15150,1,0,0:0:0:0:
320,192,15337,1,0,0:0:0:0:
192,192,15525,1,0,0:0:0:0:
64,192,15712,1,0,0:0:0:0:
320,192,15900,1,0,0:0:0:0:
192,192,16087,1,0,0:0:0:0:
64,192,16275,1,0,0:0:0:0:
192,192,16462,1,0,0:0:0:0:
320,192,16650,1,0,0:0:0:0:
64,192,16837,1,0,0:0:0:0:
320,192,17025,1,0,0:0:0:0:
192,192,17212,1,0,0:0:0:0:
320,192,17400,1,0,0:0:0:0:
64,192,17587,1,0,0:0:0:0:
192,192,17775,1,0,0:0:0:0:
320,192,17962,1,0,0:0:0:0:
64,192,18150,1,0,0:0:0:0:
192,192,18243,1,0,0:0:0:0:
320,192,18337,1,0,0:0:0:0:
448,192,18431,1,0,0:0:0:0:
192,192,18525,1,0,0:0:0:0:
320,192,18618,1,0,0:0:0:0:
448,192,18712,1,0,0:0:0:0:
192,192,18806,1,0,0:0:0:0:
64,192,18900,1,0,0:0:0:0:
320,192,18993,1,0,0:0:0:0:
192,192,19087,1,0,0:0:0:0:
448,192,19181,1,0,0:0:0:0:
64,192,19275,1,0,0:0:0:0:
320,192,19368,1,0,0:0:0:0:
192,192,19462,1,0,0:0:0:0:
64,192,19556,1,0,0:0:0:0:
192,192,19650,1,0,0:0:0:0:
448,192,19650,1,0,0:0:0:0:
320,192,20025,1,0,0:0:0:0:
192,192,20306,1,0,0:0:0:0:
64,192,20400,1,0,0:0:0:0:
448,192,20400,1,0,0:0:0:0:
320,192,20775,1,0,0:0:0:0:
192,192,21150,1,0,0:0:0:0:
64,192,21150,1,0,0:0:0:0:
448,192,21525,1,0,0:0:0:0:
64,192,21900,1,0,0:0:0:0:
320,192,21900,1,0,0:0:0:0:
192,192,22275,1,0,0:0:0:0:
320,192,22650,1,0,0:0:0:0:
448,192,22650,1,0,0:0:0:0:
64,192,22837,1,0,0:0:0:0:
192,192,23025,1,0,0:0:0:0:
448,192,23025,1,0,0:0:0:0:
320,192,23212,1,0,0:0:0:0:
448,192,23400,1,0,0:0:0:0:
192,192,23400,1,0,0:0:0:0:
64,192,23587,1,0,0:0:0:0:
320,192,23775,1,0,0:0:0:0:
448,192,23775,1,0,0:0:0:0:
192,192,23962,1,0,0:0:0:0:
64,192,24150,1,0,0:0:0:0:
320,192,24150,1,0,0:0:0:0:
448,192,24337,1,0,0:0:0:0:
64,192,24525,1,0,0:0:0:0:
192,192,24525,1,0,0:0:0:0:
320,192,24712,1,0,0:0:0:0:
192,192,24900,1,0,0:0:0:0:
448,192,24900,1,0,0:0:0:0:
320,192,25275,1,0,0:0:0:0:
64,192,25275,1,0,0:0:0:0:
192,192,25650,1,0,0:0:0:0:
64,192,25650,1,0,0:0:0:0:
320,192,26025,1,0,0:0:0:0:
192,192,26400,1,0,0:0:0:0:
448,192,26400,1,0,0:0:0:0:
64,192,26775,1,0,0:0:0:0:
192,192,27150,1,0,0:0:0:0:
320,192,27150,1,0,0:0:0:0:
64,192,27525,1,0,0:0:0:0:
320,192,27900,1,0,0:0:0:0:
448,192,27900,1,0,0:0:0:0:
192,192,28275,1,0,0:0:0:0:
64,192,28650,1,0,0:0:0:0:
448,192,28650,1,0,0:0:0:0:
192,192,28837,1,0,0:0:0:0:
320,192,29025,1,0,0:0:0:0:
192,192,29212,1,0,0:0:0:0:
64,192,29400,1,0,0:0:0:0:
320,192,29400,1,0,0:0:0:0:
192,192,29587,1,0,0:0:0:0:
448,192,29775,1,0,0:0:0:0:
192,192,29962,1,0,0:0:0:0:
320,192,30150,1,0,0:0:0:0:
64,192,30150,1,0,0:0:0:0:
448,192,30900,1,0,0:0:0:0:
192,192,30900,1,0,0:0:0:0:
320,192,31087,1,0,0:0:0:0:
192,192,31275,1,0,0:0:0:0:
64,192,31462,1,0,0:0:0:0:
448,192,31650,1,0,0:0:0:0:
192,192,31650,1,0,0:0:0:0:
320,192,31837,1,0,0:0:0:0:
192,192,32025,1,0,0:0:0:0:
320,192,32212,1,0,0:0:0:0:
64,192,32400,1,0,0:0:0:0:
448,192,32400,1,0,0:0:0:0:
320,192,32587,1,0,0:0:0:0:
64,192,32775,1,0,0:0:0:0:
192,192,32962,1,0,0:0:0:0:
320,192,33150,1,0,0:0:0:0:
448,192,33150,1,0,0:0:0:0:
64,192,33525,1,0,0:0:0:0:
192,192,33525,1,0,0:0:0:0:
448,192,33900,1,0,0:0:0:0:
192,192,33900,1,0,0:0:0:0:
320,192,34087,1,0,0:0:0:0:
192,192,34275,1,0,0:0:0:0:
64,192,34462,1,0,0:0:0:0:
320,192,34650,1,0,0:0:0:0:
448,192,34650,1,0,0:0:0:0:
64,192,35025,1,0,0:0:0:0:
192,192,35212,1,0,0:0:0:0:
64,192,35400,1,0,0:0:0:0:
320,192,35400,1,0,0:0:0:0:
192,192,35587,1,0,0:0:0:0:
320,192,35775,1,0,0:0:0:0:
448,192,35962,1,0,0:0:0:0:
320,192,36150,1,0,0:0:0:0:
64,192,36150,1,0,0:0:0:0:
192,192,36525,1,0,0:0:0:0:
448,192,36525,1,0,0:0:0:0:
320,192,36900,1,0,0:0:0:0:
448,192,36900,1,0,0:0:0:0:
64,192,37087,1,0,0:0:0:0:
192,192,37275,1,0,0:0:0:0:
448,192,37275,1,0,0:0:0:0:
320,192,37462,1,0,0:0:0:0:
64,192,37650,1,0,0:0:0:0:
448,192,37650,1,0,0:0:0:0:
192,192,38025,1,0,0:0:0:0:
448,192,38025,1,0,0:0:0:0:
320,192,38212,1,0,0:0:0:0:
192,192,38400,1,0,0:0:0:0:
64,192,38400,1,0,0:0:0:0:
320,192,38775,1,0,0:0:0:0:
448,192,38775,1,0,0:0:0:0:
64,192,39150,1,0,0:0:0:0:
192,192,39150,1,0,0:0:0:0:
320,192,39525,1,0,0:0:0:0:
192,192,39900,1,0,0:0:0:0:
448,192,39900,1,0,0:0:0:0:
320,192,40087,1,0,0:0:0:0:
64,192,40275,1,0,0:0:0:0:
448,192,40275,1,0,0:0:0:0:
192,192,40462,1,0,0:0:0:0:
64,192,40650,1,0,0:0:0:0:
448,192,40650,1,0,0:0:0:0:
320,192,41025,1,0,0:0:0:0:
448,192,41025,1,0,0:0:0:0:
64,192,41400,1,0,0:0:0:0:
192,192,41400,1,0,0:0:0:0:
192,192,41775,1,0,0:0:0:0:
448,192,41775,1,0,0:0:0:0:
320,192,41962,1,0,0:0:0:0:
64,192,42150,1,0,0:0:0:0:
448,192,42150,1,0,0:0:0:0:
320,192,42525,1,0,0:0:0:0:
192,192,42712,1,0,0:0:0:0:
64,192,42900,1,0,0:0:0:0:
448,192,42900,1,0,0:0:0:0:
192,192,43275,1,0,0:0:0:0:
320,192,43275,1,0,0:0:0:0:
448,192,43650,1,0,0:0:0:0:
64,192,43650,1,0,0:0:0:0:
320,192,43837,1,0,0:0:0:0:
192,192,44025,1,0,0:0:0:0:
320,192,44212,1,0,0:0:0:0:
192,192,44400,1,0,0:0:0:0:
64,192,44400,1,0,0:0:0:0:
448,192,44587,1,0,0:0:0:0:
192,192,44775,1,0,0:0:0:0:
320,192,44962,1,0,0:0:0:0:
192,192,45150,1,0,0:0:0:0:
448,192,45150,1,0,0:0:0:0:
64,192,45337,1,0,0:0:0:0:
192,192,45525,1,0,0:0:0:0:
320,192,45712,1,0,0:0:0:0:
192,192,45900,1,0,0:0:0:0:
448,192,45900,1,0,0:0:0:0:
64,192,46087,1,0,0:0:0:0:
320,192,46275,1,0,0:0:0:0:
192,192,46462,1,0,0:0:0:0:
320,192,46650,1,0,0:0:0:0:
448,192,46650,1,0,0:0:0:0:
64,192,46837,1,0,0:0:0:0:
320,192,47025,1,0,0:0:0:0:
64,192,47212,1,0,0:0:0:0:
192,192,47400,1,0,0:0:0:0:
448,192,47400,1,0,0:0:0:0:
320,192,47587,1,0,0:0:0:0:
448,192,47775,1,0,0:0:0:0:
320,192,47962,1,0,0:0:0:0:
192,192,48150,1,0,0:0:0:0:
64,192,48150,1,0,0:0:0:0:
448,192,48337,1,0,0:0:0:0:
192,192,48525,1,0,0:0:0:0:
320,192,48712,1,0,0:0:0:0:
192,192,48900,1,0,0:0:0:0:
64,192,48900,1,0,0:0:0:0:
448,192,49087,1,0,0:0:0:0:
320,192,49275,1,0,0:0:0:0:
192,192,49275,1,0,0:0:0:0:
64,192,49650,1,0,0:0:0:0:
448,192,49650,1,0,0:0:0:0:
320,192,49837,1,0,0:0:0:0:
192,192,50025,1,0,0:0:0:0:
320,192,50212,1,0,0:0:0:0:
64,192,50400,1,0,0:0:0:0:
448,192,50400,1,0,0:0:0:0:
192,192,50587,1,0,0:0:0:0:
320,192,50775,1,0,0:0:0:0:
192,192,50962,1,0,0:0:0:0:
320,192,51150,1,0,0:0:0:0:
448,192,51150,1,0,0:0:0:0:
64,192,51337,1,0,0:0:0:0:
192,192,51525,1,0,0:0:0:0:
320,192,51712,1,0,0:0:0:0:
192,192,51900,1,0,0:0:0:0:
448,192,51900,1,0,0:0:0:0:
64,192,52087,1,0,0:0:0:0:
448,192,52275,1,0,0:0:0:0:
320,192,52462,1,0,0:0:0:0:
192,192,52650,1,0,0:0:0:0:
64,192,52650,1,0,0:0:0:0:
448,192,52837,1,0,0:0:0:0:
192,192,53025,1,0,0:0:0:0:
320,192,53212,1,0,0:0:0:0:
192,192,53400,1,0,0:0:0:0:
448,192,53400,1,0,0:0:0:0:
64,192,53587,1,0,0:0:0:0:
192,192,53775,1,0,0:0:0:0:
320,192,53962,1,0,0:0:0:0:
64,192,54150,1,0,0:0:0:0:
448,192,54150,1,0,0:0:0:0:
320,192,54337,1,0,0:0:0:0:
64,192,54525,1,0,0:0:0:0:
192,192,54712,1,0,0:0:0:0:
64,192,54900,1,0,0:0:0:0:
448,192,54900,1,0,0:0:0:0:
320,192,55087,1,0,0:0:0:0:
192,192,55181,1,0,0:0:0:0:
64,192,55275,1,0,0:0:0:0:
448,192,55275,1,0,0:0:0:0:
320,192,55462,1,0,0:0:0:0:
448,192,55650,1,0,0:0:0:0:
192,192,55650,1,0,0:0:0:0:
64,192,55837,1,0,0:0:0:0:
320,192,56025,1,0,0:0:0:0:
192,192,56212,1,0,0:0:0:0:
320,192,56400,1,0,0:0:0:0:
448,192,56400,1,0,0:0:0:0:
64,192,56587,1,0,0:0:0:0:
320,192,56775,1,0,0:0:0:0:
448,192,56962,1,0,0:0:0:0:
320,192,57150,1,0,0:0:0:0:
64,192,57150,1,0,0:0:0:0:
192,192,57337,1,0,0:0:0:0:
64,192,57525,1,0,0:0:0:0:
320,192,57712,1,0,0:0:0:0:
192,192,57900,1,0,0:0:0:0:
448,192,57900,1,0,0:0:0:0:
320,192,58087,1,0,0:0:0:0:
64,192,58275,1,0,0:0:0:0:
320,192,58462,1,0,0:0:0:0:
192,192,58650,1,0,0:0:0:0:
64,192,58650,1,0,0:0:0:0:
448,192,58837,1,0,0:0:0:0:
192,192,59025,1,0,0:0:0:0:
320,192,59212,1,0,0:0:0:0:
192,192,59400,1,0,0:0:0:0:
64,192,59400,1,0,0:0:0:0:
320,192,59587,1,0,0:0:0:0:
448,192,59775,1,0,0:0:0:0:
192,192,59962,1,0,0:0:0:0:
448,192,60150,1,0,0:0:0:0:
64,192,60150,1,0,0:0:0:0:
320,192,60337,1,0,0:0:0:0:
64,192,60525,1,0,0:0:0:0:
192,192,60712,1,0,0:0:0:0:
320,192,60900,1,0,0:0:0:0:
448,192,60900,1,0,0:0:0:0:
64,192,61087,1,0,0:0:0:0:
192,192,61181,1,0,0:0:0:0:
320,192,61275,1,0,0:0:0:0:
448,192,61275,1,0,0:0:0:0:
64,192,61650,1,0,0:0:0:0:
448,192,61650,1,0,0:0:0:0:
320,192,61837,1,0,0:0:0:0:
192,192,62025,1,0,0:0:0:0:
320,192,62212,1,0,0:0:0:0:
192,192,62400,1,0,0:0:0:0:
64,192,62400,1,0,0:0:0:0:
448,192,62587,1,0,0:0:0:0:
192,192,62775,1,0,0:0:0:0:
320,192,62962,1,0,0:0:0:0:
448,192,63150,1,0,0:0:0:0:
64,192,63150,1,0,0:0:0:0:
192,192,63337,1,0,0:0:0:0:
320,192,63525,1,0,0:0:0:0:
64,192,63712,1,0,0:0:0:0:
192,192,63900,1,0,0:0:0:0:
448,192,63900,1,0,0:0:0:0:
320,192,64087,1,0,0:0:0:0:
192,192,64275,1,0,0:0:0:0:
64,192,64462,1,0,0:0:0:0:
320,192,64650,1,0,0:0:0:0:
448,192,64650,1,0,0:0:0:0:
64,192,64837,1,0,0:0:0:0:
192,192,65025,1,0,0:0:0:0:
320,192,65025,1,0,0:0:0:0:
448,192,65212,1,0,0:0:0:0:
320,192,65400,1,0,0:0:0:0:
64,192,65400,1,0,0:0:0:0:
192,192,65587,1,0,0:0:0:0:
64,192,65775,1,0,0:0:0:0:
448,192,65775,1,0,0:0:0:0:
320,192,65962,1,0,0:0:0:0:
192,192,66150,1,0,0:0:0:0:
64,192,66150,1,0,0:0:0:0:
320,192,66337,1,0,0:0:0:0:
64,192,66525,1,0,0:0:0:0:
448,192,66525,1,0,0:0:0:0:
320,192,66712,1,0,0:0:0:0:
192,192,66900,1,0,0:0:0:0:
64,192,66900,1,0,0:0:0:0:
448,192,67087,1,0,0:0:0:0:
320,192,67275,1,0,0:0:0:0:
192,192,67275,1,0,0:0:0:0:
448,192,67462,1,0,0:0:0:0:
64,192,67650,1,0,0:0:0:0:
320,192,67650,1,0,0:0:0:0:
192,192,67837,1,0,0:0:0:0:
64,192,68025,1,0,0:0:0:0:
320,192,68025,1,0,0:0:0:0:
448,192,68212,1,0,0:0:0:0:
192,192,68400,1,0,0:0:0:0:
64,192,68400,1,0,0:0:0:0:
320,192,68587,1,0,0:0:0:0:
192,192,68775,1,0,0:0:0:0:
448,192,68775,1,0,0:0:0:0:
64,192,68962,1,0,0:0:0:0:
320,192,69150,1,0,0:0:0:0:
448,192,69150,1,0,0:0:0:0:
64,192,69337,1,0,0:0:0:0:
192,192,69525,1,0,0:0:0:0:
320,192,69525,1,0,0:0:0:0:
448,192,69712,1,0,0:0:0:0:
64,192,69900,1,0,0:0:0:0:
320,192,69900,1,0,0:0:0:0:
192,192,70087,1,0,0:0:0:0:
64,192,70275,1,0,0:0:0:0:
448,192,70275,1,0,0:0:0:0:
320,192,70462,1,0,0:0:0:0:
192,192,70650,1,0,0:0:0:0:
64,192,70650,1,0,0:0:0:0:
448,192,70743,1,0,0:0:0:0:
192,192,70837,1,0,0:0:0:0:
320,192,70931,1,0,0:0:0:0:
192,192,71025,1,0,0:0:0:0:
448,192,71025,1,0,0:0:0:0:
64,192,71118,1,0,0:0:0:0:
320,192,71212,1,0,0:0:0:0:
192,192,71306,1,0,0:0:0:0:
320,192,71400,1,0,0:0:0:0:
448,192,71400,1,0,0:0:0:0:
64,192,71493,1,0,0:0:0:0:
192,192,71587,1,0,0:0:0:0:
320,192,71681,1,0,0:0:0:0:
448,192,71775,1,0,0:0:0:0:
192,192,71775,1,0,0:0:0:0:
64,192,71868,1,0,0:0:0:0:
320,192,71962,1,0,0:0:0:0:
192,192,72056,1,0,0:0:0:0:
64,192,72150,1,0,0:0:0:0:
448,192,72150,1,0,0:0:0:0:
320,192,72337,1,0,0:0:0:0:
192,192,72525,1,0,0:0:0:0:
320,192,72712,1,0,0:0:0:0:
192,192,72900,1,0,0:0:0:0:
64,192,72900,1,0,0:0:0:0:
448,192,73087,1,0,0:0:0:0:
192,192,73275,1,0,0:0:0:0:
320,192,73462,1,0,0:0:0:0:
64,192,73650,1,0,0:0:0:0:
448,192,73650,1,0,0:0:0:0:
192,192,73837,1,0,0:0:0:0:
320,192,74025,1,0,0:0:0:0:
192,192,74212,1,0,0:0:0:0:
320,192,74400,1,0,0:0:0:0:
448,192,74400,1,0,0:0:0:0:
64,192,74587,1,0,0:0:0:0:
320,192,74775,1,0,0:0:0:0:
448,192,74962,1,0,0:0:0:0:
320,192,75150,1,0,0:0:0:0:
64,192,75150,128,0,78150:0:0:0:0:
192,192,75900,128,0,78150:0:0:0:0:
448,192,78150,1,0,0:0:0:0:
320,192,78150,1,0,0:0:0:0:
64,192,78525,128,0,78900:0:0:0:0:
192,192,78525,1,0,0:0:0:0:
320,192,78900,1,0,0:0:0:0:
448,192,78900,1,0,0:0:0:0:
192,192,79087,1,0,0:0:0:0:
64,192,79181,1,0,0:0:0:0:
320,192,79275,1,0,0:0:0:0:
192,192,79275,1,0,0:0:0:0:
64,192,79368,1,0,0:0:0:0:
320,192,79462,1,0,0:0:0:0:
192,192,79556,1,0,0:0:0:0:
64,192,79650,1,0,0:0:0:0:
448,192,79650,1,0,0:0:0:0:
320,192,79743,1,0,0:0:0:0:
192,192,79837,1,0,0:0:0:0:
64,192,80025,1,0,0:0:0:0:
320,192,80025,1,0,0:0:0:0:
192,192,80212,1,0,0:0:0:0:
320,192,80306,1,0,0:0:0:0:
192,192,80400,1,0,0:0:0:0:
448,192,80400,1,0,0:0:0:0:
64,192,80587,1,0,0:0:0:0:
192,192,80681,1,0,0:0:0:0:
320,192,80775,1,0,0:0:0:0:
448,192,80775,1,0,0:0:0:0:
64,192,80868,1,0,0:0:0:0:
320,192,80962,1,0,0:0:0:0:
192,192,81056,1,0,0:0:0:0:
64,192,81150,1,0,0:0:0:0:
320,192,81150,1,0,0:0:0:0:
192,192,81337,1,0,0:0:0:0:
320,192,81431,1,0,0:0:0:0:
64,192,81525,1,0,0:0:0:0:
448,192,81525,1,0,0:0:0:0:
320,192,81712,1,0,0:0:0:0:
192,192,81712,1,0,0:0:0:0:
192,192,81900,1,0,0:0:0:0:
64,192,81900,1,0,0:0:0:0:
320,192,81993,1,0,0:0:0:0:
192,192,82087,1,0,0:0:0:0:
448,192,82181,1,0,0:0:0:0:
320,192,82275,1,0,0:0:0:0:
64,192,82275,1,0,0:0:0:0:
192,192,82368,1,0,0:0:0:0:
64,192,82462,1,0,0:0:0:0:
192,192,82556,1,0,0:0:0:0:
320,192,82650,1,0,0:0:0:0:
448,192,82650,1,0,0:0:0:0:
64,192,82743,1,0,0:0:0:0:
192,192,82837,1,0,0:0:0:0:
320,192,83025,1,0,0:0:0:0:
448,192,83025,1,0,0:0:0:0:
192,192,83212,1,0,0:0:0:0:
64,192,83306,1,0,0:0:0:0:
192,192,83400,1,0,0:0:0:0:
448,192,83400,1,0,0:0:0:0:
320,192,83587,1,0,0:0:0:0:
192,192,83681,1,0,0:0:0:0:
320,192,83775,1,0,0:0:0:0:
448,192,83775,1,0,0:0:0:0:
64,192,83868,1,0,0:0:0:0:
320,192,83962,1,0,0:0:0:0:
192,192,84056,1,0,0:0:0:0:
64,192,84150,1,0,0:0:0:0:
448,192,84150,1,0,0:0:0:0:
320,192,84431,128,0,84712:0:0:0:0:
448,192,84431,1,0,0:0:0:0:
192,192,84712,128,0,84900:0:0:0:0:
64,192,84712,1,0,0:0:0:0:
448,192,84900,1,0,0:0:0:0:
320,192,84900,1,0,0:0:0:0:
64,192,84993,1,0,0:0:0:0:
192,192,85087,1,0,0:0:0:0:
320,192,85087,1,0,0:0:0:0:
64,192,85275,1,0,0:0:0:0:
448,192,85275,1,0,0:0:0:0:
320,192,85368,1,0,0:0:0:0:
192,192,85462,1,0,0:0:0:0:
320,192,85556,1,0,0:0:0:0:
192,192,85650,1,0,0:0:0:0:
64,192,85650,1,0,0:0:0:0:
320,192,85743,1,0,0:0:0:0:
448,192,85837,1,0,0:0:0:0:
64,192,86025,1,0,0:0:0:0:
320,192,86025,1,0,0:0:0:0:
192,192,86118,1,0,0:0:0:0:
320,192,86212,1,0,0:0:0:0:
192,192,86400,1,0,0:0:0:0:
448,192,86400,1,0,0:0:0:0:
320,192,86587,1,0,0:0:0:0:
192,192,86681,1,0,0:0:0:0:
64,192,86775,1,0,0:0:0:0:
448,192,86775,1,0,0:0:0:0:
320,192,86962,1,0,0:0:0:0:
192,192,87056,1,0,0:0:0:0:
64,192,87150,1,0,0:0:0:0:
448,192,87150,1,0,0:0:0:0:
192,192,87243,1,0,0:0:0:0:
320,192,87337,1,0,0:0:0:0:
448,192,87431,1,0,0:0:0:0:
64,192,87525,1,0,0:0:0:0:
192,192,87525,1,0,0:0:0:0:
320,192,87712,1,0,0:0:0:0:
192,192,87806,1,0,0:0:0:0:
320,192,87900,1,0,0:0:0:0:
448,192,87900,1,0,0:0:0:0:
64,192,87993,1,0,0:0:0:0:
192,192,88087,1,0,0:0:0:0:
320,192,88275,1,0,0:0:0:0:
448,192,88275,1,0,0:0:0:0:
64,192,88462,1,0,0:0:0:0:
192,192,88556,1,0,0:0:0:0:
320,192,88650,1,0,0:0:0:0:
64,192,88650,1,0,0:0:0:0:
448,192,88837,128,0,89400:0:0:0:0:
192,192,88837,1,0,0:0:0:0:
64,192,89025,1,0,0:0:0:0:
192,192,89118,1,0,0:0:0:0:
320,192,89212,1,0,0:0:0:0:
320,192,89400,128,0,89775:0:0:0:0:
64,192,89400,1,0,0:0:0:0:
64,192,89587,1,0,0:0:0:0:
192,192,89775,128,0,90150:0:0:0:0:
448,192,89775,1,0,0:0:0:0:
448,192,89962,1,0,0:0:0:0:
320,192,90150,1,0,0:0:0:0:
64,192,90150,128,0,90431:0:0:0:0:
448,192,90431,128,0,90712:0:0:0:0:
320,192,90431,1,0,0:0:0:0:
192,192,90712,128,0,90900:0:0:0:0:
320,192,90712,1,0,0:0:0:0:
448,192,90900,1,0,0:0:0:0:
64,192,90900,1,0,0:0:0:0:
320,192,90993,1,0,0:0:0:0:
192,192,91087,1,0,0:0:0:0:
64,192,91275,1,0,0:0:0:0:
448,192,91275,1,0,0:0:0:0:
320,192,91368,1,0,0:0:0:0:
192,192,91462,1,0,0:0:0:0:
320,192,91556,1,0,0:0:0:0:
192,192,91650,1,0,0:0:0:0:
64,192,91650,1,0,0:0:0:0:
320,192,91743,1,0,0:0:0:0:
448,192,91837,1,0,0:0:0:0:
64,192,92025,1,0,0:0:0:0:
192,192,92025,1,0,0:0:0:0:
448,192,92212,1,0,0:0:0:0:
320,192,92306,1,0,0:0:0:0:
192,192,92400,1,0,0:0:0:0:
64,192,92400,1,0,0:0:0:0:
320,192,92587,1,0,0:0:0:0:
448,192,92681,1,0,0:0:0:0:
64,192,92775,1,0,0:0:0:0:
320,192,92775,1,0,0:0:0:0:
192,192,92868,1,0,0:0:0:0:
320,192,92962,1,0,0:0:0:0:
448,192,93056,1,0,0:0:0:0:
192,192,93150,1,0,0:0:0:0:
320,192,93150,1,0,0:0:0:0:
64,192,93243,1,0,0:0:0:0:
320,192,93337,1,0,0:0:0:0:
192,192,93431,1,0,0:0:0:0:
448,192,93525,1,0,0:0:0:0:
320,192,93525,128,0,93712:0:0:0:0:
64,192,93712,128,0,93900:0:0:0:0:
192,192,93712,1,0,0:0:0:0:
192,192,93900,1,0,0:0:0:0:
320,192,93993,1,0,0:0:0:0:
192,192,94087,1,0,0:0:0:0:
448,192,94087,1,0,0:0:0:0:
320,192,94181,1,0,0:0:0:0:
64,192,94275,1,0,0:0:0:0:
448,192,94275,1,0,0:0:0:0:
192,192,94368,1,0,0:0:0:0:
320,192,94462,1,0,0:0:0:0:
448,192,94556,1,0,0:0:0:0:
192,192,94650,1,0,0:0:0:0:
64,192,94650,1,0,0:0:0:0:
320,192,94743,1,0,0:0:0:0:
192,192,94837,1,0,0:0:0:0:
64,192,95025,1,0,0:0:0:0:
448,192,95025,1,0,0:0:0:0:
320,192,95212,1,0,0:0:0:0:
192,192,95306,1,0,0:0:0:0:
64,192,95400,1,0,0:0:0:0:
448,192,95400,1,0,0:0:0:0:
192,192,95587,1,0,0:0:0:0:
320,192,95681,1,0,0:0:0:0:
448,192,95775,1,0,0:0:0:0:
192,192,95775,1,0,0:0:0:0:
64,192,95868,1,0,0:0:0:0:
320,192,95962,1,0,0:0:0:0:
192,192,96056,1,0,0:0:0:0:
320,192,96150,1,0,0:0:0:0:
448,192,96150,1,0,0:0:0:0:
64,192,96431,128,0,96712:0:0:0:0:
320,192,96431,1,0,0:0:0:0:
320,192,96712,128,0,96900:0:0:0:0:
192,192,96712,1,0,0:0:0:0:
64,192,96900,1,0,0:0:0:0:
448,192,96900,1,0,0:0:0:0:
192,192,96993,1,0,0:0:0:0:
320,192,97087,1,0,0:0:0:0:
448,192,97275,1,0,0:0:0:0:
192,192,97275,1,0,0:0:0:0:
64,192,97368,1,0,0:0:0:0:
320,192,97462,1,0,0:0:0:0:
192,192,97556,1,0,0:0:0:0:
64,192,97650,1,0,0:0:0:0:
448,192,97650,1,0,0:0:0:0:
320,192,97743,1,0,0:0:0:0:
192,192,97837,1,0,0:0:0:0:
64,192,98025,1,0,0:0:0:0:
448,192,98025,1,0,0:0:0:0:
192,192,98212,1,0,0:0:0:0:
320,192,98306,1,0,0:0:0:0:
448,192,98400,1,0,0:0:0:0:
192,192,98400,1,0,0:0:0:0:
64,192,98587,1,0,0:0:0:0:
320,192,98681,1,0,0:0:0:0:
192,192,98775,1,0,0:0:0:0:
64,192,98775,1,0,0:0:0:0:
448,192,98868,1,0,0:0:0:0:
320,192,98962,1,0,0:0:0:0:
192,192,99056,1,0,0:0:0:0:
64,192,99150,1,0,0:0:0:0:
448,192,99150,1,0,0:0:0:0:
192,192,99337,1,0,0:0:0:0:
320,192,99525,1,0,0:0:0:0:
320,192,99712,1,0,0:0:0:0:
64,192,99900,1,0,0:0:0:0:
448,192,99900,1,0,0:0:0:0:
192,192,100087,128,0,100275:0:0:0:0:
320,192,100087,1,0,0:0:0:0:
64,192,100275,1,0,0:0:0:0:
448,192,100275,1,0,0:0:0:0:
320,192,100368,1,0,0:0:0:0:
192,192,100462,1,0,0:0:0:0:
320,192,100556,1,0,0:0:0:0:
64,192,100650,1,0,0:0:0:0:
448,192,100650,1,0,0:0:0:0:
320,192,100837,1,0,0:0:0:0:
192,192,100837,128,0,102150:0:0:0:0:
448,192,101400,128,0,102150:0:0:0:0:
64,192,102150,1,0,0:0:0:0:
320,192,102150,1,0,0:0:0:0:
192,192,102525,1,0,0:0:0:0:
320,192,102806,1,0,0:0:0:0:
192,192,102900,1,0,0:0:0:0:
448,192,102900,1,0,0:0:0:0:
64,192,103275,1,0,0:0:0:0:
320,192,103275,1,0,0:0:0:0:
192,192,103650,1,0,0:0:0:0:
64,192,103650,1,0,0:0:0:0:
320,192,104025,1,0,0:0:0:0:
448,192,104025,1,0,0:0:0:0:
64,192,104400,1,0,0:0:0:0:
192,192,104775,1,0,0:0:0:0:
448,192,104775,1,0,0:0:0:0:
320,192,105150,1,0,0:0:0:0:
64,192,105150,1,0,0:0:0:0:
192,192,105525,1,0,0:0:0:0:
320,192,105712,1,0,0:0:0:0:
192,192,105806,1,0,0:0:0:0:
64,192,105900,1,0,0:0:0:0:
448,192,105900,1,0,0:0:0:0:
320,192,106275,1,0,0:0:0:0:
192,192,106650,1,0,0:0:0:0:
64,192,106650,1,0,0:0:0:0:
320,192,107025,1,0,0:0:0:0:
192,192,107400,1,0,0:0:0:0:
448,192,107400,1,0,0:0:0:0:
64,192,107775,1,0,0:0:0:0:
192,192,107962,1,0,0:0:0:0:
448,192,108150,1,0,0:0:0:0:
320,192,108150,1,0,0:0:0:0:
64,192,108525,1,0,0:0:0:0:
192,192,108712,1,0,0:0:0:0:
448,192,108900,1,0,0:0:0:0:
64,192,108900,1,0,0:0:0:0:
320,192,109087,1,0,0:0:0:0:
192,192,109275,1,0,0:0:0:0:
448,192,109462,1,0,0:0:0:0:
320,192,109650,1,0,0:0:0:0:
64,192,109650,1,0,0:0:0:0:
192,192,110025,1,0,0:0:0:0:
64,192,110212,1,0,0:0:0:0:
448,192,110212,1,0,0:0:0:0:
320,192,110400,1,0,0:0:0:0:
192,192,110587,1,0,0:0:0:0:
64,192,110775,1,0,0:0:0:0:
320,192,110775,1,0,0:0:0:0:
448,192,110962,1,0,0:0:0:0:
64,192,111150,1,0,0:0:0:0:
192,192,111150,1,0,0:0:0:0:
320,192,111337,1,0,0:0:0:0:
192,192,111525,1,0,0:0:0:0:
448,192,111712,1,0,0:0:0:0:
64,192,111712,1,0,0:0:0:0:
320,192,111900,1,0,0:0:0:0:
192,192,112087,1,0,0:0:0:0:
320,192,112275,1,0,0:0:0:0:
448,192,112275,1,0,0:0:0:0:
64,192,112462,1,0,0:0:0:0:
192,192,112650,1,0,0:0:0:0:
448,192,112650,1,0,0:0:0:0:
320,192,113025,1,0,0:0:0:0:
64,192,113212,1,0,0:0:0:0:
192,192,113306,1,0,0:0:0:0:
64,192,113400,1,0,0:0:0:0:
320,192,113400,1,0,0:0:0:0:
192,192,113587,1,0,0:0:0:0:
64,192,113775,1,0,0:0:0:0:
448,192,113775,1,0,0:0:0:0:
320,192,113962,1,0,0:0:0:0:
192,192,114150,1,0,0:0:0:0:
64,192,114150,1,0,0:0:0:0:
448,192,114337,1,0,0:0:0:0:
64,192,114525,1,0,0:0:0:0:
192,192,114712,1,0,0:0:0:0:
320,192,114900,1,0,0:0:0:0:
448,192,114900,1,0,0:0:0:0:
64,192,115087,1,0,0:0:0:0:
192,192,115275,1,0,0:0:0:0:
448,192,115275,1,0,0:0:0:0:
320,192,115368,1,0,0:0:0:0:
192,192,115462,1,0,0:0:0:0:
64,192,115556,1,0,0:0:0:0:
320,192,115650,1,0,0:0:0:0:
448,192,115650,1,0,0:0:0:0:
192,192,116025,1,0,0:0:0:0:
448,192,116025,1,0,0:0:0:0:
64,192,116118,1,0,0:0:0:0:
320,192,116212,1,0,0:0:0:0:
192,192,116306,1,0,0:0:0:0:
320,192,116400,1,0,0:0:0:0:
448,192,116400,1,0,0:0:0:0:
192,192,116775,1,0,0:0:0:0:
64,192,117150,1,0,0:0:0:0:
192,192,117150,128,0,118650:0:0:0:0:
320,192,117900,128,0,118650:0:0:0:0:
448,192,117900,1,0,0:0:0:0:
448,192,118650,1,0,0:0:0:0:
64,192,118650,1,0,0:0:0:0:
192,192,118837,1,0,0:0:0:0:
64,192,119025,1,0,0:0:0:0:
320,192,119025,1,0,0:0:0:0:
192,192,119212,1,0,0:0:0:0:
448,192,119212,1,0,0:0:0:0:
320,192,119400,1,0,0:0:0:0:
448,192,119400,1,0,0:0:0:0:
64,192,119587,1,0,0:0:0:0:
192,192,119775,1,0,0:0:0:0:
448,192,119775,1,0,0:0:0:0:
320,192,119962,1,0,0:0:0:0:
64,192,119962,1,0,0:0:0:0:
64,192,120150,1,0,0:0:0:0:
192,192,120150,1,0,0:0:0:0:
320,192,120337,1,0,0:0:0:0:
192,192,120525,1,0,0:0:0:0:
448,192,120525,1,0,0:0:0:0:
64,192,120712,1,0,0:0:0:0:
192,192,120900,1,0,0:0:0:0:
320,192,120900,1,0,0:0:0:0:
448,192,121087,1,0,0:0:0:0:
64,192,121275,1,0,0:0:0:0:
320,192,121275,1,0,0:0:0:0:
192,192,121462,1,0,0:0:0:0:
64,192,121650,1,0,0:0:0:0:
448,192,121650,1,0,0:0:0:0:
320,192,121837,1,0,0:0:0:0:
192,192,122025,1,0,0:0:0:0:
64,192,122025,1,0,0:0:0:0:
320,192,122212,1,0,0:0:0:0:
448,192,122212,1,0,0:0:0:0:
192,192,122400,1,0,0:0:0:0:
320,192,122400,1,0,0:0:0:0:
64,192,122587,1,0,0:0:0:0:
192,192,122775,1,0,0:0:0:0:
448,192,122775,1,0,0:0:0:0:
320,192,122962,1,0,0:0:0:0:
64,192,122962,1,0,0:0:0:0:
192,192,123150,1,0,0:0:0:0:
448,192,123150,1,0,0:0:0:0:
64,192,123337,1,0,0:0:0:0:
192,192,123525,1,0,0:0:0:0:
320,192,123525,1,0,0:0:0:0:
448,192,123712,1,0,0:0:0:0:
320,192,123900,1,0,0:0:0:0:
64,192,123900,1,0,0:0:0:0:
192,192,124087,1,0,0:0:0:0:
320,192,124275,1,0,0:0:0:0:
448,192,124275,1,0,0:0:0:0:
64,192,124462,1,0,0:0:0:0:
192,192,124650,1,0,0:0:0:0:
448,192,124650,1,0,0:0:0:0:
320,192,124837,1,0,0:0:0:0:
192,192,125025,1,0,0:0:0:0:
448,192,125025,1,0,0:0:0:0:
64,192,125212,1,0,0:0:0:0:
320,192,125400,1,0,0:0:0:0:
448,192,125400,1,0,0:0:0:0:
64,192,125587,1,0,0:0:0:0:
192,192,125775,1,0,0:0:0:0:
320,192,125775,1,0,0:0:0:0:
64,192,125962,1,0,0:0:0:0:
192,192,126150,1,0,0:0:0:0:
448,192,126150,1,0,0:0:0:0:
320,192,126337,1,0,0:0:0:0:
192,192,126525,1,0,0:0:0:0:
64,192,126525,1,0,0:0:0:0:
448,192,126712,1,0,0:0:0:0:
320,192,126900,1,0,0:0:0:0:
192,192,126900,1,0,0:0:0:0:
448,192,127087,1,0,0:0:0:0:
64,192,127275,1,0,0:0:0:0:
192,192,127275,1,0,0:0:0:0:
320,192,127462,1,0,0:0:0:0:
192,192,127650,1,0,0:0:0:0:
448,192,127650,128,0,130650:0:0:0:0:
64,192,128400,1,0,0:0:0:0:
192,192,128400,128,0,130650:0:0:0:0:
64,192,130650,1,0,0:0:0:0:
320,192,130650,1,0,0:0:0:0:
192,192,131025,1,0,0:0:0:0:
64,192,131400,1,0,0:0:0:0:
448,192,131400,1,0,0:0:0:0:
320,192,131775,1,0,0:0:0:0:
192,192,132150,1,0,0:0:0:0:
64,192,132150,1,0,0:0:0:0:
320,192,132525,1,0,0:0:0:0:
192,192,132900,1,0,0:0:0:0:
448,192,132900,1,0,0:0:0:0:
320,192,133275,1,0,0:0:0:0:
64,192,133650,1,0,0:0:0:0:
448,192,133650,1,0,0:0:0:0:
192,192,134025,1,0,0:0:0:0:
320,192,134400,1,0,0:0:0:0:
448,192,134400,1,0,0:0:0:0:
192,192,134775,1,0,0:0:0:0:
64,192,135150,1,0,0:0:0:0:
320,192,135150,1,0,0:0:0:0:
448,192,135525,1,0,0:0:0:0:
192,192,135900,1,0,0:0:0:0:
64,192,135900,1,0,0:0:0:0:
320,192,136275,1,0,0:0:0:0:
448,192,136275,1,0,0:0:0:0:
192,192,136650,1,0,0:0:0:0:
64,192,136650,1,0,0:0:0:0:
320,192,137025,1,0,0:0:0:0:
192,192,137400,1,0,0:0:0:0:
448,192,137400,1,0,0:0:0:0:
64,192,137775,1,0,0:0:0:0:
320,192,138150,1,0,0:0:0:0:
448,192,138150,1,0,0:0:0:0:
64,192,138525,1,0,0:0:0:0:
192,192,138900,1,0,0:0:0:0:
320,192,138900,1,0,0:0:0:0:
448,192,139275,1,0,0:0:0:0:
64,192,139650,1,0,0:0:0:0:
320,192,139650,1,0,0:0:0:0:
192,192,140025,1,0,0:0:0:0:
64,192,140400,1,0,0:0:0:0:
448,192,140400,1,0,0:0:0:0:
320,192,140775,1,0,0:0:0:0:
192,192,141150,1,0,0:0:0:0:
64,192,141150,1,0,0:0:0:0:
