osu file format v14

[General]
AudioFilename: M2U & Nicode - Myosotis.mp3
AudioLeadIn: 0
PreviewTime: 33000
Countdown: 1
SampleSet: Normal
StackLeniency: 0.2
Mode: 1
LetterboxInBreaks: 1
WidescreenStoryboard: 0

[Editor]
Bookmarks: 14250,16500,18750,19500,30281,66375,69000,70500,75750,77906,103500,118687,123375,130500
DistanceSpacing: 0.7
BeatDivisor: 4
GridSize: 32
TimelineZoom: 3.299999

[Metadata]
Title:Myosotis
TitleUnicode:Myosotis
Artist:M2U & NICODE feat. Guriri & Lucy
ArtistUnicode:M2U & NICODE feat. Guriri & Lucy
Creator:Lightning Wyvern
Version:Ura Oni
Source:Deemo
Tags:rayark dubstep piano android
BeatmapID:720154
BeatmapSetID:324084

[Difficulty]
HPDrainRate:5
CircleSize:5
OverallDifficulty:5
ApproachRate:10
SliderMultiplier:1.4
SliderTickRate:3

[Events]
//Background and Video events
0,0,"Rumia.full.1721311.jpg",0,0
//Break Periods
//Storyboard Layer 0 (Background)
//Storyboard Layer 1 (Fail)
//Storyboard Layer 2 (Pass)
//Storyboard Layer 3 (Foreground)
//Storyboard Sound Samples

[TimingPoints]
0,375,4,1,0,100,1,0
16500,-100,4,1,0,100,0,0
18750,-76.9230769230769,4,1,0,100,0,0
19500,-74.0740740740741,4,1,0,100,0,1
30281,-100,4,1,0,100,0,0
66375,-133.333333333333,4,1,0,100,0,0
69000,-100,4,1,0,100,0,0
70500,-95.2380952380952,4,1,0,100,0,0
70593,-90.9090909090909,4,1,0,100,0,0
70687,-86.9565217391304,4,1,0,100,0,0
70781,-83.3333333333333,4,1,0,100,0,0
70875,-80,4,1,0,100,0,0
70968,-76.9230769230769,4,1,0,100,0,0
71062,-74.0740740740741,4,1,0,100,0,0
71156,-71.4285714285714,4,1,0,100,0,0
71250,-68.9655172413793,4,1,0,100,0,0
71343,-66.6666666666667,4,1,0,100,0,0
71437,-64.5161290322581,4,1,0,100,0,0
71531,-60.6060606060606,4,1,0,100,0,0
72000,-74.0740740740741,4,1,0,100,0,0
74625,-86.9565217391304,4,1,0,100,0,0
75000,-100,4,1,0,100,0,0
75750,-133.333333333333,4,1,0,100,0,0
77812,-74.0740740740741,4,1,0,100,0,0
78187,-80,4,1,0,100,0,1
103500,-100,4,1,0,100,0,0
109875,-83.3333333333333,4,1,0,100,0,0
118687,-100,4,1,0,100,0,0
130500,-133.333333333333,4,1,0,100,0,0

[HitObjects]
192,192,1500,5,0,0:0:0:0:
320,192,2250,1,8,0:0:0:0:
320,192,3000,1,8,0:0:0:0:
320,192,3375,1,8,0:0:0:0:
192,192,3750,1,0,0:0:0:0:
320,192,4125,1,8,0:0:0:0:
192,192,4500,1,0,0:0:0:0:
192,192,5250,1,0,0:0:0:0:
192,192,5625,1,0,0:0:0:0:
320,192,6000,1,8,0:0:0:0:
320,192,6375,1,8,0:0:0:0:
192,192,6750,1,0,0:0:0:0:
192,192,7125,1,0,0:0:0:0:
192,192,7500,1,0,0:0:0:0:
192,192,7875,1,0,0:0:0:0:
320,192,8250,1,8,0:0:0:0:
320,192,8625,1,8,0:0:0:0:
320,192,9000,1,12,0:0:0:0:
320,192,9750,1,8,0:0:0:0:
192,192,10500,1,0,0:0:0:0:
320,192,11250,1,8,0:0:0:0:
192,192,11625,1,0,0:0:0:0:
192,192,12000,1,0,0:0:0:0:
192,192,12750,1,8,0:0:0:0:
192,192,13500,1,0,0:0:0:0:
192,192,14250,1,0,0:0:0:0:
192,192,14437,1,0,0:0:0:0:
192,192,14625,1,0,0:0:0:0:
288,192,14812,1,8,0:0:0:0:
288,192,15000,1,8,0:0:0:0:
288,192,15187,1,8,0:0:0:0:
192,192,15375,1,0,0:0:0:0:
192,192,15562,1,0,0:0:0:0:
288,192,15750,1,8,0:0:0:0:
192,192,15937,1,0,0:0:0:0:
288,192,16125,1,8,0:0:0:0:
192,192,16312,1,0,0:0:0:0:
288,192,16500,1,8,0:0:0:0:
192,192,16593,1,0,0:0:0:0:
288,192,16687,1,8,0:0:0:0:
192,192,16781,1,0,0:0:0:0:
288,192,16875,1,8,0:0:0:0:
192,192,16968,1,0,0:0:0:0:
288,192,17062,1,8,0:0:0:0:
192,192,17156,1,0,0:0:0:0:
288,192,17250,1,8,0:0:0:0:
192,192,17343,1,0,0:0:0:0:
192,192,17437,1,0,0:0:0:0:
288,192,17531,1,8,0:0:0:0:
288,192,17625,1,8,0:0:0:0:
192,192,17718,1,0,0:0:0:0:
192,192,17812,1,0,0:0:0:0:
288,192,17906,1,8,0:0:0:0:
288,192,18000,1,8,0:0:0:0:
288,192,18093,1,8,0:0:0:0:
288,192,18187,1,8,0:0:0:0:
288,192,18281,1,8,0:0:0:0:
288,192,18375,1,8,0:0:0:0:
288,192,18468,1,8,0:0:0:0:
288,192,18562,1,8,0:0:0:0:
288,192,18656,1,8,0:0:0:0:
288,192,18750,1,8,0:0:0:0:
288,192,18812,1,8,0:0:0:0:
288,192,18875,1,8,0:0:0:0:
288,192,18937,1,8,0:0:0:0:
288,192,19000,1,8,0:0:0:0:
288,192,19062,1,8,0:0:0:0:
192,192,19125,1,0,0:0:0:0:
192,192,19187,1,0,0:0:0:0:
192,192,19250,1,0,0:0:0:0:
192,192,19312,1,0,0:0:0:0:
192,192,19375,1,0,0:0:0:0:
192,192,19437,1,0,0:0:0:0:
288,192,19500,1,8,0:0:0:0:
192,192,19875,1,0,0:0:0:0:
192,192,20062,1,0,0:0:0:0:
288,192,20250,1,8,0:0:0:0:
192,192,20625,1,0,0:0:0:0:
288,192,20812,1,8,0:0:0:0:
192,192,20906,1,0,0:0:0:0:
288,192,21000,1,8,0:0:0:0:
192,192,21187,1,0,0:0:0:0:
288,192,21375,1,8,0:0:0:0:
192,192,21562,1,0,0:0:0:0:
192,192,21625,1,0,0:0:0:0:
192,192,21687,1,0,0:0:0:0:
288,192,21750,1,8,0:0:0:0:
192,192,22125,1,0,0:0:0:0:
192,192,22312,1,0,0:0:0:0:
288,192,22500,1,8,0:0:0:0:
192,192,22687,1,0,0:0:0:0:
192,192,22781,1,0,0:0:0:0:
288,192,22875,1,8,0:0:0:0:
192,192,22968,1,0,0:0:0:0:
192,192,23062,1,0,0:0:0:0:
192,192,23156,1,0,0:0:0:0:
288,192,23250,1,8,0:0:0:0:
192,192,23437,1,0,0:0:0:0:
288,192,23625,1,8,0:0:0:0:
192,192,23718,1,0,0:0:0:0:
192,192,23812,1,0,0:0:0:0:
288,192,23906,1,8,0:0:0:0:
192,192,24000,1,0,0:0:0:0:
192,192,24187,1,0,0:0:0:0:
192,192,24281,1,0,0:0:0:0:
288,192,24375,1,8,0:0:0:0:
192,192,24562,1,0,0:0:0:0:
288,192,24750,1,8,0:0:0:0:
192,192,24937,1,0,0:0:0:0:
192,192,25031,1,0,0:0:0:0:
288,192,25125,1,8,0:0:0:0:
288,192,25312,1,8,0:0:0:0:
192,192,25500,1,4,0:0:0:0:
192,192,25875,1,0,0:0:0:0:
192,192,26062,1,0,0:0:0:0:
288,192,26250,1,8,0:0:0:0:
192,192,26625,1,0,0:0:0:0:
288,192,26812,1,8,0:0:0:0:
192,192,27000,1,0,0:0:0:0:
288,192,27187,1,8,0:0:0:0:
192,192,27375,1,0,0:0:0:0:
288,192,27468,1,8,0:0:0:0:
192,192,27562,1,0,0:0:0:0:
192,192,27625,1,0,0:0:0:0:
192,192,27687,1,0,0:0:0:0:
288,192,27750,1,8,0:0:0:0:
288,192,27937,1,8,0:0:0:0:
192,192,28031,1,0,0:0:0:0:
288,192,28125,1,8,0:0:0:0:
288,192,28312,1,8,0:0:0:0:
192,192,28500,1,0,0:0:0:0:
192,192,28687,1,0,0:0:0:0:
192,192,28781,1,0,0:0:0:0:
288,192,28875,1,8,0:0:0:0:
192,192,28968,1,0,0:0:0:0:
192,192,29062,1,0,0:0:0:0:
192,192,29156,1,0,0:0:0:0:
288,192,29250,1,8,0:0:0:0:
192,192,29437,1,0,0:0:0:0:
288,192,29531,1,8,0:0:0:0:
192,192,29625,1,0,0:0:0:0:
192,192,29718,1,0,0:0:0:0:
288,192,29812,1,8,0:0:0:0:
192,192,30000,1,4,0:0:0:0:
256,192,30281,8,0,32531,0:0:0:0:
192,192,33000,5,0,0:0:0:0:
320,192,33375,1,8,0:0:0:0:
320,192,33750,1,8,0:0:0:0:
192,192,33937,1,0,0:0:0:0:
320,192,34125,1,8,0:0:0:0:
192,192,34312,1,0,0:0:0:0:
192,192,34500,1,0,0:0:0:0:
320,192,34875,1,8,0:0:0:0:
320,192,35062,1,8,0:0:0:0:
192,192,35250,1,0,0:0:0:0:
192,192,35437,1,0,0:0:0:0:
320,192,35625,1,8,0:0:0:0:
192,192,35812,1,0,0:0:0:0:
320,192,36000,1,8,0:0:0:0:
320,192,36375,1,8,0:0:0:0:
192,192,36562,1,0,0:0:0:0:
320,192,36750,1,8,0:0:0:0:
320,192,37125,1,8,0:0:0:0:
320,192,37312,1,8,0:0:0:0:
192,192,37500,1,0,0:0:0:0:
192,192,37687,1,0,0:0:0:0:
320,192,37875,1,8,0:0:0:0:
192,192,38062,1,0,0:0:0:0:
192,192,38125,1,0,0:0:0:0:
192,192,38187,1,0,0:0:0:0:
320,192,38250,1,8,0:0:0:0:
192,192,38437,1,0,0:0:0:0:
192,192,38500,1,0,0:0:0:0:
192,192,38562,1,0,0:0:0:0:
320,192,38625,1,8,0:0:0:0:
320,192,38812,1,8,0:0:0:0:
192,192,39000,1,0,0:0:0:0:
320,192,39375,1,8,0:0:0:0:
192,192,39562,1,0,0:0:0:0:
320,192,39750,1,8,0:0:0:0:
320,192,39937,1,8,0:0:0:0:
192,192,40125,1,0,0:0:0:0:
192,192,40312,1,0,0:0:0:0:
320,192,40500,1,8,0:0:0:0:
192,192,40687,1,0,0:0:0:0:
192,192,40750,1,0,0:0:0:0:
192,192,40812,1,0,0:0:0:0:
320,192,40875,1,8,0:0:0:0:
192,192,40937,1,0,0:0:0:0:
192,192,41000,1,0,0:0:0:0:
320,192,41062,1,8,0:0:0:0:
320,192,41250,1,8,0:0:0:0:
192,192,41625,1,0,0:0:0:0:
320,192,41812,1,8,0:0:0:0:
320,192,41875,1,8,0:0:0:0:
192,192,41937,1,0,0:0:0:0:
320,192,42000,1,8,0:0:0:0:
320,192,42375,1,8,0:0:0:0:
192,192,42562,1,0,0:0:0:0:
320,192,42750,1,8,0:0:0:0:
192,192,42937,1,0,0:0:0:0:
320,192,43031,1,8,0:0:0:0:
192,192,43125,1,0,0:0:0:0:
320,192,43312,1,8,0:0:0:0:
192,192,43500,1,0,0:0:0:0:
192,192,43875,1,0,0:0:0:0:
192,192,44062,1,0,0:0:0:0:
320,192,44250,1,8,0:0:0:0:
320,192,44625,1,8,0:0:0:0:
192,192,44812,1,0,0:0:0:0:
192,192,45000,1,0,0:0:0:0:
320,192,45375,1,8,0:0:0:0:
192,192,45562,1,0,0:0:0:0:
320,192,45750,1,8,0:0:0:0:
192,192,45937,1,0,0:0:0:0:
192,192,46125,1,0,0:0:0:0:
320,192,46312,1,8,0:0:0:0:
192,192,46500,1,0,0:0:0:0:
320,192,46875,1,8,0:0:0:0:
192,192,47062,1,0,0:0:0:0:
320,192,47250,1,8,0:0:0:0:
192,192,47625,1,0,0:0:0:0:
192,192,47812,1,0,0:0:0:0:
320,192,48000,1,8,0:0:0:0:
192,192,48187,1,0,0:0:0:0:
320,192,48281,1,8,0:0:0:0:
192,192,48375,1,0,0:0:0:0:
192,192,48468,1,0,0:0:0:0:
320,192,48562,1,8,0:0:0:0:
320,192,48750,1,8,0:0:0:0:
192,192,48843,1,0,0:0:0:0:
192,192,48937,1,0,0:0:0:0:
320,192,49000,1,8,0:0:0:0:
320,192,49062,1,8,0:0:0:0:
192,192,49125,1,0,0:0:0:0:
192,192,49187,1,0,0:0:0:0:
192,192,49250,1,0,0:0:0:0:
192,192,49312,1,0,0:0:0:0:
320,192,49406,1,8,0:0:0:0:
192,192,49500,1,4,0:0:0:0:
192,192,49875,1,0,0:0:0:0:
320,192,50250,1,8,0:0:0:0:
192,192,50625,1,0,0:0:0:0:
320,192,50812,1,8,0:0:0:0:
192,192,51000,1,0,0:0:0:0:
192,192,51375,1,0,0:0:0:0:
320,192,51562,1,8,0:0:0:0:
192,192,51750,1,0,0:0:0:0:
320,192,51937,1,8,0:0:0:0:
320,192,52125,1,8,0:0:0:0:
320,192,52312,1,8,0:0:0:0:
192,192,52500,1,0,0:0:0:0:
192,192,52875,1,0,0:0:0:0:
320,192,53062,1,8,0:0:0:0:
192,192,53250,1,0,0:0:0:0:
320,192,53625,1,8,0:0:0:0:
320,192,53812,1,8,0:0:0:0:
192,192,54000,1,0,0:0:0:0:
320,192,54375,1,8,0:0:0:0:
192,192,54562,1,0,0:0:0:0:
192,192,54750,1,0,0:0:0:0:
320,192,54937,1,8,0:0:0:0:
192,192,55000,1,0,0:0:0:0:
192,192,55062,1,0,0:0:0:0:
320,192,55125,1,8,0:0:0:0:
192,192,55312,1,0,0:0:0:0:
192,192,55500,1,0,0:0:0:0:
192,192,55875,1,0,0:0:0:0:
192,192,56062,1,0,0:0:0:0:
320,192,56250,1,8,0:0:0:0:
192,192,56625,1,0,0:0:0:0:
320,192,56812,1,8,0:0:0:0:
192,192,57000,1,0,0:0:0:0:
320,192,57375,1,8,0:0:0:0:
192,192,57562,1,0,0:0:0:0:
320,192,57750,1,8,0:0:0:0:
192,192,57937,1,0,0:0:0:0:
192,192,58031,1,0,0:0:0:0:
320,192,58125,1,8,0:0:0:0:
192,192,58312,1,0,0:0:0:0:
192,192,58500,1,0,0:0:0:0:
320,192,58875,1,8,0:0:0:0:
192,192,59062,1,0,0:0:0:0:
320,192,59250,1,8,0:0:0:0:
192,192,59625,1,0,0:0:0:0:
192,192,59812,1,0,0:0:0:0:
320,192,60000,1,8,0:0:0:0:
192,192,60187,1,0,0:0:0:0:
320,192,60281,1,8,0:0:0:0:
192,192,60375,1,0,0:0:0:0:
192,192,60468,1,0,0:0:0:0:
320,192,60562,1,8,0:0:0:0:
320,192,60750,1,8,0:0:0:0:
192,192,60843,1,0,0:0:0:0:
192,192,60937,1,0,0:0:0:0:
320,192,61000,1,8,0:0:0:0:
320,192,61062,1,8,0:0:0:0:
192,192,61125,1,0,0:0:0:0:
192,192,61187,1,0,0:0:0:0:
192,192,61250,1,0,0:0:0:0:
192,192,61312,1,0,0:0:0:0:
320,192,61406,1,8,0:0:0:0:
192,192,61500,1,4,0:0:0:0:
192,192,61875,1,0,0:0:0:0:
192,192,62062,1,0,0:0:0:0:
320,192,62250,1,8,0:0:0:0:
192,192,62625,1,0,0:0:0:0:
320,192,62812,1,8,0:0:0:0:
192,192,63000,1,0,0:0:0:0:
320,192,63187,1,8,0:0:0:0:
320,192,63250,1,8,0:0:0:0:
192,192,63312,1,0,0:0:0:0:
320,192,63375,1,8,0:0:0:0:
192,192,63562,1,0,0:0:0:0:
192,192,63656,1,0,0:0:0:0:
320,192,63750,1,8,0:0:0:0:
192,192,63937,1,0,0:0:0:0:
320,192,64125,1,8,0:0:0:0:
320,192,64312,1,8,0:0:0:0:
192,192,64500,1,0,0:0:0:0:
192,192,64875,1,0,0:0:0:0:
320,192,65062,1,8,0:0:0:0:
192,192,65156,1,0,0:0:0:0:
320,192,65250,1,8,0:0:0:0:
192,192,65437,1,0,0:0:0:0:
192,192,65531,1,0,0:0:0:0:
320,192,65625,1,8,0:0:0:0:
320,192,65812,1,8,0:0:0:0:
192,192,66000,1,0,0:0:0:0:
192,192,66375,1,4,0:0:0:0:
192,192,66750,1,0,0:0:0:0:
192,192,67125,1,4,0:0:0:0:
192,192,67500,1,0,0:0:0:0:
192,192,67875,1,4,0:0:0:0:
192,192,68250,1,0,0:0:0:0:
192,192,68625,1,4,0:0:0:0:
192,192,69000,1,0,0:0:0:0:
192,192,69187,1,4,0:0:0:0:
192,192,69375,1,0,0:0:0:0:
192,192,69562,1,4,0:0:0:0:
192,192,69750,1,0,0:0:0:0:
192,192,69937,1,4,0:0:0:0:
192,192,70125,1,0,0:0:0:0:
192,192,70312,1,4,0:0:0:0:
192,192,70500,1,0,0:0:0:0:
192,192,70593,1,0,0:0:0:0:
192,192,70687,1,0,0:0:0:0:
192,192,70781,1,0,0:0:0:0:
192,192,70875,1,0,0:0:0:0:
192,192,70968,1,0,0:0:0:0:
320,192,71062,1,8,0:0:0:0:
320,192,71156,1,8,0:0:0:0:
192,192,71250,1,0,0:0:0:0:
192,192,71343,1,0,0:0:0:0:
320,192,71437,1,8,0:0:0:0:
192,192,71531,1,0,0:0:0:0:
320,192,71625,1,8,0:0:0:0:
192,192,72000,1,0,0:0:0:0:
320,192,72187,1,8,0:0:0:0:
192,192,72281,1,0,0:0:0:0:
320,192,72375,1,8,0:0:0:0:
192,192,72562,1,0,0:0:0:0:
320,192,72750,1,8,0:0:0:0:
192,192,73125,1,0,0:0:0:0:
320,192,73312,1,8,0:0:0:0:
192,192,73500,1,0,0:0:0:0:
320,192,73687,1,8,0:0:0:0:
320,192,73781,1,8,0:0:0:0:
192,192,73875,1,0,0:0:0:0:
192,192,74062,1,0,0:0:0:0:
320,192,74250,1,8,0:0:0:0:
320,192,74625,1,8,0:0:0:0:
192,192,75000,1,0,0:0:0:0:
256,192,75750,8,0,77625,0:0:0:0:
192,192,77812,5,0,0:0:0:0:
192,192,77875,1,0,0:0:0:0:
192,192,77937,1,0,0:0:0:0:
320,192,78000,1,8,0:0:0:0:
320,192,78187,1,8,0:0:0:0:
192,192,78250,1,0,0:0:0:0:
192,192,78312,1,0,0:0:0:0:
320,192,78375,1,8,0:0:0:0:
192,192,78437,1,0,0:0:0:0:
192,192,78500,1,0,0:0:0:0:
320,192,78562,1,8,0:0:0:0:
320,192,78750,1,8,0:0:0:0:
192,192,78796,1,8,0:0:0:0:
192,192,79000,1,0,0:0:0:0:
320,192,79062,1,8,0:0:0:0:
320,192,79125,1,8,0:0:0:0:
320,192,79187,1,8,0:0:0:0:
192,192,79250,1,0,0:0:0:0:
320,192,79312,1,8,0:0:0:0:
192,192,79406,1,0,0:0:0:0:
320,192,79500,1,8,0:0:0:0:
192,192,79562,1,0,0:0:0:0:
192,192,79625,1,0,0:0:0:0:
192,192,79687,1,0,0:0:0:0:
320,192,79750,1,8,0:0:0:0:
192,192,79875,1,0,0:0:0:0:
192,192,79937,1,0,0:0:0:0:
192,192,80000,1,0,0:0:0:0:
192,192,80062,1,0,0:0:0:0:
192,192,80125,1,0,0:0:0:0:
320,192,80187,1,8,0:0:0:0:
192,192,80250,1,0,0:0:0:0:
192,192,80313,1,0,0:0:0:0:
192,192,80375,1,0,0:0:0:0:
192,192,80438,1,0,0:0:0:0:
320,192,80500,1,8,0:0:0:0:
320,192,80625,1,8,0:0:0:0:
320,192,80671,1,8,0:0:0:0:
320,192,80718,1,8,0:0:0:0:
320,192,80765,1,8,0:0:0:0:
320,192,80812,1,8,0:0:0:0:
320,192,80859,1,8,0:0:0:0:
192,192,80906,1,0,0:0:0:0:
192,192,81000,1,0,0:0:0:0:
192,192,81187,1,0,0:0:0:0:
192,192,81250,1,0,0:0:0:0:
192,192,81312,1,0,0:0:0:0:
320,192,81375,1,8,0:0:0:0:
192,192,81468,1,0,0:0:0:0:
320,192,81562,1,8,0:0:0:0:
320,192,81750,1,8,0:0:0:0:
192,192,81812,1,0,0:0:0:0:
192,192,81875,1,0,0:0:0:0:
320,192,81937,1,8,0:0:0:0:
320,192,82031,1,8,0:0:0:0:
192,192,82125,1,0,0:0:0:0:
320,192,82312,1,8,0:0:0:0:
320,192,82375,1,8,0:0:0:0:
192,192,82437,1,0,0:0:0:0:
320,192,82500,1,8,0:0:0:0:
192,192,82593,1,0,0:0:0:0:
320,192,82687,1,8,0:0:0:0:
192,192,82875,1,0,0:0:0:0:
320,192,83062,1,8,0:0:0:0:
320,192,83250,1,8,0:0:0:0:
192,192,83437,1,0,0:0:0:0:
192,192,83500,1,0,0:0:0:0:
320,192,83531,1,8,0:0:0:0:
320,192,83718,1,8,0:0:0:0:
192,192,83750,1,0,0:0:0:0:
192,192,83812,1,0,0:0:0:0:
192,192,84000,1,0,0:0:0:0:
192,192,84046,1,0,0:0:0:0:
192,192,84093,1,0,0:0:0:0:
192,192,84140,1,0,0:0:0:0:
320,192,84281,1,8,0:0:0:0:
192,192,84375,1,0,0:0:0:0:
320,192,84421,1,8,0:0:0:0:
192,192,84468,1,0,0:0:0:0:
192,192,84515,1,0,0:0:0:0:
320,192,84562,1,8,0:0:0:0:
320,192,84750,1,8,0:0:0:0:
192,192,84812,1,0,0:0:0:0:
192,192,84875,1,0,0:0:0:0:
320,192,84937,1,8,0:0:0:0:
320,192,85125,1,8,0:0:0:0:
192,192,85187,1,0,0:0:0:0:
192,192,85250,1,0,0:0:0:0:
320,192,85312,1,8,0:0:0:0:
192,192,85406,1,0,0:0:0:0:
320,192,85500,1,8,0:0:0:0:
192,192,85562,1,0,0:0:0:0:
192,192,85625,1,0,0:0:0:0:
320,192,85687,1,8,0:0:0:0:
320,192,85875,1,8,0:0:0:0:
192,192,86062,1,0,0:0:0:0:
192,192,86125,1,0,0:0:0:0:
192,192,86187,1,0,0:0:0:0:
320,192,86250,1,8,0:0:0:0:
192,192,86312,1,0,0:0:0:0:
192,192,86375,1,0,0:0:0:0:
192,192,86437,1,0,0:0:0:0:
320,192,86484,1,8,0:0:0:0:
320,192,86531,1,8,0:0:0:0:
320,192,86578,1,8,0:0:0:0:
320,192,86625,1,8,0:0:0:0:
320,192,86671,1,8,0:0:0:0:
320,192,86718,1,8,0:0:0:0:
320,192,86765,1,8,0:0:0:0:
192,192,86812,1,0,0:0:0:0:
192,192,87000,1,0,0:0:0:0:
192,192,87046,1,0,0:0:0:0:
192,192,87093,1,0,0:0:0:0:
192,192,87140,1,0,0:0:0:0:
320,192,87187,1,8,0:0:0:0:
320,192,87375,1,8,0:0:0:0:
192,192,87562,1,0,0:0:0:0:
192,192,87625,1,0,0:0:0:0:
320,192,87687,1,8,0:0:0:0:
192,192,87750,1,0,0:0:0:0:
192,192,87812,1,0,0:0:0:0:
192,192,87875,1,0,0:0:0:0:
320,192,87937,1,8,0:0:0:0:
320,192,87984,1,8,0:0:0:0:
320,192,88031,1,8,0:0:0:0:
320,192,88078,1,8,0:0:0:0:
192,192,88125,1,0,0:0:0:0:
192,192,88312,1,0,0:0:0:0:
192,192,88359,1,0,0:0:0:0:
320,192,88406,1,8,0:0:0:0:
192,192,88500,1,0,0:0:0:0:
320,192,88687,1,8,0:0:0:0:
192,192,88750,1,0,0:0:0:0:
192,192,88812,1,0,0:0:0:0:
320,192,88875,1,8,0:0:0:0:
192,192,88937,1,0,0:0:0:0:
192,192,89000,1,0,0:0:0:0:
320,192,89062,1,8,0:0:0:0:
320,192,89250,1,8,0:0:0:0:
320,192,89437,1,8,0:0:0:0:
192,192,89500,1,0,0:0:0:0:
192,192,89562,1,0,0:0:0:0:
320,192,89625,1,8,0:0:0:0:
320,192,89812,1,8,0:0:0:0:
320,192,90000,1,8,0:0:0:0:
320,192,90046,1,8,0:0:0:0:
320,192,90093,1,8,0:0:0:0:
320,192,90140,1,8,0:0:0:0:
192,192,90187,1,0,0:0:0:0:
192,192,90375,1,0,0:0:0:0:
192,192,90437,1,0,0:0:0:0:
192,192,90500,1,0,0:0:0:0:
320,192,90562,1,8,0:0:0:0:
192,192,90750,1,0,0:0:0:0:
320,192,90812,1,8,0:0:0:0:
192,192,90875,1,0,0:0:0:0:
320,192,90937,1,8,0:0:0:0:
192,192,91125,1,0,0:0:0:0:
192,192,91187,1,0,0:0:0:0:
320,192,91250,1,8,0:0:0:0:
192,192,91312,1,0,0:0:0:0:
320,192,91406,1,8,0:0:0:0:
192,192,91500,1,0,0:0:0:0:
320,192,91593,1,8,0:0:0:0:
320,192,91687,1,8,0:0:0:0:
192,192,91750,1,0,0:0:0:0:
192,192,91812,1,0,0:0:0:0:
320,192,91875,1,8,0:0:0:0:
320,192,92062,1,8,0:0:0:0:
192,192,92156,1,0,0:0:0:0:
192,192,92250,1,0,0:0:0:0:
320,192,92343,1,8,0:0:0:0:
192,192,92437,1,0,0:0:0:0:
192,192,92531,1,0,0:0:0:0:
320,192,92625,1,8,0:0:0:0:
320,192,92671,1,8,0:0:0:0:
320,192,92718,1,8,0:0:0:0:
320,192,92765,1,8,0:0:0:0:
192,192,92812,1,0,0:0:0:0:
320,192,93000,1,8,0:0:0:0:
192,192,93062,1,0,0:0:0:0:
192,192,93125,1,0,0:0:0:0:
320,192,93187,1,8,0:0:0:0:
320,192,93375,1,8,0:0:0:0:
192,192,93437,1,0,0:0:0:0:
192,192,93500,1,0,0:0:0:0:
320,192,93562,1,8,0:0:0:0:
320,192,93750,1,8,0:0:0:0:
320,192,93843,1,8,0:0:0:0:
192,192,93937,1,0,0:0:0:0:
192,192,94031,1,0,0:0:0:0:
320,192,94125,1,8,0:0:0:0:
320,192,94218,1,8,0:0:0:0:
192,192,94312,1,0,0:0:0:0:
320,192,94375,1,8,0:0:0:0:
320,192,94437,1,8,0:0:0:0:
320,192,94500,1,8,0:0:0:0:
192,192,94562,1,0,0:0:0:0:
192,192,94625,1,0,0:0:0:0:
320,192,94687,1,8,0:0:0:0:
320,192,94875,1,8,0:0:0:0:
320,192,95062,1,8,0:0:0:0:
192,192,95156,1,0,0:0:0:0:
320,192,95250,1,8,0:0:0:0:
320,192,95437,1,8,0:0:0:0:
192,192,95500,1,0,0:0:0:0:
192,192,95562,1,0,0:0:0:0:
320,192,95625,1,8,0:0:0:0:
192,192,95718,1,0,0:0:0:0:
320,192,95812,1,8,0:0:0:0:
192,192,96000,1,0,0:0:0:0:
320,192,96063,1,8,0:0:0:0:
320,192,96125,1,8,0:0:0:0:
320,192,96188,1,8,0:0:0:0:
192,192,96250,1,0,0:0:0:0:
192,192,96312,1,0,0:0:0:0:
320,192,96375,1,8,0:0:0:0:
192,192,96437,1,0,0:0:0:0:
192,192,96500,1,0,0:0:0:0:
320,192,96562,1,8,0:0:0:0:
320,192,96750,1,8,0:0:0:0:
192,192,96812,1,0,0:0:0:0:
192,192,96875,1,0,0:0:0:0:
320,192,96937,1,8,0:0:0:0:
192,192,97125,1,0,0:0:0:0:
192,192,97218,1,0,0:0:0:0:
320,192,97312,1,8,0:0:0:0:
320,192,97406,1,8,0:0:0:0:
192,192,97500,1,0,0:0:0:0:
320,192,97593,1,8,0:0:0:0:
320,192,97687,1,8,0:0:0:0:
192,192,97781,1,0,0:0:0:0:
192,192,97875,1,0,0:0:0:0:
192,192,97937,1,0,0:0:0:0:
192,192,98000,1,0,0:0:0:0:
192,192,98062,1,0,0:0:0:0:
192,192,98125,1,0,0:0:0:0:
320,192,98187,1,8,0:0:0:0:
192,192,98250,1,0,0:0:0:0:
192,192,98313,1,0,0:0:0:0:
192,192,98375,1,0,0:0:0:0:
192,192,98438,1,0,0:0:0:0:
320,192,98500,1,8,0:0:0:0:
320,192,98625,1,8,0:0:0:0:
320,192,98671,1,8,0:0:0:0:
320,192,98718,1,8,0:0:0:0:
320,192,98765,1,8,0:0:0:0:
320,192,98812,1,8,0:0:0:0:
320,192,98859,1,8,0:0:0:0:
192,192,98906,1,0,0:0:0:0:
192,192,99000,1,0,0:0:0:0:
192,192,99187,1,0,0:0:0:0:
192,192,99250,1,0,0:0:0:0:
192,192,99312,1,0,0:0:0:0:
192,192,99375,1,0,0:0:0:0:
320,192,99437,1,8,0:0:0:0:
320,192,99562,1,8,0:0:0:0:
192,192,99750,1,0,0:0:0:0:
320,192,99937,1,8,0:0:0:0:
192,192,100125,1,0,0:0:0:0:
320,192,100218,1,8,0:0:0:0:
192,192,100312,1,0,0:0:0:0:
192,192,100375,1,0,0:0:0:0:
192,192,100437,1,0,0:0:0:0:
320,192,100500,1,8,0:0:0:0:
320,192,100687,1,8,0:0:0:0:
192,192,100875,2,0,L|320:192,1,105
256,192,101250,12,0,101625,0:0:0:0:
192,192,102000,5,0,0:0:0:0:
320,192,102375,1,8,0:0:0:0:
320,192,102656,1,8,0:0:0:0:
320,192,102750,1,8,0:0:0:0:
320,192,103125,1,8,0:0:0:0:
192,192,103500,1,0,0:0:0:0:
320,192,103875,1,8,0:0:0:0:
192,192,104250,1,0,0:0:0:0:
320,192,104625,1,8,0:0:0:0:
320,192,105000,1,8,0:0:0:0:
192,192,105375,1,0,0:0:0:0:
320,192,105562,1,8,0:0:0:0:
192,192,105625,1,0,0:0:0:0:
192,192,105687,1,0,0:0:0:0:
320,192,105750,1,8,0:0:0:0:
320,192,106125,1,8,0:0:0:0:
192,192,106500,1,0,0:0:0:0:
192,192,106875,1,0,0:0:0:0:
320,192,107250,1,8,0:0:0:0:
320,192,107625,1,8,0:0:0:0:
320,192,107812,1,8,0:0:0:0:
320,192,107875,1,8,0:0:0:0:
320,192,107937,1,8,0:0:0:0:
192,192,108000,1,0,0:0:0:0:
192,192,108375,1,0,0:0:0:0:
320,192,108562,1,8,0:0:0:0:
320,192,108750,1,8,0:0:0:0:
320,192,108937,1,8,0:0:0:0:
192,192,109125,1,0,0:0:0:0:
320,192,109312,1,8,0:0:0:0:
320,192,109500,1,8,0:0:0:0:
192,192,109875,1,0,0:0:0:0:
320,192,110062,1,8,0:0:0:0:
192,192,110125,1,0,0:0:0:0:
192,192,110187,1,0,0:0:0:0:
192,192,110250,1,0,0:0:0:0:
192,192,110437,1,0,0:0:0:0:
320,192,110625,1,8,0:0:0:0:
320,192,110812,1,8,0:0:0:0:
192,192,111000,1,0,0:0:0:0:
192,192,111187,1,0,0:0:0:0:
320,192,111375,1,8,0:0:0:0:
192,192,111562,1,0,0:0:0:0:
320,192,111750,1,8,0:0:0:0:
320,192,111937,1,8,0:0:0:0:
320,192,112125,1,8,0:0:0:0:
320,192,112312,1,8,0:0:0:0:
192,192,112406,1,0,0:0:0:0:
320,192,112500,1,8,0:0:0:0:
192,192,112875,1,0,0:0:0:0:
320,192,113062,1,8,0:0:0:0:
192,192,113125,1,0,0:0:0:0:
192,192,113187,1,0,0:0:0:0:
320,192,113250,1,8,0:0:0:0:
192,192,113437,1,0,0:0:0:0:
192,192,113484,1,0,0:0:0:0:
192,192,113531,1,0,0:0:0:0:
192,192,113578,1,0,0:0:0:0:
320,192,113625,1,8,0:0:0:0:
192,192,113812,1,0,0:0:0:0:
320,192,114000,1,8,0:0:0:0:
192,192,114187,1,0,0:0:0:0:
192,192,114375,1,0,0:0:0:0:
192,192,114562,1,0,0:0:0:0:
320,192,114750,1,8,0:0:0:0:
320,192,114937,1,8,0:0:0:0:
320,192,115031,1,8,0:0:0:0:
192,192,115125,1,0,0:0:0:0:
320,192,115218,1,8,0:0:0:0:
320,192,115312,1,8,0:0:0:0:
320,192,115406,1,8,0:0:0:0:
192,192,115500,1,0,0:0:0:0:
320,192,115781,1,8,0:0:0:0:
320,192,115875,1,8,0:0:0:0:
320,192,115968,1,8,0:0:0:0:
320,192,116062,1,8,0:0:0:0:
192,192,116156,1,0,0:0:0:0:
192,192,116250,1,0,0:0:0:0:
192,192,116437,1,0,0:0:0:0:
320,192,116625,1,8,0:0:0:0:
192,192,116812,1,0,0:0:0:0:
320,192,117000,1,8,0:0:0:0:
192,192,117187,1,0,0:0:0:0:
192,192,117250,1,0,0:0:0:0:
192,192,117312,1,0,0:0:0:0:
320,192,117375,1,8,0:0:0:0:
192,192,117562,1,0,0:0:0:0:
320,192,117750,1,8,0:0:0:0:
192,192,117937,1,0,0:0:0:0:
192,192,118000,1,0,0:0:0:0:
192,192,118062,1,0,0:0:0:0:
320,192,118125,1,8,0:0:0:0:
320,192,118312,1,8,0:0:0:0:
320,192,118500,1,8,0:0:0:0:
192,192,118593,1,0,0:0:0:0:
320,192,118687,1,8,0:0:0:0:
320,192,118875,1,8,0:0:0:0:
192,192,119062,1,0,0:0:0:0:
320,192,119250,1,8,0:0:0:0:
320,192,119625,1,8,0:0:0:0:
192,192,119812,1,0,0:0:0:0:
320,192,120000,1,8,0:0:0:0:
192,192,120375,1,0,0:0:0:0:
192,192,120562,1,0,0:0:0:0:
320,192,120750,1,8,0:0:0:0:
192,192,120843,1,0,0:0:0:0:
320,192,120937,1,8,0:0:0:0:
192,192,121125,1,0,0:0:0:0:
320,192,121312,1,8,0:0:0:0:
192,192,121500,1,0,0:0:0:0:
320,192,121687,1,8,0:0:0:0:
192,192,121781,1,0,0:0:0:0:
320,192,121875,1,8,0:0:0:0:
320,192,122062,1,8,0:0:0:0:
192,192,122250,1,0,0:0:0:0:
192,192,122625,1,0,0:0:0:0:
320,192,122812,1,8,0:0:0:0:
192,192,123000,1,0,0:0:0:0:
192,192,123375,1,0,0:0:0:0:
192,192,123562,1,0,0:0:0:0:
320,192,123750,1,8,0:0:0:0:
192,192,123937,1,0,0:0:0:0:
192,192,124031,1,0,0:0:0:0:
320,192,124125,1,8,0:0:0:0:
320,192,124312,1,8,0:0:0:0:
192,192,124500,1,0,0:0:0:0:
320,192,124687,1,8,0:0:0:0:
192,192,124875,1,0,0:0:0:0:
320,192,125062,1,8,0:0:0:0:
192,192,125250,1,0,0:0:0:0:
320,192,125437,1,8,0:0:0:0:
320,192,125625,1,8,0:0:0:0:
320,192,125812,1,8,0:0:0:0:
192,192,126000,1,0,0:0:0:0:
192,192,126187,1,0,0:0:0:0:
320,192,126375,1,8,0:0:0:0:
192,192,126562,1,0,0:0:0:0:
320,192,126750,1,8,0:0:0:0:
320,192,127125,1,8,0:0:0:0:
192,192,127500,1,0,0:0:0:0:
256,192,128250,12,0,130125,0:0:0:0:
192,192,130500,5,0,0:0:0:0:
192,192,130875,1,0,0:0:0:0:
320,192,131250,1,8,0:0:0:0:
320,192,132000,1,8,0:0:0:0:
192,192,132375,1,0,0:0:0:0:
320,192,132750,1,8,0:0:0:0:
320,192,133500,1,8,0:0:0:0:
192,192,134250,1,0,0:0:0:0:
192,192,135000,1,0,0:0:0:0:
320,192,135750,1,8,0:0:0:0:
320,192,136125,1,8,0:0:0:0:
192,192,136500,1,0,0:0:0:0:
192,192,136875,1,0,0:0:0:0:
320,192,137250,1,8,0:0:0:0:
320,192,138000,1,8,0:0:0:0:
192,192,138375,1,0,0:0:0:0:
320,192,138750,1,8,0:0:0:0:
192,192,139500,1,0,0:0:0:0:
192,192,140250,1,0,0:0:0:0:
192,192,140875,1,0,0:0:0:0:
192,192,140937,1,0,0:0:0:0:
192,192,141000,1,0,0:0:0:0:
