osu file format v14

[General]
AudioFilename: asdf.mp3
AudioLeadIn: 0
PreviewTime: 43477
Countdown: 0
SampleSet: Soft
StackLeniency: 1
Mode: 0
LetterboxInBreaks: 0
WidescreenStoryboard: 1

[Editor]
Bookmarks: 13665,41415,48165,55517,66017,69017,76517,78017,98360,102017,103517,127665
DistanceSpacing: 1.3
BeatDivisor: 4
GridSize: 4
TimelineZoom: 1.4

[Metadata]
Title:Myosotis
TitleUnicode:Myosotis
Artist:M2U & NICODE feat. Guriri & Lucy
ArtistUnicode:M2U & NICODE feat. Guriri & Lucy
Creator:Irreversible
Version:Hard
Source:
Tags:
BeatmapID:720401
BeatmapSetID:322948

[Difficulty]
HPDrainRate:5
CircleSize:3.8
OverallDifficulty:5
ApproachRate:7
SliderMultiplier:1.24999990463257
SliderTickRate:2

[Events]
//Background and Video events
0,0,"BG.jpg",0,0
//Break Periods
2,103717,108617
//Storyboard Layer 0 (Background)
//Storyboard Layer 1 (Fail)
//Storyboard Layer 2 (Pass)
//Storyboard Layer 3 (Foreground)
Sprite,Foreground,Centre,"SB/Nicks/6.png",320,240 M,0,17642,18017,220,370,332,370 F,0,17642,18017,0,1 M,0,18017,32267,332,370,464,370 F,0,18017,32267,1 M,0,32267,32642,464,370,622,370 F,0,32267,32642,1,0
//Storyboard Sound Samples

[TimingPoints]
1517,375,4,2,2,30,1,0
9017,-100,4,2,2,10,0,0
9110,-100,4,2,2,20,0,0
12017,-100,4,2,2,10,0,0
12110,-100,4,2,2,20,0,0
19517,-100,4,2,2,60,0,0
31517,-100,4,2,2,5,0,0
33017,-133.333333333333,4,2,2,40,0,0
39017,-133.333333333333,4,2,0,50,0,0
40517,-83.3333333333333,4,2,0,50,0,0
42017,-133.333333333333,4,2,0,50,0,0
43517,-100,4,2,2,60,0,0
72017,-133.333333333333,4,2,2,70,0,0
76517,-100,4,2,2,5,0,0
78017,-100,4,2,2,80,0,1
78767,-100,4,2,2,80,0,0
81017,-100,4,2,2,80,0,1
81392,-100,4,2,2,80,0,0
81954,-100,4,2,2,80,0,1
82517,-100,4,2,2,80,0,0
83079,-100,4,2,2,80,0,1
83829,-100,4,2,2,80,0,0
84017,-100,4,2,2,80,0,1
84298,-100,4,2,2,80,0,0
87017,-100,4,2,2,80,0,1
87392,-100,4,2,2,80,0,0
90017,-100,4,2,2,80,0,1
90767,-100,4,2,2,80,0,0
93017,-100,4,2,2,80,0,1
93392,-100,4,2,2,80,0,0
94517,-100,4,2,2,80,0,1
95829,-100,4,2,2,80,0,0
96017,-100,4,2,2,80,0,1
96298,-100,4,2,2,80,0,0
102017,-100,4,2,2,60,0,0
103142,-100,4,2,2,40,0,0
103517,-100,4,2,0,60,0,0
109517,-100,4,2,2,60,0,0
127517,-100,4,2,2,20,0,0

[Colours]
Combo1 : 255,187,255
Combo2 : 255,255,128
Combo3 : 190,190,190

[HitObjects]
256,192,13517,5,2,0:0:0:0:
256,192,13610,12,0,18017,0:0:0:0:
80,280,19517,6,0,P|128:316|192:312,1,124.999990463257,4|2,1:0|0:0,0:0:0:0:
256,256,20079,1,2,0:0:0:0:
321,312,20267,2,0,P|382:316|432:280,2,124.999990463257,8|2|4,1:3|0:0|3:0,0:0:0:0:
321,312,21392,1,2,0:0:0:0:
196,192,21767,6,0,B|120:196,1,62.4999952316285,8|0,1:3|0:0,0:0:0:0:
76,112,22142,2,0,B|138:108,1,62.4999952316285,4|0,1:2|0:1,0:0:0:0:
208,36,22517,6,0,P|244:80|376:96,1,187.499985694886,4|2,1:0|0:0,0:0:0:0:
460,68,23267,2,0,P|403:77|324:183,1,187.499985694886,8|0,1:3|0:0,0:0:0:0:
304,268,24017,2,0,P|324:214|271:92,1,187.499985694886,4|0,3:0|0:0,0:0:0:0:
208,36,24767,1,8,1:3:0:0:
80,192,25142,1,4,0:0:0:0:
208,348,25517,6,0,B|244:356|268:340|268:340|336:372|384:308,1,187.499985694886,4|2,1:0|0:0,0:0:0:0:
400,216,26267,2,0,B|388:156|388:156|420:64|420:64|368:76,1,187.499985694886,8|2,1:3|0:0,0:0:0:0:
296,48,27017,2,0,P|264:32|144:112,1,187.499985694886,4|2,3:0|0:0,0:0:0:0:
188,192,27767,1,0,1:3:0:0:
164,320,27954,1,4,0:0:0:0:
186,200,28142,1,4,0:0:0:0:
165,311,28329,1,2,0:0:0:0:
288,272,28517,6,0,B|368:280|368:280|420:308|420:308|448:288|432:256,1,187.499985694886,4|0,1:0|0:0,0:0:0:0:
380,184,29267,2,0,P|400:120|472:180,1,187.499985694886,8|2,1:3|0:0,0:0:0:0:
436,266,30017,1,4,1:0:0:0:
256,192,30110,12,2,32642,0:0:0:0:
32,316,33017,6,0,P|77:317|115:266,1,93.7499964237213,4|2,0:0|0:0,0:0:0:0:
110,286,33767,2,0,L|100:240,1,46.8749982118607,2|0,0:0|0:0,0:0:0:0:
183,218,34142,2,0,L|173:172,1,46.8749982118607,2|2,0:0|0:0,0:0:0:0:
228,104,34517,6,0,B|276:80|276:124|320:100,1,93.7499964237213,2|2,0:0|0:0,0:0:0:0:
380,48,35079,1,0,0:0:0:0:
448,104,35267,2,0,P|452:148|448:164,1,46.8749982118607,2|2,0:0|0:0,0:0:0:0:
440,236,35642,2,0,P|438:259|443:282,1,46.8749982118607,2|0,0:0|0:0,0:0:0:0:
392,352,36017,6,0,L|284:340,1,93.7499964237213,2|2,0:0|0:0,0:0:0:0:
208,352,36579,1,0,0:0:0:0:
188,268,36767,1,2,0:0:0:0:
188,268,37142,5,2,0:0:0:0:
108,232,37329,1,2,0:0:0:0:
32,192,37517,1,2,0:0:0:0:
32,192,37892,5,2,0:0:0:0:
112,156,38079,1,2,0:0:0:0:
188,116,38267,2,0,P|208:88|188:36,1,93.7499964237213,2|2,0:3|0:3,0:0:0:0:
323,268,39017,2,0,P|302:307|323:347,1,93.7499964237213,4|0,0:3|0:0,0:0:0:0:
452,183,39767,1,0,1:0:0:0:
420,104,39954,1,0,0:0:0:0:
345,61,40142,1,4,0:3:0:0:
259,68,40329,1,0,0:0:0:0:
188,116,40517,6,0,P|164:152|96:160,1,112.499987983704,4|0,0:3|0:0,0:0:0:0:
104,172,40892,6,0,P|158:169|192:126,1,112.499987983704,6|0,0:0|0:0,0:0:0:0:
198,137,41267,6,0,P|163:179|109:182,1,112.499987983704,0|0,1:0|0:0,0:0:0:0:
114,193,41642,6,0,L|96:288,1,74.9999919891361,2|2,0:0|0:0,0:0:0:0:
124,340,42017,2,0,P|164:364|208:356,1,93.7499964237213,4|6,0:3|0:0,0:0:0:0:
256,296,42579,1,0,0:0:0:0:
303,355,42767,2,0,P|348:363|388:340,1,93.7499964237213,0|4,1:0|0:3,0:0:0:0:
424,192,43517,6,0,B|384:144|384:144|396:80,1,124.999990463257,4|2,1:0|0:0,0:0:0:0:
332,24,44079,1,2,0:0:0:0:
256,68,44267,2,0,B|267:129|267:129|227:177,1,124.999990463257,8|2,1:3|0:0,0:0:0:0:
144,156,44829,1,2,0:0:0:0:
88,220,45017,6,0,P|80:280|116:329,1,124.999990463257,6|2,3:0|0:0,0:0:0:0:
280,280,45767,2,0,P|335:256|360:200,1,124.999990463257,8|2,1:3|0:0,0:0:0:0:
256,68,46517,2,0,P|208:31|146:37,1,124.999990463257,6|2,3:0|0:0,0:0:0:0:
256,172,47267,1,8,1:3:0:0:
365,37,47642,1,2,0:0:0:0:
444,192,48017,6,0,P|324:344|104:300,1,437.499966621399,6|2,3:0|0:0,0:0:0:0:
76,220,49517,6,0,B|84:188|60:160|60:160|72:144|72:144|20:100|48:24,1,187.499985694886,6|2,3:3|0:0,0:0:0:0:
124,72,50267,2,0,B|256:48|256:48|312:60,1,187.499985694886,8|2,1:3|0:0,0:0:0:0:
392,36,51017,6,0,P|392:84|324:144,1,124.999990463257,6|2,3:0|0:0,0:0:0:0:
392,348,51767,2,0,P|392:300|324:240,1,124.999990463257,8|2,1:3|0:0,0:0:0:0:
169,138,52517,2,0,P|124:96|120:36,1,124.999990463257,6|2,3:0|0:0,0:0:0:0:
169,245,53267,2,0,P|124:287|120:348,1,124.999990463257,10|2,1:3|0:0,0:0:0:0:
256,192,54017,1,6,1:0:0:0:
160,48,54392,5,10,1:0:0:0:
256,88,54579,1,10,1:0:0:0:
352,48,54767,1,10,1:3:0:0:
256,96,54954,1,10,1:0:0:0:
256,106,55048,1,2,1:3:0:0:
256,113,55142,2,0,L|256:197,1,62.4999952316285,10|4,1:0|0:0,0:0:0:0:
184,212,55517,6,0,B|124:236|124:236|0:212,1,187.499985694886,4|2,1:2|0:0,0:0:0:0:
12,340,56267,2,0,B|72:316|72:316|196:340,1,187.499985694886,8|2,1:3|0:0,0:0:0:0:
280,356,57017,2,0,P|344:360|364:244,1,187.499985694886,6|2,3:0|0:0,0:0:0:0:
320,192,57767,6,0,B|308:156|308:156|368:88,1,124.999990463257,8|2,1:3|0:3,0:0:0:0:
224,136,58517,2,0,B|198:164|198:164|109:147,1,124.999990463257,6|2,3:0|0:0,0:0:0:0:
224,247,59267,2,0,B|261:255|261:255|290:340,1,124.999990463257,8|2,1:3|0:0,0:0:0:0:
136,260,60017,2,0,B|120:192|192:156|192:156|328:180,1,249.999980926514,6|8,1:3|1:3,0:0:0:0:
460,116,61142,1,4,0:2:0:0:
448,276,61517,6,0,P|396:320|256:236,2,249.999980926514,6|8|6,1:3|1:3|1:3,0:0:0:0:
376,128,63392,1,2,0:0:0:0:
257,243,63767,1,8,1:3:0:0:
140,132,64142,1,2,0:3:0:0:
256,20,64517,6,0,P|240:80|256:140,1,124.999990463257,6|2,1:3|0:0,0:0:0:0:
256,364,65267,2,0,P|272:304|256:244,1,124.999990463257,8|4,1:3|1:2,0:0:0:0:
140,132,66017,5,6,1:0:0:0:
140,132,66392,1,4,1:2:0:0:
140,132,66767,1,2,1:0:0:0:
140,132,67142,1,4,1:3:0:0:
140,132,67517,1,4,1:3:0:0:
140,132,67892,1,2,1:0:0:0:
140,132,68267,1,4,1:2:0:0:
140,132,68642,1,4,1:3:0:0:
140,132,69017,6,0,L|208:112,1,62.4999952316285,4|4,1:2|3:0,0:0:0:0:
372,132,69392,2,0,L|304:112,1,62.4999952316285,2|4,1:3|3:0,0:0:0:0:
140,164,69767,2,0,L|208:144,1,62.4999952316285,4|4,1:2|3:0,0:0:0:0:
372,164,70142,2,0,L|304:144,1,62.4999952316285,2|4,1:3|3:0,0:0:0:0:
140,196,70517,6,0,L|208:176,1,62.4999952316285,6|4,1:2|1:3,0:0:0:0:
372,196,70892,2,0,L|304:176,1,62.4999952316285,8|4,1:3|1:3,0:0:0:0:
136,284,71267,2,0,L|204:264,1,62.4999952316285,0|12,1:0|1:3,0:0:0:0:
368,284,71642,2,0,L|300:264,1,62.4999952316285,8|0,1:0|0:0,0:0:0:0:
256,156,72017,6,0,P|348:80|488:164,1,281.249989271164,4|2,1:0|0:0,0:0:0:0:
256,156,73517,2,0,P|164:80|24:164,1,281.249989271164,4|4,1:0|0:0,0:0:0:0:
32,143,75017,1,4,1:0:0:0:
256,192,75110,12,0,77267,0:0:0:0:
96,192,78017,6,0,B|80:156|80:156|124:176|124:176|100:228,1,124.999990463257,4|0,1:3|0:0,0:0:0:0:
172,348,78767,2,0,B|168:316|168:316|208:228,1,124.999990463257,10|2,1:0|1:1,0:0:0:0:
352,192,79517,2,0,B|356:224|356:224|316:312,1,124.999990463257,4|10,3:0|1:0,0:0:0:0:
317,308,80267,1,10,1:0:0:0:
317,308,80642,1,14,1:0:0:0:
317,308,81017,6,0,P|372:296|436:348,1,124.999990463257,4|2,3:3|1:0,0:0:0:0:
195,308,81767,2,0,P|140:296|76:348,2,124.999990463257,10|2|2,1:0|1:0|0:0,0:0:0:0:
195,308,82610,1,2,0:0:0:0:
195,308,82704,5,10,1:0:0:0:
256,240,82892,2,0,L|336:240,1,62.4999952316285,2|8,1:0|1:0,0:0:0:0:
180,192,83267,2,0,L|136:140,1,62.4999952316285,10|8,1:0|3:0,0:0:0:0:
128,128,83548,2,0,L|172:76,1,62.4999952316285,2|8,1:0|3:0,0:0:0:0:
183,65,83829,1,2,1:0:0:0:
329,65,84017,6,0,L|432:48,2,93.7499928474428,4|12|2,3:0|1:2|1:0,0:0:0:0:
304,144,84767,6,0,B|382:131|382:131|336:248,1,187.499985694886,10|2,1:0|1:0,0:0:0:0:
312,308,85517,1,4,3:0:0:0:
256,248,85704,1,4,3:0:0:0:
256,248,85798,1,0,0:1:0:0:
256,248,85892,2,0,L|140:264,1,93.7499928474428,10|8,1:0|1:3,0:0:0:0:
144,268,86267,2,0,L|51:280,1,93.7499928474428,10|8,1:0|3:0,0:0:0:0:
32,288,86642,2,0,P|56:248|4:192,1,124.999990463257,2|4,1:0|3:0,0:0:0:0:
108,60,87392,6,0,P|140:72|176:72,1,62.4999952316285,2|2,1:0|1:0,0:0:0:0:
208,60,87673,1,2,1:0:0:0:
208,60,87767,1,8,1:0:0:0:
277,101,87954,6,0,B|287:84|285:66|285:66|317:106|365:95,1,124.999990463257,6|2,1:2|1:0,0:0:0:0:
280,236,88704,6,0,L|140:224,1,124.999990463257,10|0,1:0|1:0,0:0:0:0:
80,256,89267,2,0,P|64:312|76:340,1,62.4999952316285,10|2,1:0|1:0,0:0:0:0:
128,368,89642,1,4,1:2:0:0:
256,136,90017,5,4,3:0:0:0:
256,136,90392,1,4,3:0:0:0:
408,192,90767,6,0,L|448:188,2,31.2499976158143,10|0|2,1:0|0:0|1:0,0:0:0:0:
344,244,91142,2,0,P|336:284|348:324,1,62.4999952316285,0|0,1:0|0:0,0:0:0:0:
284,364,91517,2,0,P|253:337|212:327,1,62.4999952316285,4|2,3:0|1:0,0:0:0:0:
152,340,91892,1,10,1:0:0:0:
152,340,92267,1,10,1:0:0:0:
152,340,92642,1,2,1:2:0:0:
40,224,93017,6,0,P|20:168|72:104,1,124.999990463257,4|0,3:0|0:0,0:0:0:0:
200,48,93767,2,0,L|244:56,4,31.2499976158143,10|2|0|2|4,1:0|1:0|1:0|1:0|1:2,0:0:0:0:
132,4,94329,1,10,1:0:0:0:
96,176,94704,6,0,L|168:192,2,62.4999952316285,10|2|0,1:0|1:0|1:0,0:0:0:0:
224,236,95267,2,0,L|312:228,1,62.4999952316285,10|2,1:0|1:0,0:0:0:0:
308,228,95548,2,0,L|391:246,1,62.4999952316285,2|2,1:0|1:0,0:0:0:0:
388,248,95829,1,4,1:2:0:0:
480,160,96017,6,0,B|464:104|464:104|484:56,2,93.7499928474428,4|12|2,3:0|1:2|1:0,0:0:0:0:
436,228,96767,2,0,P|388:248|324:208,1,124.999990463257,8|0,1:0|1:0,0:0:0:0:
327,214,97235,1,2,1:0:0:0:
327,214,97329,1,2,1:0:0:0:
292,144,97517,2,0,L|208:152,1,62.4999952316285,4|2,3:0|1:0,0:0:0:0:
156,116,97892,6,0,P|148:148|160:188,1,62.4999952316285,10|8,1:0|1:0,0:0:0:0:
112,248,98267,6,0,P|128:276|165:296,1,62.4999952316285,10|8,1:0|1:0,0:0:0:0:
180,368,98642,6,0,P|212:376|252:364,1,62.4999952316285,2|4,1:0|0:0,0:0:0:0:
308,324,99017,1,4,3:0:0:0:
184,220,99392,1,2,1:0:0:0:
184,220,99579,1,2,1:0:0:0:
256,76,99954,1,2,1:0:0:0:
256,76,100142,2,0,L|297:69,2,31.2499976158143,2|0|8,1:0|1:0|1:0,0:0:0:0:
184,40,100517,5,2,1:0:0:0:
116,84,100704,2,0,P|96:144|144:208,1,124.999990463257,4|0,1:2|1:0,0:0:0:0:
204,224,101267,2,0,B|352:200|352:200|312:192,1,187.499985694886,4|0,1:0|0:0,0:0:0:0:
204,224,102017,1,4,1:2:0:0:
256,44,103517,1,4,1:2:0:0:
76,192,109517,6,0,P|60:240|92:304,1,124.999990463257,4|8,1:0|1:0,0:0:0:0:
168,336,110079,1,2,0:0:0:0:
240,300,110267,2,0,L|320:312,1,62.4999952316285,2|4,0:0|1:3,0:0:0:0:
396,304,110642,2,0,L|334:294,1,62.4999952316285,8|4,1:0|3:0,0:0:0:0:
288,228,111017,6,0,P|272:184|272:152,1,62.4999952316285,6|2,1:3|0:0,0:0:0:0:
400,132,111392,2,0,P|369:167|342:183,1,62.4999952316285,8|2,1:0|0:0,0:0:0:0:
260,80,111767,2,0,P|306:88|333:104,1,62.4999952316285,2|4,0:1|3:0,0:0:0:0:
188,136,112142,2,0,P|159:147|128:150,1,62.4999952316285,10|2,1:0|0:0,0:0:0:0:
40,92,112517,6,0,P|84:120|12:192,1,187.499985694886,6|2,1:3|0:0,0:0:0:0:
14,193,113173,1,2,0:0:0:0:
14,193,113267,2,0,P|88:228|40:295,1,187.499985694886,2|2,0:1|1:0,0:0:0:0:
140,348,114017,6,0,L|212:336,1,62.4999952316285,6|2,1:3|0:1,0:0:0:0:
310,337,114392,2,0,L|372:348,1,62.4999952316285,8|2,1:0|0:1,0:0:0:0:
172,328,114767,2,0,L|244:316,1,62.4999952316285,2|4,0:1|3:0,0:0:0:0:
342,317,115142,2,0,L|403:327,1,62.4999952316285,10|2,1:0|1:0,0:0:0:0:
484,256,115517,2,0,P|508:212|472:136,1,124.999990463257,6|10,1:3|1:0,0:0:0:0:
484,145,115985,1,0,0:0:0:0:
484,145,116079,5,2,1:0:0:0:
484,145,116173,1,0,0:0:0:0:
484,145,116267,1,2,1:0:0:0:
256,192,116642,1,8,1:0:0:0:
27,145,117017,5,4,1:0:0:0:
484,238,117767,1,0,0:3:0:0:
256,40,118517,6,0,L|196:68,1,62.4999952316285,6|2,1:3|0:0,0:0:0:0:
256,40,118892,2,0,L|316:68,1,62.4999952316285,2|0,0:0|0:0,0:0:0:0:
392,104,119267,2,0,P|408:136|380:144,1,62.4999952316285,6|2,1:3|0:0,0:0:0:0:
391,237,119642,2,0,P|410:258|392:280,1,62.4999952316285,2|0,0:0|0:0,0:0:0:0:
256,344,120017,6,0,L|312:317,1,62.4999952316285,6|2,1:3|0:0,0:0:0:0:
256,344,120392,2,0,L|199:317,1,62.4999952316285,2|2,0:0|0:0,0:0:0:0:
120,280,120767,2,0,P|101:258|120:237,1,62.4999952316285,6|2,1:3|0:0,0:0:0:0:
120,146,121142,2,0,P|101:125|120:103,1,62.4999952316285,2|2,0:0|0:0,0:0:0:0:
256,40,121517,1,6,1:0:0:0:
256,192,121610,12,2,124142,0:0:0:0:
164,192,124517,6,0,P|188:272|276:320,1,187.499985694886,4|0,1:2|0:0,0:0:0:0:
274,319,125267,2,0,L|192:332,1,62.4999952316285,4|4,0:0|3:0,0:0:0:0:
360,264,125642,2,0,L|442:276,1,62.4999952316285,8|8,1:0|0:3,0:0:0:0:
492,192,126017,2,0,P|508:144|456:68,1,124.999990463257,6|8,1:2|1:0,0:0:0:0:
34,79,126767,2,0,P|4:132|20:192,1,124.999990463257,4|8,0:0|1:0,0:0:0:0:
256,348,127517,1,4,1:0:0:0:
256,192,127610,12,4,130517,0:0:0:0:
